#TITLE:Dark Sky;
#SUBTITLE:;
#ARTIST:Justin Prime x TBR x EMKR;
#TITLETRANSLIT:;
#SUBTITLETRANSLIT:;
#ARTISTTRANSLIT:;
#GENRE:;
#CREDIT:darkanine;
#MUSIC:Dark Sky.ogg;
#BANNER:Dark Sky.png;
#BACKGROUND:Dark Sky-bg.png;
#CDTITLE:;
#SAMPLESTART:60.923;
#SAMPLELENGTH:14.769;
#SELECTABLE:YES;
#OFFSET:0.000;
#BPMS:0.000=130.000
,278.000=260.000
,279.000=130.000
;
#STOPS:262.000=1.385
,278.000=0.058
,278.250=0.058
,278.500=0.058
,278.750=0.058
;
#DISPLAYBPM:130.000;
#BGCHANGES:;
#FGCHANGES:;

//--------------- dance-single - ----------------
#NOTES:
     dance-single:
     :
     Medium:
     10:
     0,0,0,0,0:
0000
0000
0000
0000
,
0000
0000
0000
0000
,
0000
0000
0000
0000
,
0000
0000
0000
0000
,
0000
0000
0000
0000
,
0001
0000
0010
0000
0001
0000
0100
0001
,
1000
0000
0010
0000
1000
0000
0100
1000
,
0001
0000
0010
0000
0001
0000
0100
0010
,
1000
0010
0000
0000
,
2000
0000
0010
0000
3002
0000
0013
0001
,
2000
0000
0100
0000
3002
0000
0103
0001
,
2000
0000
0010
0000
0001
0000
3100
1000
,
0002
0000
0010
0000
1000
0000
0103
0001
,
0020
0000
1000
0000
0100
0000
0031
1000
,
0020
0000
0001
0000
0100
0000
1030
0001
,
2000
0000
0100
0000
3002
0000
0103
0001
,
1000
0000
0000
0000
,
1000
0010
1000
0010
1000
0001
1000
0001
,
1000
0100
1000
0100
1000
0000
1000
0000
,
0001
0010
0001
0010
0001
1000
0001
1000
,
0001
0100
0001
0100
0001
0000
0001
0000
,
1000
0010
1000
0010
0001
0010
0001
0010
,
0100
0010
0100
0010
0100
0000
0001
0000
,
0010
0001
0010
0001
0010
1000
0010
1000
,
0010
0100
0010
0100
0010
0000
0100
0000
,
1000
0000
1000
0000
0001
0000
0001
1000
,
0100
0000
0100
0000
0010
0000
0010
0001
,
1000
0000
0010
0000
0001
0000
0010
1000
,
0100
0001
0100
2000
,
3001
0100
0001
0100
0010
1000
0010
1000
,
0001
0010
0001
0010
0200
0000
0000
0000
,
0300
0000
0000
0000
,
1000
1000
1000
0000
,
1001
0000
0001
1000
0010
0000
0100
0001
,
0010
0110
1001
0100
,
1001
0000
1000
0001
0010
0000
0010
0001
,
0100
0000
0000
0100
0000
0000
0010
0000
0100
0000
0000
0000
1001
0000
0000
0000
,
0001
0000
0000
0000
0100
0000
0001
0000
1000
0000
0000
1000
0000
0000
0100
0000
,
0010
0000
0000
0010
0000
0000
0100
0000
1000
0000
0001
0000
1000
0000
0000
0000
,
1001
0000
0001
0100
1000
0000
0100
0000
,
0001
0001
0001
0001
0001
0000
0001
0000
,
0000
0000
0000
0000
1001
0000
1000
0000
0010
0000
0000
0010
0000
0000
0100
0000
,
0001
0000
0000
0001
0000
0000
0010
0000
0110
0000
0000
0000
0001
0000
0000
0000
,
0110
0000
0000
0000
1000
0000
0100
0000
0010
0000
0000
0010
0000
0000
0001
0000
,
0100
0000
0000
0100
0000
0000
0010
0000
2000
0000
0000
0000
3000
0000
0000
0000
,
0001
0000
0000
0000
1000
0000
0100
0000
0010
0000
0000
0010
0000
0000
0100
0000
,
0001
0000
0000
0001
0000
0000
0100
0000
0010
0000
0000
0000
0001
0000
0000
0000
,
1000
0000
0000
0000
0010
0000
0001
0000
0010
0000
0000
0010
0000
0000
1000
0000
,
0002
0010
1000
0203
,
0000
0000
0000
0000
,
0000
0000
0300
0000
0001
0100
0001
0100
,
0001
1000
0001
1000
0001
0100
0001
0100
,
0010
0100
0000
0000
0010
1000
0010
1000
,
0100
1000
0100
1000
0010
1000
0010
1000
,
0100
0010
0000
0000
0001
0010
0001
0010
,
0001
1000
0001
1000
0001
0010
0001
0010
,
0100
0010
0100
1000
0001
1000
0001
1000
,
0010
1000
0010
2000
0010
0000
0001
0000
,
3100
1000
0002
0100
,
2003
0100
3002
0010
,
2003
0000
3010
0010
0200
0000
0001
0000
,
0320
0001
0230
1000
,
0320
0000
1030
1000
0100
0010
0100
0010
,
0100
0010
0100
0010
0001
1000
0001
1000
,
0001
1000
0001
1000
0002
0000
0000
0000
,
0000
0000
0000
0000
0003
0000
1000
0010
,
0100
0010
1000
0010
0100
0010
1000
0001
,
0100
0001
1000
0100
0010
0001
1000
0001
,
0010
0001
1000
0001
0010
0100
1000
0100
,
0001
0100
1000
0001
0010
0000
0001
0100
,
0010
0100
0001
0100
1000
0100
0010
1000
,
0010
0100
0001
1000
0100
0010
0001
1000
,
0001
1000
0010
0100
0010
0100
0002
0000
,
0010
1000
0103
0000
;

//--------------- dance-single - ----------------
#NOTES:
     dance-single:
     :
     Hard:
     15:
     0,0,0,0,0:
0000
0000
0000
0000
,
0000
0000
0000
0000
,
0000
0000
0000
0000
,
0000
0000
0000
0000
,
0000
0000
0000
0000
,
0000
0000
0000
0000
,
0000
0000
0000
0000
,
0000
0000
0000
0000
,
0000
0000
0000
0000
0000
0000
0000
0000
0001
0010
0000
0010
0100
0000
0100
0000
,
1000
0000
1100
0000
0100
0000
1001
0001
,
0100
0000
0101
0000
0001
0000
1001
1000
,
0010
0000
1010
0000
1000
0000
0101
0001
,
1000
0000
0011
0000
0010
0000
1100
1000
,
0001
0000
0110
0000
1000
0000
1001
0001
,
1000
0000
0110
0000
0001
0000
1001
1000
,
0002
0000
0010
0000
2003
0000
0100
3100
,
1000
0000
0000
0000
,
0001
0000
0100
0001
0100
0000
0001
0010
0001
0000
1000
0100
1000
0000
0010
1000
,
0010
0000
0100
0001
0100
0000
0010
1000
0001
0000
0001
0000
0000
1000
0100
0010
,
0001
0000
0001
0010
0000
0010
0100
1000
0100
0000
0010
0000
0100
1000
0001
0000
,
1000
0000
1000
0010
0000
0010
0100
0001
1000
0001
0100
0000
0001
1000
0010
0000
,
1000
0000
0001
0010
0001
0000
1000
0010
1000
0000
0100
0010
0100
0000
0010
0001
,
0010
0000
0100
1000
0100
0000
1000
0001
0010
0001
1000
0000
0010
0100
0010
0000
,
1000
0000
0100
0010
0100
0000
0010
0001
1000
0001
0010
0000
0100
1000
0001
0000
,
0100
0000
0010
0100
0010
0000
0001
0000
0010
0000
1000
0000
0001
0010
0100
1000
,
0001
0000
0000
0000
0001
0000
0000
0000
0001
0000
0000
0000
0001
0000
0100
0010
,
1000
0000
0000
0000
1000
0000
0000
0000
1000
0000
0000
0000
1000
0000
0100
1000
,
0010
0000
0000
0000
0010
0000
0000
0000
0010
0000
0000
0000
0010
0000
1000
0001
,
0100
0000
0010
0000
0100
0000
0010
0000
0100
0000
0010
0100
0001
0000
0000
0000
,
0001
0000
0001
0000
1000
0000
0100
0000
0001
0000
0000
0001
0100
0000
1000
0000
,
0010
0020
0230
0000
,
0300
0000
0000
0000
,
0001
0000
0001
0000
0001
1000
0100
0000
,
1001
0001
0100
0001
0011
0000
0010
0100
,
0110
0000
0011
0000
1000
0101
0001
1100
,
1000
1000
0100
1000
1010
0000
0010
0100
,
0101
0000
0000
1000
0001
0000
0100
0000
0201
0000
0000
0000
1300
0000
0000
0000
,
0110
0000
0010
0000
0100
0000
0001
0000
0011
0000
0000
0010
1000
0000
0010
0000
,
0110
0000
0000
0010
0001
0000
1000
0000
1001
0000
0001
0010
0100
0000
0010
0000
,
0001
0100
1000
0100
0110
0000
0101
0000
,
0001
0000
0010
0001
0100
0000
0100
0000
0010
1000
0100
0010
0001
1000
0001
1000
,
0000
0000
0000
0010
1000
0000
0010
0000
0100
0000
0000
0100
0001
0000
0010
0000
,
0100
0010
0000
0010
0100
0000
1000
0000
0001
0000
0011
0000
1000
0000
1010
0000
,
0001
0000
0000
0001
0100
0000
0010
0000
1000
0000
0000
1000
0100
0000
0010
0000
,
0001
1000
0000
1000
0001
0000
0100
0000
0220
0000
0000
0000
0330
0000
0000
0000
,
1000
0000
0000
1000
0001
0000
0100
0000
0010
0000
0000
0010
0100
0000
0001
0000
,
0010
0100
0000
0100
0010
0000
1000
0000
0010
0000
0001
0000
0001
0000
1000
0000
,
1000
0000
0000
1000
0100
0000
0010
0000
0110
0000
0000
0010
0001
0000
1000
0000
,
1002
0000
0000
0000
0103
0000
0000
0000
0001
0000
0100
0001
2000
0000
0000
0000
,
0000
0000
0000
0000
,
0000
0000
0000
0000
3000
0000
0000
0000
1000
0100
0010
0100
0010
0001
1000
0001
,
0010
0100
1000
0100
0010
0001
1000
0001
1000
0100
0010
0100
1000
0001
0010
0001
,
0010
0100
0010
0200
0000
0000
0000
0000
1300
0010
0100
0010
0100
0001
1000
0001
,
0100
0010
1000
0001
0100
0010
1000
0010
0100
0001
1000
0001
1000
0010
1000
0010
,
0100
0010
1000
0002
0000
0000
0000
0000
1003
0000
0010
1000
0010
0000
0100
0001
,
0100
0000
0001
0010
0001
0000
1000
0010
1000
0000
0001
0100
0001
0000
1000
0001
,
1000
0001
0010
0000
0100
0010
0100
0010
0001
0000
1000
0100
1000
0000
0010
0100
,
0010
0000
1000
0010
1000
0000
0001
0100
0001
0000
1000
0000
0200
0000
0000
0000
,
0000
0000
0310
0011
,
1000
1010
0001
0101
,
1000
0000
1100
0100
0010
0000
1001
0000
,
1000
0110
0001
0110
,
0100
0000
1001
0001
0100
0010
0100
0001
,
1000
0010
1000
0001
0010
0100
1000
0100
,
0010
0000
0100
0000
1000
0000
0001
0000
1000
0010
1000
0010
0100
0001
0100
0001
,
2000
0000
0000
0000
0000
0000
0000
0000
3000
0000
0000
0000
0001
0100
0010
0100
,
0010
1000
0001
1000
0001
0010
0100
0010
0100
1000
0001
1000
0100
0010
0001
0010
,
0001
1000
0010
1000
0010
0100
0001
0100
0001
0100
0010
1000
0001
1000
0010
1000
,
0001
0010
0100
0010
0100
1000
0100
1000
0001
0100
0010
0100
0001
1000
0010
0100
,
0010
0100
0001
0100
0001
1000
0010
1000
0000
0001
0010
0100
1000
0010
0100
0010
,
1000
0010
0100
0010
1000
0001
0100
0010
1000
0100
0010
0001
1000
0100
0010
0100
,
1000
0100
0010
0100
0010
0001
1000
0001
0100
0010
1000
0001
0100
0010
1000
0010
,
0100
0001
1000
0001
0010
0001
1000
0001
1000
0100
0010
0100
2000
0000
0000
0000
,
0000
0000
0000
0000
0000
0000
0000
0000
3001
0100
0001
0100
0000
0000
0000
0000
;
