#VERSION:0.83;
#TITLE:DANZEN!ふたりはプリキュア;
#SUBTITLE:ふたりはプリキュア OP1;
#ARTIST:五條真由美;
#TITLETRANSLIT:Danzen! Futari wa Pretty Cure;
#SUBTITLETRANSLIT:Pretty Cure OP1;
#ARTISTTRANSLIT:Gojo Mayumi;
#GENRE:Anime;
#CREDIT:Create! & Evergreen;
#MUSIC:song.ogg;
#BANNER:bn.png;
#BACKGROUND:bg.png;
#CDTITLE:create_cdtitle.png;
#SAMPLESTART:48.097;
#SAMPLELENGTH:13.500;
#SELECTABLE:YES;
#OFFSET:0.000;
#BPMS:0.000=167.000;
#STOPS:;
#JACKET:jacket.png;
#JACKET:;
#BGCHANGES:2.266=bgvideo.mp4=1.000=1=0=0=StretchNoLoop==CrossFade==,
99999.000=-nosongbg-=1.000=0=0=0=StretchNoLoop====
;
#FGCHANGES:;

//--------------- dance-single - ----------------
#NOTEDATA:;
#STEPSTYPE:dance-single;
#DESCRIPTION:;
#DIFFICULTY:Hard;
#METER:13;
#RADARVALUES:0,0,0,0,0;
#CHARTNAME:;
#CREDIT:Create! & Evergreen;
#NOTES:
0000
0000
0000
0000
,
1001
0001
0000
0011
0010
0000
1001
1000
,
0000
1010
0010
0000
1000
0100
0000
0010
,
0100
0000
0001
0100
1000
0001
0000
0100
,
0010
0000
0001
0010
1000
0001
0000
0010
,
0100
0000
0000
0000
0001
0000
0100
0000
1000
0000
0010
0000
0000
0000
0100
0001
,
1000
0100
0001
0100
1000
1000
0000
0010
,
0100
0000
1000
0100
0001
1000
0000
0100
,
0010
0000
1000
0010
0001
1000
0000
0010
,
0100
0000
1000
0100
0001
1000
0100
0010
,
0001
1000
0010
0000
0100
0000
0001
0000
1000
0000
1000
0000
0000
0000
0001
0000
,
0001
0010
0010
0100
0100
1000
1000
0010
,
0100
0000
0001
0000
0010
0000
0001
0000
1000
0010
1000
0000
0001
0000
1000
0000
,
0000
0000
0100
0000
0010
0000
0001
0000
1000
0010
1000
0000
0001
0000
0010
0000
,
0100
0000
1000
0000
0010
0000
0100
0000
0001
1000
0100
0000
0000
0000
0010
0000
,
0010
0001
0001
0100
0100
0010
0010
1000
,
0100
0000
1000
0000
0010
0000
1000
0000
0001
0010
0001
0000
1000
0000
0001
0000
,
0000
0000
0100
0000
0010
0000
1000
0000
0001
0010
0001
0000
1000
0000
0010
0000
,
0100
0000
0001
0000
0010
0000
0100
0000
1000
0001
0100
0000
0000
0000
0001
0000
,
0001
0010
0010
0100
0100
1000
1000
0000
,
0010
0100
0001
1000
0000
0100
0000
0000
,
1000
0000
0001
0100
0000
0010
0000
1000
,
0001
0010
0100
0000
1000
0001
0000
1000
,
0010
0100
0001
1000
0001
0010
0000
1000
,
0010
0001
0000
1000
0001
0100
0000
1000
,
0100
0001
0000
1000
0100
0010
0011
0000
,
0000
1100
0000
0000
0011
0000
0000
1000
,
1000
0010
0010
0100
0100
0001
0010
0100
,
0001
0100
1000
0010
0001
0000
0010
0100
,
0010
1000
0001
0010
0100
1000
0010
0100
,
1000
0100
0001
0010
1000
0000
0000
0011
,
0000
0001
0001
0001
1001
0000
0001
0100
,
1000
0100
0001
0010
1000
0000
0010
0100
,
0010
0001
1000
0010
0100
0001
0010
0100
,
0001
0100
1000
0010
0001
0000
0000
1010
,
0000
1000
1000
1000
1001
0000
1000
0100
,
0010
0001
1000
0010
0100
0001
0010
0100
,
1000
0010
1000
0100
1000
0001
0100
0010
,
1000
0100
1000
0010
0100
0001
1001
0000
,
0000
1100
0000
0000
1001
0000
0101
0001
,
0000
1000
0001
0010
0001
1000
0000
0010
,
0100
0000
1000
0100
0001
1000
0000
0100
,
0010
0000
1000
0010
0001
1000
0000
0010
,
0100
0000
1000
0100
0001
0010
0000
0100
,
1000
0010
1000
0001
1000
1000
0000
0100
,
0010
0000
1000
0010
0001
1000
0000
0010
,
0100
0000
1000
0100
0001
1000
0000
0100
,
0010
0000
1000
0010
0001
1000
0010
0100
,
0001
1000
0100
0000
0010
0000
0001
0000
1000
0000
1000
0000
0000
0000
0001
0000
,
0001
0100
0100
0010
0010
1000
1001
0001
,
0000
0011
0010
0000
1001
1000
0000
1010
,
0010
0000
1000
0200
0000
0000
0000
0000
,
0300
0000
0000
0000
;
