#TITLE:Dancin' Into the night;
#SUBTITLE:;
#ARTIST:good-cool;
#TITLETRANSLIT:;
#SUBTITLETRANSLIT:;
#ARTISTTRANSLIT:;
#GENRE:;
#CREDIT:;
#BANNER:;
#BACKGROUND:;
#LYRICSPATH:;
#CDTITLE:;
#MUSIC:Dancin' Into The Night.ogg;
#OFFSET:0.008000;
#SAMPLESTART:0.047576;
#SAMPLELENGTH:15.600000;
#SELECTABLE:YES;
#BPMS:0.000000=140.000000
;
#STOPS:
;
#BGCHANGES:;
#KEYSOUNDS:;
#ATTACKS:;

//---------------dance-single - ----------------
#NOTES:
     dance-single:
     :
     Hard:
     13:
     0.657103,0.607659,0.529870,0.000000,0.276209,408.000000,361.000000,47.000000,0.000000,0.000000,0.000000,0.657103,0.607659,0.529870,0.000000,0.276209,408.000000,361.000000,47.000000,0.000000,0.000000,0.000000:
// measure 0
0000
0000
0000
0000
,  // measure 1
1000
0001
0010
0100
1000
0100
0010
0001
,  // measure 2
0000
0001
0100
1000
0100
0001
1000
0000
,  // measure 3
0001
0000
0001
0000
1000
0010
1000
0010
0000
0100
0010
0000
1000
0000
0001
0000
,  // measure 4
0010
0100
1100
1100
,  // measure 5
0001
1000
0010
0100
0001
0100
0010
1000
,  // measure 6
0000
1000
0100
0001
0100
1000
0001
0000
,  // measure 7
1000
0000
0001
0000
0010
0000
0100
0000
0010
0001
0000
0001
0000
0010
0001
0000
,  // measure 8
1000
0000
0001
0100
0010
0100
0000
0000
0101
0000
0000
0000
0101
0000
1000
0000
,  // measure 9
1001
0000
0001
0100
0010
0001
0010
0100
,  // measure 10
0000
0100
0001
0010
1000
0010
0001
0010
,  // measure 11
0100
0000
0010
0000
0010
0000
0001
0000
1000
0010
1000
0000
0010
0000
0000
0000
,  // measure 12
0100
0010
1010
1010
,  // measure 13
1001
0000
1000
0100
0010
1000
0010
0100
,  // measure 14
0000
0100
1000
0010
0001
0010
1000
0010
,  // measure 15
0100
0010
0100
0000
0001
1000
0000
0000
0100
0000
1000
0001
0000
0000
0010
0000
,  // measure 16
0001
0100
0001
1000
0000
0100
0000
0000
0110
0000
0000
0000
0110
0000
0000
0000
,  // measure 17
0011
0010
0110
0000
1001
0000
1000
0001
,  // measure 18
0100
0010
0100
1000
0100
0001
1000
0000
,  // measure 19
1100
0000
0100
0000
0110
0000
0000
0000
1001
0000
0000
0000
0001
0000
1000
0001
,  // measure 20
0010
0000
0010
0100
1000
0000
0001
0000
0100
0000
0100
0000
0010
0000
0000
0000
,  // measure 21
1010
0000
0010
0000
0110
0000
0000
0000
1001
0000
0001
0000
0010
0000
0100
0010
,  // measure 22
0100
0000
1000
0000
0001
0100
0000
0100
0001
0000
1000
0000
0100
0000
0010
0000
,  // measure 23
0110
0000
0010
0000
0011
0000
0000
0000
1001
0000
1000
0000
0100
0010
0000
0010
,  // measure 24
0100
0000
1000
0000
0001
0100
0000
0100
0001
0000
0110
0000
0000
0000
1010
0000
,  // measure 25
1000
0010
0100
0010
0001
0010
1000
0001
,  // measure 26
0000
0001
0010
0100
1100
0001
0101
0000
,  // measure 27
0001
0010
0100
0010
1000
0010
0001
1000
,  // measure 28
0100
0100
0000
0101
0000
1100
0000
1001
,  // measure 29
0001
0100
0010
0100
1000
0100
0001
1000
,  // measure 30
0000
1000
0100
0010
0011
1000
1010
0000
,  // measure 31
1000
0100
0010
0100
0001
0100
1000
0001
,  // measure 32
1000
0000
1000
0000
0001
0000
0001
0000
0110
0000
0000
1000
0001
0000
1000
0000
,  // measure 33
0100
0000
1000
0001
0000
0001
1000
0000
0100
0000
0010
0000
0001
0000
0000
0000
,  // measure 34
0100
0000
0010
1000
0000
1000
0010
0000
0100
0000
0001
0000
1000
0000
0000
0000
,  // measure 35
0100
0000
0010
0100
0000
0100
0010
0000
1000
0000
0010
0000
0001
0000
0000
0000
,  // measure 36
1000
0000
0010
0100
0000
0100
0010
0000
0001
0000
0010
0000
1000
0000
0000
0000
,  // measure 37
0001
0000
0010
0000
0100
0010
0100
0000
0001
0000
0100
0000
1000
0000
0001
0000
,  // measure 38
1000
0000
0010
0000
0100
0010
0100
0000
1000
0000
0100
0000
0001
0000
1000
0000
,  // measure 39
0100
0000
1000
0000
0010
0100
0010
0000
0001
0000
0010
0000
1000
0000
0001
0000
,  // measure 40
0100
0000
0001
0000
0010
0100
0010
0000
1100
0000
0000
0000
1100
0000
0000
0000
,  // measure 41
0101
0100
0110
0000
1010
0001
1000
0100
,  // measure 42
0000
0000
0100
0000
0010
0000
0001
0000
1000
0010
0000
0100
0000
0000
0010
0000
,  // measure 43
1010
0010
0110
0000
0101
1000
0001
0010
,  // measure 44
0000
0000
0010
0000
0100
0010
0100
0010
0000
0001
1000
0000
0010
0000
0100
0000
,  // measure 45
0101
0010
1010
0000
1100
0010
0001
1000
,  // measure 46
0010
0000
0100
0010
0000
0000
1000
0000
0100
0000
0010
0100
0000
0000
1000
0000
,  // measure 47
1100
0010
0011
0000
0101
0010
1000
0100
,  // measure 48
0010
0000
0001
1000
0000
0010
0000
0000
0100
0001
0000
0010
0000
0100
0010
0000
,  // measure 49
1001
0000
0000
0000
;

//---------------dance-single - ----------------
#NOTES:
     dance-single:
     :
     Medium:
     10:
     0.476722,0.441934,0.383310,0.000000,0.050732,296.000000,262.000000,34.000000,0.000000,0.000000,0.000000,0.476722,0.441934,0.383310,0.000000,0.050732,296.000000,262.000000,34.000000,0.000000,0.000000,0.000000:
0000
0000
0000
0000
,
1000
0000
0001
0000
0010
0100
0010
0001
,
0000
1000
0010
0000
0110
0000
0101
0000
,
0001
0000
0010
0000
0100
0000
0000
0100
0000
0000
0100
0000
0000
0000
1000
0000
,
0001
0100
0110
0110
,
0001
0000
1000
0000
0100
0010
0100
1000
,
0000
1000
0010
0000
0100
0001
0100
0000
,
0010
0000
1000
0000
0010
0000
0000
0000
1000
0000
0000
1000
0000
0000
1000
0000
,
0000
0001
0010
0000
0110
0000
0110
0000
,
1000
0000
0001
0000
0010
0100
1000
0001
,
0000
0001
1000
0000
0010
0100
0010
0000
,
1000
0001
0010
0100
0010
0000
0100
0000
,
1000
0010
0110
0110
,
0001
0000
1000
0000
0100
0010
0001
1000
,
0000
1000
0010
0000
0100
0010
0100
0000
,
0001
0000
0010
0000
0100
0000
0010
0000
0001
0000
0000
1000
0000
0000
0001
0000
,
1000
0000
0000
0010
0000
0100
0000
0000
0110
0000
0000
0000
0110
0000
0000
0000
,
0001
1000
0100
0000
1100
0000
0000
0000
,
1000
0100
0010
0000
0001
0100
0010
0000
,
1000
0010
0100
0000
0101
0000
0000
0000
,
0001
1000
0100
1000
0001
0001
0001
0000
,
1000
0001
0010
0000
0110
0000
0100
1000
,
0001
0000
0100
0001
1000
0000
0100
1000
,
0001
0010
0100
0000
0110
0000
0010
0001
,
1000
0000
0010
1000
0001
0010
0000
0011
,
0000
1000
0001
1000
0100
0000
1000
0001
,
0000
0001
0010
0100
1000
0000
1100
0000
,
0001
1000
0100
1000
0001
0000
0100
0000
,
0010
0010
0000
1000
0000
0001
0000
1001
,
0000
0001
1000
0001
0100
0000
0001
1000
,
0000
1000
0010
0100
0001
0000
0101
0000
,
1000
0001
0100
0001
1000
0000
0100
0000
,
1000
0001
1000
0001
1001
0000
0000
0000
,
1000
0000
0000
0100
0000
0000
0010
0000
0000
0000
0001
0000
1000
0000
0000
0000
,
0001
0000
0000
0100
0000
0000
0010
0000
0000
0000
1000
0000
0001
0000
0000
0000
,
1000
0000
0000
0100
0000
0000
0010
0000
0000
0000
0001
0000
1000
0000
0000
0000
,
0001
0000
0000
0100
0000
0000
0010
0000
0000
0000
1000
0000
0001
0000
0000
0000
,
1000
0100
1000
0001
0000
0001
0100
0000
,
0001
0100
0001
1000
0000
1000
0100
0000
,
0010
0001
1000
0001
0000
0001
0010
0000
,
0100
1000
0001
0000
0110
0000
0110
0000
,
1010
0000
0110
0000
0101
0000
1000
0001
,
0000
0001
0010
0000
0100
1000
0001
0010
,
0011
0000
0110
0000
1100
0000
0001
1000
,
0000
1000
0010
0000
0100
0001
1000
0100
,
1100
0000
1010
0000
0101
0000
1000
0001
,
0000
0001
0010
0000
0100
1000
0010
0100
,
0101
0000
0011
0000
1100
0000
0010
0001
,
0000
0001
1000
0000
0010
0100
0001
1000
,
1001
0000
0000
0000
;

//---------------dance-single - ----------------
#NOTES:
     dance-single:
     :
     Easy:
     6:
     0.297951,0.331451,0.281846,0.000000,0.000000,185.000000,160.000000,25.000000,0.000000,0.000000,0.000000,0.297951,0.331451,0.281846,0.000000,0.000000,185.000000,160.000000,25.000000,0.000000,0.000000,0.000000:
0000
0000
0000
0000
,
0001
0100
0001
0000
,
1000
1000
1000
0000
,
0100
1000
0100
0100
,
0010
0010
0110
0000
,
1000
0100
1000
0000
,
0001
0001
0001
0000
,
0100
0001
0100
0100
,
0010
0010
0110
0000
,
1000
0001
0010
0001
,
1000
0001
0100
0000
,
0001
1000
0100
1000
,
0001
0001
1001
0000
,
1000
0010
0100
0010
,
1000
0001
1000
0000
,
0001
0010
0100
0010
,
0001
0001
1001
0000
,
0001
0100
0101
0000
,
1000
0001
0010
0100
,
1000
0100
1100
0000
,
0001
1000
0001
0001
,
1000
0010
1010
0000
,
0001
0100
0001
1000
,
0001
0010
0011
0000
,
1000
0001
1001
0000
,
0001
0100
0010
0000
,
1000
0100
0010
0010
,
0001
1000
0100
0000
,
0110
0000
0000
0000
,
1000
0010
0100
0000
,
0001
1000
0010
0010
,
0100
0001
1000
0000
,
0001
1000
1001
0000
,
0001
0010
1000
0000
,
1000
0010
0001
0000
,
1000
0010
0001
0000
,
0001
0010
1000
0000
,
0001
0100
1000
0100
,
0001
1000
0001
0000
,
1000
0100
0001
0100
,
1000
0001
1001
0000
,
1001
0110
1001
0000
,
1000
0100
0010
0001
,
1001
0110
1001
0000
,
0001
0100
0010
1000
,
1001
0110
1001
0000
,
1000
0100
0010
0001
,
1001
0110
1001
0000
,
1000
0010
0001
0010
,
1001
0000
0000
0000
;

//---------------dance-double - ----------------
#NOTES:
     dance-double:
     :
     Hard:
     13:
     0.631334,0.580039,0.417132,0.000000,0.281846,392.000000,355.000000,37.000000,0.000000,0.000000,0.000000,0.631334,0.580039,0.417132,0.000000,0.281846,392.000000,355.000000,37.000000,0.000000,0.000000,0.000000:
00000000
00000000
00000000
00000000
,
00010000
01000000
00100000
10000000
00100000
01000000
00010000
10000000
,
00000000
10000000
00100000
01000000
00010000
10000000
01000000
00000000
,
10000000
00000000
01000000
00000000
00100000
00010000
00100000
00010000
00000000
00100000
00001000
00000000
00010000
00000000
00000000
00000000
,
00000100
00000010
00000011
00000011
,
00001000
00000010
00000100
00000001
00000100
00000010
00001000
00000001
,
00000000
00000001
00000100
00000010
00001000
00000001
00000010
00000000
,
00000001
00000000
00000010
00000000
00000100
00000000
00001000
00000000
00000100
00010000
00000000
00010000
00000000
00001000
00010000
00000000
,
00001000
00000000
00100000
00010000
00100000
01000000
00000000
00000000
11000000
00000000
00000000
00000000
11000000
00000000
10000000
00000000
,
10010000
00000000
10000000
00100000
00010000
00100000
01000000
00001000
,
00000000
00001000
00010000
00000100
00000010
00001000
00010000
00001000
,
00000010
00000000
00000100
00000000
00000100
00000000
00000010
00000000
00000001
00001000
00000001
00000000
00000100
00000000
00000000
00000000
,
00000010
00001000
00001100
00001100
,
00001001
00000000
00000001
00000010
00001000
00000010
00000100
00010000
,
00000000
00010000
00001000
01000000
00100000
00010000
00001000
00010000
,
00100000
01000000
00100000
00000000
10000000
00010000
00000000
00000000
00100000
00000000
00010000
10000000
00000000
00000000
00100000
00000000
,
10000000
00010000
10000000
01000000
00000000
00100000
00000000
00000000
00110000
00000000
00000000
00000000
00110000
00000000
00000000
00000000
,
10000000
01000000
00010000
00000000
00011000
00000000
00001000
00000010
,
00000001
00001000
00000010
00000100
00000010
00000010
00001000
00000000
,
00000001
00000000
00000100
00000000
00001000
00000000
00000000
00000000
00011000
00000000
00000000
00000000
00010000
00000000
00100000
10000000
,
00010000
00000000
00010000
10000000
01000000
00000000
00100000
00000000
00010000
00000000
10000000
00000000
01000000
00000000
00000000
00000000
,
10000000
00000000
00100000
00000000
00010000
00000000
00001000
00010000
00001000
00000000
00010000
00000000
00000100
00000000
00000010
00000100
,
00000010
00000000
00000001
00000000
00001000
00000000
00000001
00001000
00000001
00000000
00000100
00000000
00000100
00000000
00000000
00000000
,
00000001
00000000
00000010
00000000
00001000
00000000
00010000
00001000
00010000
00000000
01000000
00000000
00100000
01000000
00000000
01000000
,
00100000
00000000
00010000
00000000
10000000
00010000
00000000
00010000
10000000
00000000
10100000
00000000
00000000
00000000
01010000
00000000
,
10000000
01000000
00010000
00001000
00010000
01000000
00010000
00001000
,
00000000
00010000
00001000
00000100
00000101
00000000
00001001
00000000
,
00000001
00000010
00001000
00010000
00001000
00000010
00001000
00010000
,
01000000
01000000
00000000
11000000
00000000
10100000
00000000
10010000
,
10000000
00100000
00010000
00001000
00010000
00100000
00010000
00001000
,
00000000
00010000
00001000
00000010
00000011
00000000
00001001
00000000
,
00000001
00000100
00001000
00010000
00001000
00000100
00000000
00001000
,
00010000
00000000
00010000
00000000
00001000
00000000
00001000
00000000
00011000
00000000
00000000
01000000
00010000
00000000
10000000
00000000
,
01000000
00000000
10000000
00010000
00000000
00010000
10000000
00000000
01000000
00000000
00100000
00000000
00010000
00000000
00000000
00000000
,
00100000
00000000
00001000
00010000
00000000
00010000
00001000
00000000
00010000
00000000
00000100
00000000
00000010
00000000
00000000
00000000
,
00000001
00000000
00001000
00000010
00000000
00000010
00000100
00000000
00000001
00000000
00000100
00000000
00001000
00000000
00000000
00000000
,
00010000
00000000
00001000
00010000
00000000
00010000
00001000
00000000
01000000
00000000
00100000
00000000
10000000
00000000
00000000
00000000
,
00010000
00000000
10000000
00000000
01000000
00100000
01000000
00000000
00100000
00000000
00001000
00000000
00010000
00000000
00000100
00000000
,
00000010
00000000
00000001
00000000
00000100
00000010
00000100
00000000
00001000
00000000
00010000
00000000
00100000
00000000
01000000
00000000
,
00010000
00000000
10000000
00000000
01000000
00100000
01000000
00000000
00010000
00000000
00001000
00000000
00010000
00000000
00000100
00000000
,
00000010
00000000
00000001
00000000
00001000
00000010
00001000
00000000
00001001
00000000
00000000
00000000
00001001
00000000
00000000
00000000
,
00000101
00000000
00001100
00000000
00011000
00001000
01000000
00010000
,
00000000
00000000
00100000
00000000
00001000
00000000
00010000
00000000
00001000
01000000
00000000
00010000
00000000
00000000
10000000
00000000
,
11000000
00000000
01010000
00000000
00011000
00010000
00000100
00001000
,
00000000
00000000
00000010
00000000
00010000
00001000
00010000
00000100
00000000
00001000
00000100
00000000
00000010
00000000
00000001
00000000
,
00000101
00000000
00001100
00000000
00011000
01000000
00010000
10000000
,
01000000
00000000
10000000
00100000
00000000
00000000
00100000
00000000
01000000
00000000
00010000
00100000
00000000
00000000
01000000
00000000
,
11000000
00000000
01010000
00000000
00011000
00000100
00001000
00000001
,
00000000
00000000
00000010
00000100
00000000
00000010
00000000
00000000
00000001
00000100
00000000
00000010
00000000
00001000
00000100
00000000
,
00010100
00000000
00000000
00000000
;
