#VERSION:0.83;
#TITLE:Dancer in the flare;
#SUBTITLE:;
#ARTIST:猫叉Master;
#TITLETRANSLIT:;
#SUBTITLETRANSLIT:;
#ARTISTTRANSLIT:Nekomata Master;
#GENRE:;
#CREDIT:;
#MUSIC:Dancer in the flare.ogg;
#BANNER:bn.png;
#BACKGROUND:bg.png;
#CDTITLE:cdtitle-sorae.png;
#SAMPLESTART:16.364;
#SAMPLELENGTH:14.545;
#SELECTABLE:YES;
#OFFSET:0.000;
#BPMS:0.000=132.000;
#STOPS:;
#JACKET:jk.png;
#BGCHANGES:;
#FGCHANGES:;

//--------------- dance-single - DS XO ----------------
#NOTEDATA:;
#STEPSTYPE:dance-single;
#DESCRIPTION:DS XO;
#DIFFICULTY:Hard;
#METER:13;
#RADARVALUES:0,0,0,0,0;
#CREDIT:sorae;
#NOTES:
0000
0000
0000
0000
,
0000
0000
0000
0000
,
0000
0000
0000
0000
,
0000
0000
0000
0000
,
0000
0000
0000
0000
0000
0000
0000
1000
,
1001
0001
0100
0010
,
1000
0000
0000
0000
0001
0000
0000
0000
0010
0000
0001
1000
0001
0000
0100
0000
,
0001
1000
0100
0010
,
0001
0000
0000
0000
1000
0000
0000
0000
0010
0000
1000
0001
1000
0000
0100
0000
,
2000
0000
3001
0100
0001
0000
2000
0000
3001
0100
0001
0000
1000
0000
1001
0000
,
0002
0000
1003
0100
1000
0000
0002
0000
1003
0100
1000
0000
0010
0100
0001
0000
,
2000
0000
3001
0010
0001
0000
2000
0000
3001
0010
0001
0000
1000
0000
1001
0000
,
0002
0000
1003
0010
1000
0000
0200
0000
0302
0000
0103
0000
0010
0001
1000
0000
,
0002
0000
1003
0010
1000
0000
0002
0000
1003
0010
1000
0000
0001
0000
1001
0000
,
2000
0000
3001
0010
0001
0000
0200
0000
2300
0000
3100
0000
0010
1000
0001
0000
,
0021
0000
0000
0130
2000
0000
0000
3000
1020
0000
0000
0130
0002
0000
0000
0003
,
2001
0000
0000
0000
3100
0000
0010
0001
1000
0000
0010
0000
1000
0000
0100
0000
,
1200
0000
0000
0000
0320
0000
0000
0000
0031
0000
0100
0010
0200
0000
0010
0000
,
0301
0000
0100
0010
0200
0000
0010
0000
0301
0000
1000
0100
0000
1000
0001
0000
,
0101
0000
0100
0000
0020
0000
0000
0000
1030
0000
0100
0010
0200
0000
0010
0000
,
1300
0000
0100
0010
0200
0000
0010
0000
1300
0000
0001
0100
0000
0001
1000
0000
,
1020
0000
0000
0000
0230
0000
0000
0000
0301
0000
0010
0100
0020
0000
0100
0000
,
0031
0000
0010
0100
0020
0000
0100
0000
0031
0000
1000
0010
0000
1000
0001
0000
,
0012
0000
0000
0000
1003
0000
0010
0000
1000
0000
0001
0010
0000
0001
1000
0000
,
0020
0000
0130
0001
0020
0000
0000
0000
0130
0000
1000
0001
1000
0000
0010
0000
,
0200
0000
0000
0301
1000
0100
1000
0000
0001
0000
0100
0010
,
0100
0000
0000
0000
0001
0000
0000
0000
1000
0000
0000
0000
0100
0000
0000
1000
0000
0000
0001
0000
0000
1000
0000
0000
,
0020
0000
0000
1030
0001
0010
0001
0000
1000
0000
0010
0100
,
0001
0000
0000
0000
0010
0000
0000
0000
0100
0000
1000
0000
0010
0000
0000
0100
0000
0000
0001
0000
0000
1000
0000
0000
,
0200
0000
0000
1300
0001
0100
0001
0000
1000
0000
0100
0010
,
0100
0000
0000
0000
1000
0000
0000
0000
0001
0000
0000
0000
0100
0000
0000
0001
0000
0000
1000
0000
0000
0001
0000
0000
,
0020
0000
0000
0031
1000
0010
1000
0000
0001
0000
0010
0100
,
1000
0000
0000
0000
0010
0000
0000
0000
0100
0000
0001
0000
0010
0000
0000
0100
0000
0000
1000
0000
0000
0001
0000
0000
,
0012
0000
0000
1003
0000
0000
0100
0000
0102
0000
0000
1003
0000
0000
0010
0000
,
0012
0000
0000
1003
0000
0000
0010
0000
0200
0000
0310
0000
2000
0000
3100
0000
,
2100
0000
0000
3001
0000
0000
0010
0000
2010
0000
0000
3001
0000
0000
0100
0000
,
2100
0000
0000
3001
0000
0000
0100
0000
0020
0000
0130
0000
0002
0000
1003
0000
,
2010
0000
0000
3001
0000
0000
0100
0000
2100
0000
0000
3001
0000
0000
0010
0000
,
2010
0000
0000
3001
0000
0000
0010
0000
0200
0000
0310
0000
0002
0000
0103
0000
,
0102
0000
0000
1003
0000
0000
0010
0000
0012
0000
0000
1003
0000
0000
0100
0000
,
0102
0000
0000
1003
0000
0000
0100
0000
0020
0000
0031
0000
0200
0000
0301
0000
,
2000
0000
3100
0010
0001
0000
2000
0000
3100
0010
0001
0000
1000
0000
1001
0000
,
0002
0000
0103
0010
1000
0000
0002
0000
0103
0010
1000
0000
0100
0010
0001
0000
,
2000
0000
3010
0100
0001
0000
2000
0000
3010
0100
0001
0000
1000
0000
1001
0000
,
0002
0000
0013
0100
1000
0000
0020
0000
0032
0000
0013
0000
0100
0001
1000
0000
,
0002
0000
0013
0100
1000
0000
1002
0000
0013
0100
1000
0000
2000
0000
3010
0100
,
0001
0000
2001
0000
3010
0100
0001
0000
0002
0000
0013
0100
1000
0000
0010
0100
,
0002
0000
0000
0013
0200
0000
0000
0300
1200
0000
0000
0310
0002
0000
0000
0003
,
1002
0000
0000
0000
0103
0000
0010
1000
0001
0000
0010
0000
0001
0000
0100
0000
,
0102
0000
0000
1003
0000
0000
0010
0000
0012
0000
0000
1003
0000
0000
0100
0000
,
0102
0000
0000
1003
0000
0000
0010
0000
0012
0000
0000
0003
2000
0000
0000
3000
,
2100
0000
0000
3001
0000
0000
0010
0000
2010
0000
0000
3001
0000
0000
0100
0000
,
1100
0000
0000
0000
0101
0000
0000
0000
0001
1000
0001
0000
0010
0000
0220
0000
,
0000
0000
0000
0000
,
0000
0000
0000
0000
,
0330
0000
0000
0000
;

//--------------- dance-single - BU DS XO ----------------
#NOTEDATA:;
#STEPSTYPE:dance-single;
#DESCRIPTION:BU DS XO;
#DIFFICULTY:Challenge;
#METER:15;
#RADARVALUES:0,0,0,0,0;
#CREDIT:sorae;
#NOTES:
0000
0000
0000
0000
,
0000
0000
0000
0000
,
0000
0000
0000
0000
,
0000
0000
0000
0000
,
0000
0000
0000
0000
0000
0000
0000
0001
,
1001
0000
0000
1000
0010
0000
0100
0000
0001
0000
0000
1000
0100
0000
0010
0000
,
0001
0000
0000
1000
0010
0000
0100
0000
0010
0000
0000
1000
0001
0000
0010
0100
,
0010
0000
0000
0001
1000
0000
0010
0000
0100
0000
0000
0001
1000
0000
0100
0000
,
0010
0000
0000
0000
0000
0000
0000
0000
0000
0100
0000
0000
1000
0000
0000
0000
0000
0000
0010
0000
0000
0000
0000
0000
0110
0000
0000
0000
0000
0000
0100
0000
0001
0000
1000
0000
0002
0000
0000
0000
0000
0000
0000
0000
0000
0000
0000
0000
,
1003
0100
1000
0200
0010
0000
1300
0100
1000
0100
0010
0000
0001
0000
2000
0000
,
3001
0100
0001
0200
0010
0000
0301
0100
0010
0100
1000
0100
0010
1000
0001
0000
,
1000
0010
1000
0020
0100
0000
1030
0010
1000
0010
0100
0000
0001
0000
2000
0000
,
3001
0000
0000
0010
0000
0000
0001
0000
0000
0020
0000
0000
0100
0000
0000
0000
0000
0000
1030
0000
0000
0000
0000
0000
0020
0000
0000
0000
0000
0000
0031
0000
0000
1000
0000
0000
0010
0000
0100
0000
0010
0000
1000
0000
0000
0000
0000
0000
,
0001
0100
0001
0200
0010
0000
0301
0100
0001
0100
0010
0000
1000
0000
0002
0000
,
1003
0100
1000
0200
0010
0000
0301
0000
0200
0000
0310
0001
1000
0001
0100
0010
,
2000
0000
3100
0010
2000
0000
3010
0000
0002
0000
0103
0010
0002
0000
1003
0000
,
0200
0000
0000
0000
0000
0000
0000
0000
0000
0000
0000
0000
0310
0000
0000
0000
0000
0000
1000
0000
0001
0000
1000
0000
0100
0000
0000
0010
0000
0000
0001
0000
0000
0010
0000
0000
0001
0000
0000
0100
0000
0000
0010
0000
0000
1000
0000
0000
,
0002
0000
0000
0000
0000
0000
0000
0000
0000
0013
0000
0000
0200
0000
0000
0000
0000
0000
0000
0000
0000
0000
0000
0000
0310
0000
0000
0000
0000
0000
0001
0000
1000
0000
0001
0000
0200
0000
0000
0000
0000
0000
0302
0000
0000
0000
0000
0000
,
0013
0000
0000
0000
0000
0000
0001
0000
1000
0000
0001
0000
0200
0000
0000
0000
0000
0000
0302
0000
0000
0000
0000
0000
0013
0000
0000
0000
0000
0000
0100
0000
0000
0010
0000
0000
0000
0000
0000
1000
0000
0000
0010
0000
0000
0100
0000
0000
,
1000
0000
0000
0000
0000
0000
0010
0000
0000
0100
0000
0000
0020
0000
0000
0000
0000
0000
0000
0000
0000
0000
0000
0000
0130
0000
0000
0000
0000
0000
0001
0000
1000
0000
0001
0000
0020
0000
0000
0000
0000
0000
0032
0000
0000
0000
0000
0000
,
0103
0000
0000
0000
0000
0000
0001
0000
1000
0000
0001
0000
0020
0000
0000
0000
0000
0000
0032
0000
0000
0000
0000
0000
0103
0000
0000
0000
0000
0000
0010
0000
0000
0100
0000
0000
0000
0000
0000
1000
0000
0000
0100
0000
0000
0010
0000
0000
,
2000
0000
0000
0000
0000
0000
0000
0000
0000
3010
0000
0000
0200
0000
0000
0000
0000
0000
0000
0000
0000
0000
0000
0000
0310
0000
0000
0000
0000
0000
1000
0000
0001
0000
1000
0000
0200
0000
0000
0000
0000
0000
2300
0000
0000
0000
0000
0000
,
3010
0000
0000
0000
0000
0000
1000
0000
0001
0000
1000
0000
0200
0000
0000
0000
0000
0000
2300
0000
0000
0000
0000
0000
3010
0000
0000
0000
0000
0000
0100
0000
0000
0010
0000
0000
0000
0000
0000
0001
0000
0000
0010
0000
0000
0100
0000
0000
,
0002
0000
0000
0103
0010
0000
0100
0000
0001
0000
0010
0100
0000
0001
0100
0010
,
0002
0000
0000
0000
0000
0000
1003
0000
0010
0000
0100
0000
0002
0000
0000
0000
0000
0000
0000
0000
0000
0000
0000
0000
1003
0000
0000
0000
0000
0000
0100
0000
0000
0010
0000
0000
0100
0000
0000
0010
0000
0000
0001
0000
0000
1000
0000
0000
,
0002
0000
0000
0000
0000
0000
1003
0000
0000
0100
0000
0000
0010
0000
0000
0000
0001
0000
0000
0000
0200
0000
0000
0000
0001
0000
0000
0000
0000
0000
0000
0000
0310
0000
0000
0000
0000
0000
0000
0000
1000
0000
0000
0000
0200
0000
0000
0000
,
1000
0000
0000
0000
0000
0000
0000
0000
0310
0000
0000
0000
0000
0000
0000
0000
0001
0000
0000
0000
0000
0000
0000
0000
0100
0000
0000
0000
0000
0000
0010
0000
0000
1000
0000
0000
0010
0000
0000
0000
0000
0000
0100
0000
0000
0001
0000
0000
,
2000
0000
0000
0000
0000
0000
3001
0000
0000
0010
0000
0000
0100
0000
0000
0000
1000
0000
0000
0000
0020
0000
0000
0000
1000
0000
0000
0000
0000
0000
0000
0000
0130
0000
0000
0000
0000
0000
0000
0000
0001
0000
0000
0000
0020
0000
0000
0000
,
0100
0000
0000
0000
0000
0000
0000
0000
1030
0000
0000
0000
0000
0000
0000
0000
0010
0000
0000
0000
0001
0000
0000
0000
0100
0000
0000
0000
0000
0000
0010
0000
0000
1000
0000
0000
0001
0000
0000
1000
0000
0000
0100
0000
0000
0000
0000
0000
,
2000
0000
0000
0000
0000
0000
3001
0000
0000
0100
0000
0000
0010
0000
0000
0000
1000
0000
0000
0000
0200
0000
0000
0000
1000
0000
0000
0000
0000
0000
0000
0000
0310
0000
0000
0000
0000
0000
0000
0000
0001
0000
0000
0000
0200
0000
0000
0000
,
0001
0000
0000
0000
0000
0000
0000
0000
0310
0000
0000
0000
0000
0000
0000
0000
1000
0000
0000
0000
0000
0000
0000
0000
0100
0000
0000
0000
0000
0000
0010
0000
0000
0001
0000
0000
0010
0000
0000
0000
0000
0000
0100
0000
0000
1000
0000
0000
,
0002
0000
0000
0000
0000
0000
1003
0000
0000
0010
0000
0000
0100
0000
0000
0000
0001
0000
0000
0000
0020
0000
0000
0000
0001
0000
0000
0000
0000
0000
0000
0000
0130
0000
0000
0000
0000
0000
0000
0000
1000
0000
0000
0000
0020
0000
0000
0000
,
0100
0000
0000
0000
0000
0000
0000
0000
0031
0000
0000
0000
0000
0000
0000
0000
0010
0000
0000
0000
1000
0000
0000
0000
0100
0000
0000
0010
0000
0000
0100
0000
0000
1000
0000
0000
0100
0000
0000
0010
0000
0000
0001
0000
0000
1000
0000
0000
,
0010
0000
0000
0011
0000
0000
1000
0001
0010
0000
0000
1010
0000
0000
0001
1000
,
0010
0000
0000
0000
0000
0000
0000
0000
0000
0011
0000
0000
0000
0000
0000
0000
0000
0000
1000
0000
0000
0000
0000
0000
0020
0000
0000
0000
0000
0000
0130
0000
0001
0000
1000
0000
0001
0000
0000
0000
0000
0000
1000
0000
0000
0000
0000
0000
,
0100
0000
0000
0101
0000
0000
1000
0001
0100
0000
0000
1100
0000
0000
0001
1000
,
0100
0000
0000
0101
0000
0000
1000
0001
0200
0000
0310
1000
0002
0000
1003
0100
,
0010
0000
0000
1010
0000
0000
0001
0100
0010
0000
0000
0011
0000
0000
1000
0100
,
0010
0000
0000
0000
0000
0000
0000
0000
0000
1010
0000
0000
0000
0000
0000
0000
0000
0000
0001
0000
0000
0000
0000
0000
0020
0000
0000
0000
0000
0000
0130
0000
1000
0000
0001
0000
1000
0000
0000
0000
0000
0000
0010
0000
0000
0000
0000
0000
,
0100
0000
0000
1100
0000
0000
0001
0010
0100
0000
0000
0101
0000
0000
1000
0010
,
0100
0000
0000
1100
0000
0000
0002
0000
0203
0000
0320
0000
1030
0100
0010
0000
,
0001
1000
0001
0200
0010
0000
0301
1000
0001
0100
0010
0000
1000
0000
0002
0000
,
1003
0001
1000
0200
0010
0000
1300
0001
0010
0100
0001
0100
1000
0001
0100
0000
,
0001
1000
0001
0020
0100
0000
0031
1000
0001
0010
0100
0000
1000
0000
0002
0000
,
1003
0000
0000
0001
0000
0000
1000
0000
0000
0020
0000
0000
0100
0000
0000
0000
0000
0000
0031
0000
0000
0000
0000
0000
0020
0000
0000
0000
0000
0000
1030
0000
0000
0001
0000
0000
0010
0000
0100
0000
0010
0000
0001
0000
0000
0000
0000
0000
,
1000
0010
0100
0002
0010
0000
1003
0010
0100
0001
0010
0000
0001
0010
0100
2000
,
0010
0000
3001
0010
0100
1000
0010
0000
1000
0010
0100
0002
0010
0000
1003
0100
,
0001
0000
1000
0010
0200
0000
1300
0000
0002
0000
0103
0010
0002
0000
1003
0000
,
0200
0000
0000
0000
0000
0000
0000
0000
0000
0000
0000
0000
0310
0000
0000
0000
0000
0000
1000
0000
0001
0000
1000
0000
0100
0000
0000
0010
0000
0000
0100
0000
0000
0010
0000
0000
0001
0000
0000
0100
0000
0000
0010
0000
0000
1000
0000
0000
,
0100
0000
0000
0101
0000
0000
1000
0001
0100
0000
0000
1100
0000
0000
0001
0010
,
0200
0000
1300
0100
0020
0000
0031
0100
0020
0000
1030
0010
0200
0000
0301
0010
,
0100
0000
0000
0101
0000
0000
1000
0010
0100
0000
0000
1100
0000
0000
0001
0010
,
0100
0000
0000
0000
0000
0000
0000
0000
0000
0000
0000
0000
1001
0000
0000
0000
0000
0000
0000
0000
0000
0000
0000
0000
1000
0000
0010
0000
0100
0000
0001
0000
0000
1000
0000
0000
0100
0000
0000
0000
0000
0000
0220
0000
0000
0000
0000
0000
,
0000
0000
0000
0000
,
0000
0000
0000
0000
,
0330
0000
0000
0000
;
