#TITLE:DOLLAR DOLLAR;
#SUBTITLE:;
#ARTIST:NICK BOYS;
#TITLETRANSLIT:;
#SUBTITLETRANSLIT:;
#ARTISTTRANSLIT:;
#GENRE:;
#CREDIT:;
#BANNER:DOLLAR DOLLAR-banner.png;
#BACKGROUND:DOLLAR DOLLAR-background.png;
#LYRICSPATH:;
#CDTITLE:;
#MUSIC:DOLLAR DOLLAR.ogg;
#OFFSET:-0.385000;
#SAMPLESTART:13.530000;
#SAMPLELENGTH:12.000000;
#SELECTABLE:YES;
#BPMS:0.000000=146.000000
,112.000000=150.000000
;
#STOPS:
;
#BGCHANGES:;
#KEYSOUNDS:;
#ATTACKS:;

//---------------dance-single - ----------------
#NOTES:
     dance-single:
     :
     Medium:
     11:
     0.453296,0.560258,0.049970,0.399757,0.254012,381.000000,375.000000,6.000000,48.000000,24.000000,0.000000,0.453296,0.560258,0.049970,0.399757,0.254012,381.000000,375.000000,6.000000,48.000000,24.000000,0.000000:
0000
0000
0000
0000
,
0000
0000
0000
0000
,
0000
0000
0000
0000
,
0000
0000
0000
0000
,
1000
0000
0010
0000
0100
0000
0002
0003
0000
0000
0000
0000
0000
0000
0000
0000
,
0001
0000
0010
0000
0100
0000
2000
3000
0000
0000
0000
0000
0000
0000
0000
0000
,
0100
0000
0010
0000
0001
0000
0200
0300
0000
0000
0000
0000
0000
0000
0000
0000
,
0010
1000
0100
0020
0200
0000
0330
0000
,
2100
0000
3002
0003
0100
0001
0100
2000
,
0000
3200
0000
0301
0010
0100
1000
0001
,
0020
0100
0030
0010
0001
0000
0000
0100
,
0020
0100
0030
0010
1000
0000
0000
0000
,
0012
0000
2003
3000
0010
1000
0010
0002
,
0000
0023
0000
1030
0100
0010
0001
1000
,
0200
1000
0300
0010
0100
0000
0000
0001
,
0200
0001
0300
0010
0100
0000
1000
1000
,
1000
0000
0001
0000
0000
0000
0100
0001
,
0010
0000
0100
0000
0000
0000
1000
0010
,
0100
0000
1000
0000
0000
0000
0100
0001
,
0010
0100
0020
0130
0020
0130
0020
0130
,
0000
1000
0001
0100
0000
0001
1000
0100
,
0000
0010
0100
1000
0001
0100
0010
1000
,
0000
0001
0100
1000
0100
0001
0010
0000
,
0100
0100
0010
0001
1000
0100
0010
0001
,
0012
0000
0000
0100
0000
0000
0000
2003
,
0000
0000
0000
3001
0100
0001
1000
0010
,
2010
0000
0000
0100
0000
0000
0000
3002
,
0000
0000
0000
1003
0100
1000
0001
0010
,
MMMM
0000
0000
MMMM
0000
0000
0000
0000
,
MMMM
0000
0000
MMMM
0000
0000
0000
0000
,
1000
0000
0100
0000
1000
0000
0000
0001
0000
0100
0000
0000
0001
0000
0000
0000
,
0100
0000
0000
0000
0100
0000
0010
0000
0010
0000
0000
0010
0000
0000
1000
0000
,
0001
0000
0100
0000
0010
0000
0000
1000
0000
1000
0000
0000
0100
0000
0000
1000
,
0000
1000
0000
0000
0001
0000
0000
1000
0000
1000
0000
0000
0010
0000
0000
0000
,
1000
0000
0001
0000
0010
0000
0001
0000
0000
0100
0000
0000
0001
0000
0000
0000
,
1000
0000
0100
0000
0010
0000
0000
0100
0000
1000
0000
0000
0010
0000
0000
0000
,
1000
0000
0100
0000
0001
0000
0000
0100
0000
1000
0000
0000
0000
0001
0000
0000
,
0010
0000
0100
0000
0010
0000
0100
0000
0010
0000
0000
0100
0010
0000
0010
1000
,
0000
0000
0001
0000
1000
0000
0100
0000
1000
0000
0000
0010
1000
0000
1000
0000
,
0001
0000
0100
0000
0010
0000
0000
0100
0000
0001
0000
0000
0010
0000
0000
0000
,
0100
0000
1000
0000
0010
0000
0000
0100
0000
0100
0000
0000
0001
0000
0000
0100
,
0000
0100
0000
0000
1000
0000
0000
0100
0000
0000
0001
0000
0000
0010
0000
0000
,
MMMM
0000
0010
0000
0000
0000
0001
0000
0100
0001
0000
1000
0100
0000
0010
0000
,
0100
0000
1000
0000
0010
0000
0000
1000
0000
1000
0000
0000
0001
0000
0000
0001
,
0000
0100
0000
0000
1000
0000
0000
1000
0000
0100
0000
0000
0001
0000
0000
1000
,
0000
0000
0010
0000
0000
0001
0000
0000
0010
0000
0000
1000
0000
0000
0001
0000
,
0200
0000
0000
0310
0000
0000
0000
0000
0200
0000
0000
0310
0000
0000
0000
0000
,
0200
0000
0000
0310
0000
0000
0000
0000
0200
0000
0000
0301
0000
1000
0000
0000
,
0200
0000
0000
0310
0000
0000
0000
0000
0200
0000
0000
0310
0000
0000
0000
0000
,
0200
0000
0000
0310
0000
0000
0000
0000
0200
0000
0000
1300
0000
0001
0000
0000
,
1000
0000
0000
1000
0000
0000
0100
0000
0110
0000
0000
0000
0000
0000
0000
0000
,
0001
0000
0000
0001
0000
0000
0100
0000
0110
0000
0000
0000
0200
0000
0000
0000
,
0000
0000
0000
0000
0300
0000
0020
0130
,
0020
0130
0020
0130
0020
0130
0020
0030
,
1000
0100
0001
0100
1000
0001
0010
0100
,
0010
0001
1000
0001
0010
1000
0010
0100
,
1000
0000
1000
0000
0002
0003
0010
0000
0001
0000
0001
0000
2000
3000
0010
0000
,
1000
0000
1000
0000
0002
0003
0100
0000
0001
0000
0001
0000
2000
3000
0100
0000
,
0010
0100
1000
0010
0100
0001
0000
0000
,
0010
0001
0100
0010
1000
1000
0000
0000
,
0001
0100
0001
1000
0100
0100
0000
0000
,
0100
0010
0001
0100
0010
0000
0000
0000
,
1000
0000
0010
1000
0000
0000
0001
0000
0010
0000
0001
0000
0100
0000
2000
0000
,
0000
3200
0000
0301
0010
0100
0010
1000
,
0010
0000
0001
0100
0000
0000
0001
0000
1000
0000
0000
1000
0000
0000
0001
0000
,
0100
0000
0001
1000
0000
0000
0010
0000
0100
0000
0000
0100
0000
0000
0000
0000
,
0001
0000
0100
0001
0000
0000
1000
0000
0010
0000
1000
0000
0100
0000
0002
0000
,
0000
0203
0000
1300
0010
0100
0010
0001
,
0010
0000
1000
0100
0000
0000
1000
0000
0001
0000
0100
0000
0001
0000
0010
0100
,
0000
0100
1000
0000
0001
0100
0000
0100
0020
0000
1030
0000
0020
0000
1030
0000
,
0000
0000
0000
0000
0000
0000
0000
0000
0000
0000
0000
0000
0000
MMMM
0000
0000
;

//---------------dance-single - ----------------
#NOTES:
     dance-single:
     :
     Hard:
     15:
     0.644846,0.775466,0.199878,0.366444,0.624620,542.000000,518.000000,24.000000,44.000000,100.000000,0.000000,0.644846,0.775466,0.199878,0.366444,0.624620,542.000000,518.000000,24.000000,44.000000,100.000000,0.000000:
// measure 0
0000
0000
0000
0000
,  // measure 1
0000
0000
0000
0000
,  // measure 2
0000
0000
0000
0000
,  // measure 3
0000
0000
0000
0000
,  // measure 4
1000
0000
0000
0000
0100
0000
0000
0000
0001
0000
0000
0000
0100
0010
0000
0000
0000
0000
0000
0000
0000
0000
0000
0000
0000
0000
0000
0000
0000
0000
0000
0000
,  // measure 5
0002
0000
0000
0000
0103
0000
0000
0000
0002
0000
0000
0000
0103
0010
0000
0000
0000
0000
0000
0000
0000
0000
0000
0000
0000
0000
0000
0000
0000
0000
0000
0000
,  // measure 6
1000
0000
0000
0000
0100
0000
0000
0000
0001
0000
0000
0000
0100
0010
0000
0000
0000
0000
0000
0000
0000
0000
0000
0000
0000
0000
0000
0000
0000
0000
0000
0000
,  // measure 7
0001
0100
1000
0200
0020
0000
0330
0000
,  // measure 8
1000
0000
0001
0000
0010
0000
0100
0000
0001
0100
0010
0000
0001
0000
2000
0000
,  // measure 9
0000
3002
0000
0103
1000
0100
0001
0100
,  // measure 10
0020
0000
1000
0000
0030
0000
1000
0000
0001
0010
0000
0000
0100
0000
0010
0000
,  // measure 11
0002
0000
0100
0000
0003
0000
0100
0000
0010
1000
0000
0000
1001
0000
0000
0000
,  // measure 12
0001
0000
1000
0000
0100
0000
0010
0000
1000
0010
0100
0000
1000
0000
0002
0000
,  // measure 13
0000
2003
0000
3100
0001
0100
1000
0100
,  // measure 14
0010
0000
0001
0000
0010
0000
0001
0000
0010
0100
0000
0000
1000
0000
0001
0000
,  // measure 15
0010
0000
0100
0000
0010
0000
0100
0000
1000
0001
0000
0000
0100
0010
0100
0010
,  // measure 16
1000
0000
0100
0000
0010
0000
0001
0100
0001
0100
0000
1000
0100
0000
0001
0000
,  // measure 17
0000
0000
1000
0000
0100
0000
0001
0100
0000
1000
0010
1000
0010
0000
0100
0000
,  // measure 18
0000
0000
0001
0000
1000
0100
0000
0100
0001
0100
0000
0100
1000
0000
0001
0000
,  // measure 19
0000
0000
0000
0000
0010
0000
0000
0000
0001
1000
0000
0000
0010
0000
0000
0000
1000
0001
0000
0000
0010
0000
0000
0000
0001
1000
0000
0000
0010
0000
0000
0000
,  // measure 20
0000
0000
0100
0001
0010
0000
0010
0000
0000
0000
0100
1000
0010
0000
0010
0000
,  // measure 21
0000
0000
0100
0001
0010
0000
0010
0001
0100
0010
1000
0000
0001
0000
0001
0000
,  // measure 22
0000
0000
0100
0000
0010
1000
0010
1000
0100
1000
0100
0000
1000
0000
0000
0000
,  // measure 23
0002
0103
2000
3100
0002
0103
2000
3100
,  // measure 24
0002
0000
1003
0200
0000
0000
0310
2000
,  // measure 25
0000
0000
3000
0010
0100
1000
0010
0100
,  // measure 26
2000
0000
3100
0002
0000
0000
0013
0200
,  // measure 27
0000
0000
0000
1300
0100
0001
0100
1000
,  // measure 28
MMMM
MMMM
MMMM
MMMM
MMMM
MMMM
MMMM
MMMM
,  // measure 29
MMMM
MMMM
MMMM
MMMM
MMMM
MMMM
MMMM
MMMM
,  // measure 30
1000
0000
0100
0000
1000
0000
0010
0100
0000
0001
0100
0000
0010
0000
1000
0000
,  // measure 31
0100
0000
0010
0000
0001
0000
0010
0000
0100
0000
1000
0100
0000
1000
0010
0000
,  // measure 32
0100
0000
0001
0000
0100
0000
0010
1000
0000
1000
0010
0000
0100
0000
0001
0010
,  // measure 33
0000
0010
0001
0000
1000
0000
0100
1000
0000
1000
0100
0000
0010
0000
0000
0000
,  // measure 34
0001
0000
1000
0000
0001
0000
0001
0000
0010
0001
0000
1000
0010
0000
0100
0000
,  // measure 35
0001
0000
0100
0000
0010
0000
1000
0100
0010
0100
1000
0000
0010
0000
0000
0000
,  // measure 36
1000
0000
0100
0000
0010
0000
0100
1000
0000
1000
0000
0000
0001
0100
0000
1000
,  // measure 37
0100
0000
0100
0000
0001
0000
0001
0000
1000
0000
0000
1000
0010
0000
0010
0100
,  // measure 38
0010
0000
0000
0000
1010
0000
0000
0000
0101
0000
0000
0001
1000
0000
1000
0100
,  // measure 39
1000
0000
0001
0000
0010
0000
0100
1000
0010
1000
0100
0000
0010
0000
0100
0000
,  // measure 40
1000
0000
0001
0000
0010
0000
0000
0001
0000
0001
0000
0100
0010
0000
1000
0100
,  // measure 41
0000
0100
0000
0010
0100
0000
1000
0100
0000
0001
0100
0000
1000
0010
0000
0000
,  // measure 42
MMMM
MMMM
0001
0000
0000
0000
1000
0000
0100
1000
0000
0100
0001
0000
0100
0000
,  // measure 43
0010
0000
0010
0000
0001
0000
0100
0010
1000
0010
0000
0100
0010
0000
0000
0010
,  // measure 44
1000
0100
0000
0001
0100
0000
1000
0001
0000
0010
0000
0001
1000
0000
0001
0010
,  // measure 45
0000
1000
0010
0000
0001
0010
0000
1000
0010
0000
0001
0010
0000
1000
0010
0000
,  // measure 46
1001
0000
1000
0100
0000
0000
0000
0000
1001
0000
1000
0100
0000
0000
0000
0000
,  // measure 47
1001
0000
1000
0100
0000
0000
0000
0000
1001
0000
1000
0100
0000
0020
0030
0000
,  // measure 48
1001
0000
0001
0100
0000
0000
0000
0000
1001
0000
0001
0100
0000
0000
0000
0000
,  // measure 49
1001
0000
0001
0100
0000
0000
0000
0000
1001
0000
0001
0100
0000
0020
0030
0000
,  // measure 50
2000
0000
3000
0001
0000
0100
0001
0000
2000
0000
3000
0001
0000
0000
0000
0000
,  // measure 51
0002
0000
0003
1000
0000
0100
1000
0000
0002
0000
0003
1000
0000
0000
0000
0000
,  // measure 52
2000
0000
3000
0010
0000
0100
0001
0000
0200
0000
0000
0000
0320
0000
0130
0000
,  // measure 53
0020
0130
0020
0130
0020
0130
0020
0030
,  // measure 54
1000
0100
1000
0010
1000
0000
0001
0000
0100
0000
1000
0000
0100
0000
0001
0000
,  // measure 55
0010
0000
0010
0000
0100
0000
0100
0000
1000
0001
0010
0000
0001
0100
0010
0100
,  // measure 56
0001
0000
0010
0100
0020
0130
1000
0000
0001
1000
0100
1000
0020
0030
0100
0000
,  // measure 57
1000
0000
0100
0000
0020
1030
0100
0000
0010
0000
0001
0100
0020
0030
1000
0000
,  // measure 58
0000
0000
0001
0100
0010
0000
0010
1000
0100
0000
0200
0000
0300
0000
0000
0000
,  // measure 59
1000
0000
1000
0100
0000
0001
0100
1000
0100
0000
0020
0000
0030
0000
0000
0000
,  // measure 60
0001
0000
0100
0000
1000
0000
0100
0001
0010
0000
0200
0000
0300
0000
0000
0000
,  // measure 61
1000
0000
0001
0000
0010
0000
0100
0000
2000
0000
3000
0001
0000
0000
0000
0000
,  // measure 62
1100
0000
0001
0100
0000
0010
1000
0000
1100
0000
0000
0011
0000
0000
1001
0000
,  // measure 63
0101
0000
1000
0010
0000
0100
0001
0000
2000
0000
3100
0000
0002
0000
0103
0000
,  // measure 64
1100
0000
1000
0010
0000
0100
0001
0000
0011
0000
0000
1001
0000
0000
0101
0000
,  // measure 65
1010
0000
1000
0100
0000
0010
0001
0000
2000
0000
0000
3001
0000
1000
0000
0000
,  // measure 66
0011
0000
1000
0001
0000
0010
0100
0000
1000
0100
0010
0100
1000
0000
0001
0000
,  // measure 67
0011
0000
0010
0100
0000
1000
0100
0000
1000
0001
0010
0000
0001
1000
0010
0000
,  // measure 68
1010
0000
0001
1000
0000
0100
0010
0000
0001
0000
0100
0010
1000
0000
0001
0000
,  // measure 69
1000
0000
0100
0001
0000
0100
0000
1000
0010
1000
0001
0000
0010
0001
1000
0000
,  // measure 70
0000
0000
0000
0000
0000
0000
0000
0000
0000
0000
0000
0000
0000
MMMM
MMMM
0000
,  // measure 71
0000
MMMM
MMMM
0000
0000
0000
0000
0000
MMMM
MMMM
MMMM
0000
0000
0000
0000
0000
;
