#TITLE:DO YOU WANNA PARTY!!(DJ KEN-BOW MIX);
#SUBTITLE:;
#ARTIST:HiBiKi;
#TITLETRANSLIT:;
#SUBTITLETRANSLIT:;
#ARTISTTRANSLIT:;
#GENRE:;
#CREDIT:;
#BANNER:banner.png;
#BACKGROUND:background.png;
#LYRICSPATH:;
#CDTITLE:;
#MUSIC:DO YOU WANNA PARTY!!(DJ KEN-BOW MIX).ogg;
#OFFSET:-0.025000;
#SAMPLESTART:24.000000;
#SAMPLELENGTH:20.000000;
#SELECTABLE:YES;
#BPMS:0.000000=130.000000
;
#STOPS:
;
#BGCHANGES:;
#KEYSOUNDS:;
#ATTACKS:;

//---------------dance-single - ----------------
#NOTES:
     dance-single:
     :
     Hard:
     12:
     0.611589,0.610725,0.249913,0.684545,0.402034,394.000000,371.000000,23.000000,63.000000,0.000000,0.000000,0.611589,0.610725,0.249913,0.684545,0.402034,394.000000,371.000000,23.000000,63.000000,0.000000,0.000000:
0000
0000
0000
0000
,
1000
0000
0100
0000
1000
0000
0001
1000
0000
0001
1000
0000
0001
0000
0100
0000
,
0010
0000
1000
0000
0010
0000
1000
0001
0000
0010
0001
0000
0020
0000
0000
0000
,
0130
0000
1000
0000
0001
0000
0100
0010
0000
0100
0010
0000
1000
0000
0100
0000
,
0010
0000
0001
0000
1000
0000
0010
0100
0000
0001
1000
0000
0010
0000
0000
0000
,
1000
0100
0010
0100
1000
0001
1000
0000
,
0001
0100
0010
0100
0001
1000
0001
0000
,
0010
0100
1000
0010
0200
0000
0300
0000
,
0010
1000
0100
0010
0022
0033
2002
3003
,
1100
0000
0000
0000
0000
0000
0000
0000
0000
0000
0000
0000
0000
0000
0000
0000
1010
0000
0000
0000
0000
0000
0000
0000
0000
0000
0000
0000
0010
0000
0000
0000
0000
0000
0000
0000
1000
0000
0000
0000
0001
0000
0000
0000
0000
0000
0000
0000
0200
0300
0000
0000
0000
0000
0000
0000
0200
0300
0000
0000
0000
0000
0000
0000
,
0000
0000
1000
0000
0010
0000
0100
0000
0001
0000
0100
0000
0010
0000
1000
0100
,
0010
0000
0000
0000
0000
0000
0000
0000
0001
0000
0000
0000
0000
0000
0000
0000
1000
0000
0000
0000
0000
0000
0000
0000
0001
0000
0000
0000
0200
0300
0000
0000
0000
0000
0000
0000
0200
0300
0000
0000
1000
0000
0000
0000
0000
0000
0000
0000
0001
0000
0000
0000
0000
0000
0000
0000
0020
0000
0000
0000
0000
0000
0000
0000
,
0100
0000
0032
0000
1000
0000
0023
0000
0000
0000
0031
1000
0010
0000
0100
0000
,
0101
0000
0000
0000
0000
0000
0000
0000
0000
0000
0000
0000
0000
0000
0000
0000
0011
0000
0000
0000
0000
0000
0000
0000
0000
0000
0000
0000
0010
0000
0000
0000
0000
0000
0000
0000
0001
0000
0000
0000
1000
0000
0000
0000
0000
0000
0000
0000
0200
0300
0000
0000
0000
0000
0000
0000
0200
0300
0000
0000
0000
0000
0000
0000
,
0000
0000
0001
0000
0010
0000
0100
0000
1000
0000
0100
0000
0010
0000
0001
0100
,
0010
0000
0000
0000
0000
0000
0000
0000
1000
0000
0000
0000
0000
0000
0000
0000
0001
0000
0000
0000
0000
0000
0000
0000
1000
0000
0000
0000
0200
0300
0000
0000
0000
0000
0000
0000
0200
0300
0000
0000
0001
0000
0000
0000
0000
0000
0000
0000
1000
0000
0000
0000
0000
0000
0000
0000
0020
0000
0000
0000
0000
0000
0000
0000
,
0100
0000
2030
0000
0001
0000
3020
0000
0000
0000
1030
0001
0010
0000
0100
0000
,
1100
0000
0000
0000
0000
0000
0000
0000
0000
0000
0000
0000
0000
0000
0000
0000
1002
0000
0000
0000
0000
0000
0000
0000
0000
0000
0000
0000
0103
0000
0000
0000
0000
0000
0000
0000
0010
0000
0000
0000
1000
0000
0000
0000
0000
0000
0000
0000
0020
0030
0000
0000
0000
0000
0000
0000
0020
0030
0000
0000
0000
0000
0000
0000
,
0000
0000
0001
0000
0100
0000
0010
0000
1000
0000
0100
0000
0010
0000
0001
1000
,
0010
0000
0000
0000
0000
0000
0000
0000
1000
0000
0000
0000
0000
0000
0000
0000
0100
0000
0000
0000
0000
0000
0000
0000
1000
0000
0000
0000
0020
0030
0000
0000
0000
0000
0000
0000
0020
0030
0000
0000
0001
0000
0000
0000
0000
0000
0000
0000
1000
0000
0000
0000
0000
0000
0000
0000
0002
0000
0000
0000
0000
0000
0000
0000
,
0010
0000
2003
0000
0100
0000
3002
0000
0000
0000
0013
0100
1000
0000
0001
0000
,
1000
1000
0010
0100
0001
0001
1000
0100
,
0010
0010
0001
0100
0010
0010
0100
0001
,
1000
1000
0001
0001
0010
0010
0001
0001
,
1000
0010
0100
0001
0022
0033
0220
0330
,
0001
0000
1000
0000
0001
0000
0010
0100
0000
0010
0100
0000
1000
0000
0001
0000
,
0100
0000
0010
1000
0010
0000
0100
0001
0000
1000
0100
0000
0020
0000
0000
0000
,
0130
0000
1000
0000
0010
0000
0100
0001
0000
0100
0001
0000
1000
0000
0001
0000
,
0010
0000
0100
1000
0100
0000
0010
0001
0000
1000
0010
0000
2000
0000
0000
0000
,
3002
0000
1003
0100
0020
0000
0031
0100
,
0001
0010
0100
2000
0000
3001
1000
0001
,
0200
0000
0310
1000
0200
0000
1300
0010
,
0100
0010
1000
0200
0000
0310
0011
0000
,
0001
0000
0001
1000
0010
0000
0010
1000
,
0100
0000
0010
0001
0100
0000
0100
0001
,
0010
0000
0100
0000
1000
0000
0001
0000
0100
0001
0100
0001
0200
0000
0000
0000
,
0310
1000
0001
0010
2200
3300
2002
3003
,
0011
0000
0000
0000
0000
0000
0000
0000
0000
0000
0000
0000
0000
0000
0000
0000
0101
0000
0000
0000
0000
0000
0000
0000
0000
0000
0000
0000
1000
0000
0000
0000
0000
0000
0000
0000
0100
0000
0000
0000
0010
0000
0000
0000
0000
0000
0000
0000
0200
0300
0000
0000
0000
0000
0000
0000
0200
0300
0000
0000
0000
0000
0000
0000
,
0000
0000
0001
0000
0100
0000
0010
0000
1000
0000
0001
0000
0010
0000
0100
1000
,
0010
0000
0000
0000
0000
0000
0000
0000
1000
0000
0000
0000
0000
0000
0000
0000
0001
0000
0000
0000
0000
0000
0000
0000
0010
0000
0000
0000
0200
0300
0000
0000
0000
0000
0000
0000
0200
0300
0000
0000
0001
0000
0000
0000
0000
0000
0000
0000
1000
0000
0000
0000
0000
0000
0000
0000
0002
0000
0000
0000
0000
0000
0000
0000
,
0100
0000
2003
0000
0010
0000
3200
0000
0000
0000
1300
0010
0100
0000
0010
0000
,
1010
0000
0000
0000
0000
0000
0000
0000
0000
0000
0000
0000
0000
0000
0000
0000
1100
0000
0000
0000
0000
0000
0000
0000
0000
0000
0000
0000
0001
0000
0000
0000
0000
0000
0000
0000
0100
0000
0000
0000
0010
0000
0000
0000
0000
0000
0000
0000
0200
0300
0000
0000
0000
0000
0000
0000
0200
0300
0000
0000
0000
0000
0000
0000
,
0000
0000
1000
0000
0100
0000
0010
0000
0001
0000
1000
0000
0010
0000
0100
0001
,
0010
0000
0000
0000
0000
0000
0000
0000
0001
0000
0000
0000
0000
0000
0000
0000
1000
0000
0000
0000
0000
0000
0000
0000
0010
0000
0000
0000
0200
0300
0000
0000
0000
0000
0000
0000
0200
0300
0000
0000
1000
0000
0000
0000
0000
0000
0000
0000
0001
0000
0000
0000
0000
0000
0000
0000
2000
0000
0000
0000
0000
0000
0000
0000
,
0100
0000
3002
0000
0010
0000
0203
0000
0000
0000
0301
1000
0100
0000
0010
0000
,
0011
0001
1000
0010
0110
0100
0010
1000
,
1001
0001
0010
0100
1100
1000
0001
0100
,
0010
0100
0010
0000
1000
0010
1000
0000
0001
1000
0001
0000
0010
0001
0010
0000
,
0001
1000
0010
0100
2002
3003
0220
0330
;

//---------------dance-single - ----------------
#NOTES:
     dance-single:
     :
     Beginner:
     1:
     0.071404,0.078234,0.000000,0.000000,0.000000,46.000000,46.000000,0.000000,0.000000,0.000000,0.000000,0.071404,0.078234,0.000000,0.000000,0.000000,46.000000,46.000000,0.000000,0.000000,0.000000,0.000000:
0000
0000
0000
0000
,
1000
0000
0000
0000
,
0001
0000
0000
0000
,
0100
0000
0000
0000
,
0010
0000
0000
0000
,
0100
0000
0000
0000
,
0001
0000
0000
0000
,
1000
0000
0000
0000
,
0001
0000
0000
0000
,
1000
0000
0000
0000
,
0000
0010
0000
0000
,
0100
0000
0000
0000
,
0001
0000
0000
0000
,
1000
0000
0000
0000
,
0000
0100
0000
0000
,
0010
0000
0000
0000
,
0001
0000
0000
0000
,
1000
0000
0000
0000
,
0000
0010
0000
0000
,
0100
0000
0000
0000
,
0001
0000
0000
0000
,
1000
0000
0000
0000
,
0001
0000
0000
0000
,
0010
0000
0000
0000
,
0100
0000
0000
0000
,
0010
0000
0000
0000
,
0001
0000
0000
0000
,
1000
0000
0000
0000
,
0010
0000
0000
0000
,
0100
0000
0000
0000
,
0000
0000
0000
0000
,
0001
0000
0000
0000
,
0000
0000
0000
0000
,
0100
0000
0000
0000
,
0010
0000
0000
0000
,
1000
0000
0000
0000
,
0001
0000
0000
0000
,
0001
0000
0000
0000
,
0000
0010
0000
0000
,
0100
0000
0000
0000
,
1000
0000
0000
0000
,
0001
0000
0000
0000
,
0000
0100
0000
0000
,
0010
0000
0000
0000
,
1000
0000
0000
0000
,
0001
0000
0000
0000
,
1000
0000
0000
0000
,
0010
0000
0000
0000
,
0100
0000
0000
0000
;

//---------------dance-single - ----------------
#NOTES:
     dance-single:
     :
     Easy:
     4:
     0.206450,0.208623,0.043463,0.000000,0.000000,133.000000,129.000000,4.000000,0.000000,0.000000,0.000000,0.206450,0.208623,0.043463,0.000000,0.000000,133.000000,129.000000,4.000000,0.000000,0.000000,0.000000:
0000
0000
0000
0000
,
1000
0000
1000
0000
,
0010
1000
0010
0000
,
0100
0000
0100
0000
,
0001
0100
0001
0000
,
1000
1000
0000
0000
,
0001
0001
0000
0000
,
0010
0010
0000
0000
,
0110
0000
0000
0000
,
1000
0001
1000
0010
,
0000
0100
0001
0000
,
0100
0010
1000
0001
,
0010
0100
0000
1000
,
1000
0001
1000
0100
,
0000
0010
0001
0000
,
0010
0100
1000
0001
,
0100
0010
0000
0100
,
0100
0001
0010
0100
,
0000
1000
0100
0000
,
1000
0010
0100
0001
,
1000
0100
0000
0000
,
1000
0000
0010
0000
,
0100
0000
0001
0000
,
0010
0010
0100
0100
,
1100
0000
0000
0000
,
0001
0100
0001
0000
,
1000
0100
1000
0000
,
0010
1000
0001
0000
,
0010
0001
1000
0000
,
0001
0000
0100
0000
,
0010
0000
0100
0000
,
0001
0000
1000
0000
,
0100
0000
0010
0000
,
0100
1000
0100
0000
,
0010
0001
0010
0000
,
0001
0100
0010
0000
,
1001
0000
0000
0000
,
0001
1000
0001
0010
,
0000
0100
1000
0000
,
0100
0010
0001
1000
,
0010
0100
0000
0001
,
0001
1000
0001
0100
,
0000
0010
1000
0000
,
0010
0100
0001
1000
,
0100
0010
0000
0001
,
0001
0000
0010
0000
,
0100
0000
1000
0000
,
0010
0010
0100
0100
,
0101
0000
0000
0000
;

//---------------dance-single - ----------------
#NOTES:
     dance-single:
     :
     Medium:
     8:
     0.358571,0.371746,0.119524,0.249913,0.076061,231.000000,220.000000,11.000000,23.000000,0.000000,0.000000,0.358571,0.371746,0.119524,0.249913,0.076061,231.000000,220.000000,11.000000,23.000000,0.000000,0.000000:
// measure 0
0000
0000
0000
0000
,  // measure 1
1000
0010
0100
0010
,  // measure 2
1000
0100
0010
0100
,  // measure 3
0010
0001
0100
0010
,  // measure 4
1000
0010
0100
0001
,  // measure 5
0010
0001
0010
0000
0100
0000
1000
0000
,  // measure 6
0010
1000
0010
0000
0100
0000
0001
0000
,  // measure 7
1000
0001
2000
0000
0000
0000
3000
0000
,  // measure 8
0010
0100
0010
0000
0220
0330
2002
3003
,  // measure 9
0001
0000
0000
0000
1000
0000
0000
0010
0000
0000
1000
0000
0100
0000
0010
0000
,  // measure 10
0000
0001
1000
0000
0010
0000
0100
0000
,  // measure 11
0001
0000
1000
0000
0001
0000
0000
0010
0000
0000
0100
0000
1000
0000
0000
0000
,  // measure 12
0001
0000
0100
0001
0000
0000
0110
0000
,  // measure 13
1000
0000
0000
0000
0001
0000
0000
0010
0000
0000
0001
0000
0100
0000
0010
0000
,  // measure 14
0000
1000
0001
0000
0010
0000
0100
0000
,  // measure 15
1000
0000
0001
0000
1000
0000
0000
0010
0000
0000
0100
0000
0001
0000
0000
0000
,  // measure 16
1000
0000
0100
0010
0000
0000
0100
0000
,  // measure 17
1000
0000
0000
0000
0001
0000
0000
0100
0000
0000
0010
0000
1000
0000
0100
0000
,  // measure 18
0000
0010
0001
0000
1000
0000
0001
0000
,  // measure 19
0100
0000
0010
0000
0100
0000
0000
0001
0000
0000
1000
0000
0010
0000
0000
0000
,  // measure 20
1000
0000
0100
0010
0000
0000
0011
0000
,  // measure 21
0001
0010
0100
1000
,  // measure 22
0010
0100
0010
1000
,  // measure 23
0100
0010
0001
1000
,  // measure 24
0100
0010
0100
0000
0220
0330
2002
3003
,  // measure 25
1000
0000
0000
0000
0010
0000
0000
1000
0000
0000
0010
0000
0100
0000
0000
0000
,  // measure 26
0001
0000
0000
0000
0010
0000
0000
0001
0000
0000
0010
0000
0100
0000
0000
0000
,  // measure 27
1000
0000
0000
0000
0001
0000
0000
1000
0000
0000
0001
0000
0100
0000
0000
0000
,  // measure 28
0010
0000
0000
0000
1000
0000
0000
0010
0000
0000
1000
0000
0200
0000
0000
0000
,  // measure 29
0320
0030
0002
0003
,  // measure 30
1000
0000
0010
1000
0000
0000
0010
0000
,  // measure 31
0200
0300
0002
0003
,  // measure 32
1000
0000
0100
0010
0000
0000
0001
0000
,  // measure 33
1000
0010
1000
0100
,  // measure 34
0010
0001
0100
0001
,  // measure 35
0100
0010
1000
0001
0020
0000
0030
0000
,  // measure 36
0100
1000
0001
0000
2002
3003
0202
0303
,  // measure 37
0100
0000
0000
0000
0010
0000
0000
1000
0000
0000
0100
0000
1000
0000
0010
0000
,  // measure 38
0000
0100
0001
0000
1000
0000
0100
0000
,  // measure 39
0010
0000
0001
0000
0010
0000
0000
0100
0000
0000
1000
0000
0001
0000
0000
0000
,  // measure 40
0100
0000
0010
1000
0000
0000
1100
0000
,  // measure 41
0100
0000
0000
0000
0010
0000
0000
0001
0000
0000
0100
0000
0001
0000
0010
0000
,  // measure 42
0000
0100
1000
0000
0001
0000
0100
0000
,  // measure 43
0010
0000
1000
0000
0010
0000
0000
0100
0000
0000
0001
0000
1000
0000
0000
0000
,  // measure 44
0100
0000
1000
0010
0000
0000
0100
0000
,  // measure 45
0010
1000
0100
0010
,  // measure 46
0100
1000
0010
0100
,  // measure 47
0001
0100
0001
0000
1000
0001
1000
0000
,  // measure 48
0100
0010
0001
0000
2002
3003
0220
0330
;
