#TITLE:D.C.fish;
#SUBTITLE:;
#ARTIST:DJ MURASAME;
#TITLETRANSLIT:;
#SUBTITLETRANSLIT:;
#ARTISTTRANSLIT:;
#GENRE:;
#CREDIT:;
#MUSIC:DCfish.ogg;
#BANNER:DCfish-bn.png;
#BACKGROUND:DCfish-bg.png;
#CDTITLE:;
#SAMPLESTART:30.968;
#SAMPLELENGTH:12.387;
#SELECTABLE:YES;
#OFFSET:0.000;
#BPMS:0.000=155.000;
#STOPS:;
#BGCHANGES:;
#FGCHANGES:;

//--------------- dance-single - EmeraldX ----------------
#NOTES:
     dance-single:
     EmeraldX:
     Beginner:
     2:
     0,0,0,0,0:
0000
0000
0000
0000
,
0000
0000
0000
0000
,
0100
0000
0000
0000
,
0100
0000
0000
0000
,
0010
0000
0000
0000
,
0010
0000
0010
0000
,
0010
0000
0000
0000
,
0000
0000
0000
0000
,
1000
0000
1000
0000
,
1000
0000
0000
0000
,
0001
0000
0001
0000
,
0001
0000
0000
0000
,
0100
0000
0010
0000
,
0100
0000
0000
0000
,
0010
0000
0100
0000
,
0010
0000
0000
0000
,
1000
0000
1000
0000
,
0001
0000
0000
0000
,
0010
0000
0000
0000
,
0000
0000
0000
0000
,
0100
0100
0000
0000
,
1000
0000
0000
0000
,
0010
0010
0000
0000
,
0100
0000
0000
0000
,
0001
0001
0000
0000
,
0010
0000
0000
0000
,
0100
0100
0000
0000
,
1000
1000
0000
0000
,
0001
0000
0000
0000
,
0001
0000
0000
0000
,
1000
0000
0000
0000
,
1000
0000
0000
0000
,
0001
0000
0000
0000
,
0100
0000
0100
0000
,
0100
0000
0000
0000
,
0010
0000
0010
0000
,
0010
0000
0000
0000
,
1000
0000
0000
0001
,
0000
0000
0000
0000
,
0100
0000
0000
0010
,
0000
0000
0000
0000
,
1000
0000
0000
0100
,
0000
0000
0000
0000
,
0010
0000
0000
0001
,
0000
0000
0000
0000
,
1000
0000
0000
0000
,
0000
0000
0000
0000
,
0001
0000
0000
0000
,
0000
0000
0000
0000
,
1000
0000
0000
0000
,
0010
0000
0000
0000
,
1000
0000
0000
0000
,
0010
0000
0000
0000
,
0100
0000
0000
0000
,
0100
0000
0000
0000
,
0000
0000
0000
0000
,
0000
0000
0000
0000
,
0001
0000
0001
0000
,
0001
0000
0000
0000
,
1000
0000
1000
0000
,
1000
0000
0000
0000
,
0001
0000
1000
0000
,
0001
0000
0000
0000
,
1000
0000
0001
0000
,
0000
0000
0000
0000
,
0100
0100
0000
0000
,
0000
0000
0000
0000
,
0100
0100
0000
0000
,
0000
0000
0000
0000
,
0010
0010
0000
0000
,
0010
0000
0000
0000
,
0010
0010
0000
0000
,
0010
0000
0010
0000
,
0010
0000
0010
0000
;

//--------------- dance-single - EmeraldX ----------------
#NOTES:
     dance-single:
     EmeraldX:
     Easy:
     6:
     0,0,0,0,0:
0000
0000
0000
0000
,
0000
0000
0000
0000
,
1000
1000
1000
0000
,
0001
0001
0001
0000
,
0100
0100
0010
0010
,
1000
1000
0001
0001
,
0010
0000
0000
0000
,
0000
0000
0000
0000
,
0100
0100
1000
1000
,
0100
1000
0001
0000
,
0010
0010
0001
0001
,
0010
0001
1000
0000
,
0001
0100
0001
0100
,
0001
1000
0001
0000
,
1000
0010
1000
0010
,
1000
0001
1000
0000
,
0010
0100
0010
0100
,
0001
1000
0001
1000
,
0000
0000
0000
0000
,
0000
0000
0000
0000
,
0001
0001
0000
0010
,
0001
1000
0001
0000
,
1000
1000
0000
0010
,
1000
0001
1000
0000
,
0100
0100
0010
0000
,
0001
0100
0001
0000
,
1000
1000
0010
0000
,
0100
0010
0100
0000
,
0000
0000
0000
0000
,
1000
0000
1000
0001
,
0100
0000
0001
0000
,
0010
0000
0001
1000
,
0010
0000
1000
0000
,
0100
0100
1000
1000
,
0001
1000
0010
1000
,
0001
0001
0010
0010
,
0000
0000
0000
0000
,
0100
0100
0100
1000
,
0001
0001
0001
0010
,
0001
0001
0100
0100
,
0010
0010
1000
1000
,
0001
0010
1000
0010
,
0001
0100
0010
1000
,
0100
1000
0010
0001
,
0010
1000
0001
1000
,
0100
0000
0000
0000
,
0000
0000
0000
0000
,
0010
0000
0000
0000
,
0001
0000
0000
0000
,
1000
0000
1000
0000
,
1000
0000
0010
0000
,
1000
0000
1000
0000
,
1000
0000
0100
0000
,
0010
0000
0010
0000
,
0001
0000
0100
0000
,
0000
0000
0000
0000
,
0000
0000
0000
0000
,
0010
0010
1000
0001
,
1000
0100
0010
0001
,
1000
1000
0001
0100
,
0001
1000
0010
0100
,
0010
0010
1000
0001
,
0010
0100
1000
0001
,
0100
0100
0010
1000
,
0000
0000
0000
0000
,
0001
0010
1000
0010
,
0001
1000
0001
0100
,
1000
0100
0001
1000
,
0100
0010
0001
0100
,
0010
0010
1000
1000
,
0001
0001
0010
0010
,
0001
0100
0010
1000
,
0100
0001
0100
1000
,
0010
0100
1001
0000
;

//--------------- dance-single - EmeraldX ----------------
#NOTES:
     dance-single:
     EmeraldX:
     Medium:
     9:
     0,0,0,0,0:
0000
0000
0000
0000
,
0000
0000
0000
0000
,
1000
1000
0001
0010
,
0001
0001
0100
0010
,
1000
0100
0010
0001
,
0100
0010
1000
0001
,
0010
0000
0000
0010
0000
0000
0001
0000
,
0000
1000
0000
0000
0010
0000
0100
0100
,
0100
0000
0001
1000
0001
0000
0010
0000
,
0001
0001
0100
0010
,
1000
0000
0100
1000
0100
0000
0010
0000
,
0001
0001
1000
1000
,
0001
0100
0001
0000
1000
0010
1000
0000
,
0001
0010
0100
1000
,
0001
0100
0001
0000
1000
0100
1000
0000
,
0010
0010
0100
0001
,
1000
0100
0010
0000
0001
1000
0001
0000
,
0100
0010
1000
0001
,
0010
0000
0000
0000
,
0000
0000
0000
0000
0000
0000
0100
0100
,
0100
1000
0001
0000
1000
0000
1000
0000
,
0010
1000
0001
0000
0010
0001
1000
0000
,
0010
0010
0100
0000
0001
0000
1000
0000
,
0100
0010
0001
0000
0100
0010
1000
0000
,
0001
0001
0100
0000
0010
1000
0010
0000
,
0100
0001
1000
0000
0100
0000
0100
0000
,
1000
1000
0010
0000
0100
0001
1000
0000
,
0100
0100
0010
0000
0001
1000
0001
0000
,
0000
0000
0000
0000
,
0100
0000
0000
0100
0000
0000
0010
0000
,
1000
0000
0000
1000
0000
0000
0001
0000
,
0010
0000
0000
0010
0000
0000
0001
0000
,
0100
0000
0000
0100
0000
0000
0001
0000
,
1000
0000
0100
0000
1000
0010
1000
0000
,
0001
0000
0010
0000
0001
0010
0001
0000
,
0100
0000
0010
0000
1000
0001
1000
0000
,
0000
0000
0000
0000
0000
0000
0010
0010
,
0010
1000
0000
0001
0100
0000
0001
0010
,
0000
0100
1000
0000
0001
0000
0001
0000
,
1000
0010
0000
0100
0010
0000
0100
0001
,
0000
1000
0001
0000
0010
0000
0010
0000
,
0001
0100
0000
0100
0001
0000
1000
0100
,
0000
0100
1000
0000
0010
0000
0100
0000
,
0001
0010
0000
0100
1000
0000
0001
0100
,
0000
0010
1000
0001
0010
0100
1000
1000
,
0001
0000
0000
0000
,
0000
0000
0000
0000
,
0100
0000
0100
0000
,
0010
0000
0010
0000
,
1000
1000
0100
0000
,
0010
0010
0001
0000
,
0100
0001
1000
0000
,
0100
1000
0001
0000
,
0010
0001
0100
0000
,
0010
1000
0100
0000
,
0000
0000
0000
0000
,
0000
0000
0000
0000
,
0010
0001
0100
0010
0000
1000
0000
0001
,
0010
0001
0000
1000
0000
0001
0100
0000
,
0010
1000
0100
0010
0000
0001
0000
1000
,
0001
1000
0000
0010
0000
1000
0100
0000
,
0010
0001
0010
0001
0000
0010
0000
0100
,
0000
1000
0000
0010
0000
1000
0100
0000
,
1000
0001
1000
0001
0000
0100
0000
0010
,
0000
0010
0000
0100
0000
0100
0100
0100
,
0100
0000
0001
0010
0001
0010
0001
0000
,
1000
0010
0100
0010
1000
0000
0001
0100
,
0010
0000
1000
0100
1000
0001
1000
0000
,
0001
0010
0001
1000
0001
0000
0100
0000
,
0010
0000
0010
0000
1000
0001
1000
0000
,
0100
0000
0100
0000
1000
0001
1000
0000
,
0001
0010
0001
0000
1000
0010
1000
0000
,
0001
0010
0100
1000
0001
0010
0100
1000
,
0001
0100
0010
1000
0010
0000
0000
0000
;

//--------------- dance-single - EmeraldX ----------------
#NOTES:
     dance-single:
     EmeraldX:
     Hard:
     11:
     0,0,0,0,0:
0000
0000
0000
0000
,
0000
0000
0000
0000
,
1000
0000
0100
0000
1000
0001
0100
0000
,
0001
0000
0010
0000
0001
0000
1000
1000
,
0100
0000
1000
0000
0010
1000
0001
0000
,
0010
0000
0001
0000
0100
0000
0001
0001
,
0010
0000
0000
0100
0000
0000
1000
0000
0000
0001
0000
0000
0100
0000
0000
0001
,
0000
0000
0010
0000
0000
0100
0000
0000
1000
0000
0000
0000
0001
0000
0001
0000
,
0001
1000
0010
1000
0100
0000
0010
0000
,
0100
1000
0001
0000
0001
0100
0010
0000
,
1000
0010
0100
0010
1000
0000
0100
0000
,
1000
0001
0010
0000
0010
0001
0100
0000
,
0010
1000
0010
0100
0001
0010
0100
0000
,
1000
0001
0100
0000
0100
0001
0010
0000
,
0001
0010
0001
0100
0010
1000
0100
0000
,
1000
0001
0010
0000
0010
0001
0100
0000
,
0010
1000
0001
0100
0000
0010
0100
0000
,
0001
0010
0100
1000
0000
0001
0100
0000
,
0010
0010
0010
0010
,
0010
0000
0010
0000
0010
0000
1000
1000
,
1000
0001
0010
0000
0100
0100
0100
0000
,
1000
0001
0010
0001
1000
0010
0100
0000
,
0001
0010
0100
0000
1000
1000
1000
0000
,
0001
0100
0001
1000
0010
0100
0001
0000
,
0010
0001
1000
0001
0100
0100
0100
0000
,
0001
0010
0001
0100
0010
0100
0001
0000
,
1000
0100
0010
0001
0010
0010
0010
0000
,
0100
1000
0001
0100
0010
0010
0010
0000
,
1000
0000
0001
0000
1000
0000
0100
0100
,
0100
0000
0000
0010
0000
0000
0010
0000
0000
0000
0001
0000
1000
0000
0000
0000
,
0001
0000
0000
0100
0000
0000
0100
0000
0000
0000
0010
0000
0100
0000
0000
0000
,
0001
0000
0000
1000
0000
0000
1000
0000
0000
0000
0100
0000
0010
0000
0000
0000
,
0100
0000
0000
0010
0000
0000
0010
0000
0000
0000
0001
0000
1000
0000
0000
0000
,
0001
0100
0001
1000
0010
1000
0100
0000
,
0010
0000
0000
0001
0000
0000
0001
0000
0000
0000
0100
0000
0001
0000
0000
0000
,
1000
0100
1000
0001
0010
0001
1000
0000
,
0010
0010
0100
0100
,
0010
0000
1000
0001
1000
0100
0010
0000
,
0001
0000
0100
0010
1000
0010
0100
0000
,
0010
0000
1000
0100
0010
0001
0100
0000
,
0001
0000
1000
0100
0010
0100
1000
0000
,
0001
0100
0001
0000
1000
0010
0100
0000
,
0010
1000
0001
0000
0010
0100
0010
0000
,
0001
0010
0001
1000
0001
0100
0001
1000
,
0010
1000
0100
1000
0001
0010
0100
1000
,
0001
0000
0000
0000
,
0000
0000
0000
0000
,
1000
0001
0000
0100
0000
0001
0000
0010
,
0000
0100
0000
0010
0000
0001
0000
1000
,
0010
1000
0000
0100
0000
1000
0000
0001
,
0000
1000
0000
0001
0000
0010
0001
1000
,
0001
0100
0000
0010
0000
1000
0000
0100
,
0000
1000
0000
0010
0000
0100
0000
0001
,
1000
0000
0001
0100
0000
0010
0000
1000
,
0000
0010
0000
0100
0000
0001
0000
1000
,
0000
0000
0000
0000
,
0000
0000
0000
0000
,
0100
1000
0010
1000
0001
1000
0001
0000
,
0010
0001
0100
0001
1000
0100
0010
0000
,
0100
1000
0001
0100
0010
0100
0010
0000
,
1000
0010
0100
0010
1000
0001
0010
0000
,
0001
0100
0010
0100
0000
0001
1000
0001
,
0000
0010
0000
0001
0000
1000
0100
0000
,
1000
0010
1000
0001
0000
0010
0001
0010
,
0000
0100
0000
1000
0000
0001
0100
0000
,
0100
0010
1000
0010
0100
0010
1000
0001
,
0010
0001
1000
0001
0010
0001
1000
0000
,
0010
1000
0010
0100
0010
1000
0001
0010
,
0100
0010
0001
0010
0100
0010
0001
0000
,
1000
0010
0100
0010
1000
0001
0010
0001
,
1000
0010
0100
0001
1000
0001
0100
0010
,
1000
0001
0010
0001
1000
0010
1000
0001
,
0100
0010
1000
0100
0010
0001
1000
0001
,
0100
1000
0100
0001
0010
0000
0000
0000
;

//--------------- dance-single - EmeraldX ----------------
#NOTES:
     dance-single:
     EmeraldX:
     Challenge:
     13:
     0,0,0,0,0:
0000
0000
0000
0000
,
0000
0000
0000
0000
,
1001
0010
1000
0001
,
0100
0000
0000
0000
0100
0000
0000
0000
0001
0000
0000
1000
0100
0000
1000
0000
,
1000
0010
0100
0000
0001
0010
0100
0000
,
1000
0000
0001
0000
0100
0000
0000
0000
0001
0000
0000
0010
0100
0000
1000
0000
,
0010
0100
0000
0010
0100
0000
0001
0100
0000
0001
0100
0000
0001
1000
0000
0001
,
1000
0000
0100
1000
0000
0001
1000
0000
0010
1000
0000
0000
0010
0000
0100
0000
,
0010
1000
1000
0100
0000
0001
0100
1000
,
0001
0010
0010
0001
0000
0100
1000
0000
,
0100
0010
0000
0010
0000
0000
1000
0000
0001
0000
0010
0000
0001
0000
1000
0000
,
0010
0100
0100
0001
0000
0100
0010
0000
,
1000
0001
0000
0001
0000
0000
0010
0000
0001
0000
0100
0000
0001
0000
0000
0000
,
1000
0100
1000
0010
0100
0010
1000
0000
,
0001
0010
0000
0010
0000
0000
0001
0000
0100
0000
1000
0000
0100
0000
0000
0000
,
0001
0010
0100
1000
0010
0001
0010
0000
,
1000
0100
0010
0001
0100
1000
0001
0010
,
1000
0000
0001
0000
0010
0000
0100
0000
0010
0000
0000
0001
1000
0000
0010
0000
,
0100
0010
0100
0010
,
0100
0000
0000
0000
0010
0000
0000
0000
0100
0000
0000
0001
0100
0001
0100
0001
,
0100
0000
0010
0000
1000
0000
0100
1000
0000
0000
0001
0000
0100
0000
0001
0000
,
0010
0000
0100
0000
1000
0000
0000
0010
0000
0000
1000
0000
0100
0000
1000
0000
,
0100
0000
0010
0000
0001
0000
1000
0001
0000
0000
0010
0000
0001
0000
0100
0000
,
0001
0000
1000
0000
0100
0000
0000
0010
0000
0000
0100
0000
1000
0000
0100
0000
,
1000
0000
0010
0000
1000
0000
0001
0010
0000
0010
0001
0000
1000
0000
0001
0000
,
0100
0000
0001
0000
1000
0000
0100
0010
0000
0000
0100
0000
1000
0000
0010
0000
,
0100
0000
0001
0000
0010
0000
0001
0100
0000
0100
0001
0000
1000
0000
0100
0000
,
1000
0000
0010
0000
0100
0000
0010
1000
0000
0000
0010
1000
0010
0000
0100
0000
,
0000
0000
0000
0000
0000
0000
0000
0000
0000
0000
0000
0000
0001
1000
0001
1000
,
0001
0000
0000
0010
0000
0000
0001
0000
0000
1000
0000
1000
0000
0000
0010
0000
,
1000
0000
0000
0100
0000
0000
1000
0000
0000
0001
0000
0001
0000
0000
0010
0000
,
0001
0000
0000
0100
0000
0000
0010
0000
0000
1000
0000
0100
0000
0000
1000
0000
,
0010
0000
0000
0100
0000
0000
0001
0000
0000
1000
0000
0001
1000
0000
1000
0000
,
0001
0010
0000
0010
0100
0000
1000
0000
0001
1000
0000
1000
0000
0000
0001
0000
,
1000
0000
0000
0010
1000
0000
0001
0000
1000
0100
0000
0100
0000
0000
0010
0000
,
0001
0100
0000
0100
0010
0000
1000
0000
0001
0010
0000
0010
0000
0000
0100
0000
,
0010
0000
0000
0000
0000
0000
0000
0000
0000
0001
0000
1000
0000
0001
1000
0000
,
0001
0000
0010
0000
0001
0000
0100
0000
0010
1000
0000
1000
0000
0000
0100
0000
,
1000
0000
0010
0000
1000
0000
0100
0000
0010
0100
0000
0100
0000
0000
1000
0000
,
0001
0000
0010
0000
0001
0000
0100
0000
0010
1000
0000
1000
0000
0000
0001
0000
,
0010
0000
0001
0000
0100
0000
0010
0000
1000
0100
0000
0100
1000
0000
0001
0000
,
0001
0000
0100
0000
0010
0000
0001
0000
0010
0000
0000
1000
0100
0000
1000
0000
,
0010
0000
0100
0000
1000
0000
0100
0000
0001
0000
0000
1000
0100
0000
0010
0000
,
0001
0000
0100
0000
1000
0000
0100
0000
0010
0000
0000
0100
0001
0000
0100
0000
,
0010
0000
1000
0000
0001
0000
1000
0000
0100
0000
0000
0010
0001
0000
0001
0000
,
0001
0000
0000
1000
0000
0100
0000
1000
,
0000
0010
1000
0010
0000
1000
0000
0001
,
1000
0001
0000
0100
0000
0001
0000
0100
,
0000
0010
0100
0010
0000
1000
0000
0100
,
0110
0000
0010
0001
0000
0000
1000
0000
0000
0001
0000
0001
0000
0000
0100
0000
,
0001
0000
1000
0001
0000
0000
1000
0000
0000
0100
0000
0100
1000
0000
0001
0000
,
1001
0000
1000
0001
0000
0000
0100
0000
0000
0001
0000
0001
0000
0000
0010
0000
,
0001
0000
1000
0001
0000
0000
1000
0000
0000
0100
0000
0100
0000
0000
1000
0000
,
0010
0000
1000
0010
0000
0000
0100
0000
0000
0001
0000
1000
0000
0000
0001
0000
,
0010
0000
0001
0010
0000
0000
0100
0000
0000
1000
0000
0001
0000
0000
1000
0000
,
0000
0000
0000
0000
,
0000
0000
0000
0000
,
0010
0100
0001
0100
0010
1000
0100
0010
,
1000
0010
0001
0100
0010
1000
0100
0100
,
1000
0010
0100
0001
0010
0100
0001
0100
,
1000
0010
0100
0010
0001
0010
1000
1000
,
0001
0010
1000
0010
0001
1000
0001
0100
,
1000
0100
0001
1000
0100
0010
0001
0001
,
1000
0001
0100
0001
1000
0010
0100
0001
,
0000
0000
1000
0000
0100
0000
1000
0000
0000
0000
1000
0000
0001
0100
0001
0100
,
0001
0010
1000
0001
0100
1000
0010
0100
,
0001
0100
1000
0001
0010
1000
0100
1000
,
0001
0100
1000
0100
0001
0010
1000
0001
,
0100
1000
0001
0100
1000
0100
0001
1000
,
0100
0010
0100
0001
0100
1000
0010
0100
,
0010
0001
0010
1000
0001
0010
0100
0010
,
0001
0100
0010
1000
0001
0010
0100
1000
,
0001
0100
0001
1000
0100
1000
0001
1000
,
0001
1000
0000
0001
1000
0000
0010
0100
0010
0000
0000
0000
0000
0000
0000
0000
;
