#VERSION:0.83;
#TITLE:ありふれたせかいせいふく;
#SUBTITLE:;
#ARTIST:ピノキオP;
#TITLETRANSLIT:Common World Domination;
#SUBTITLETRANSLIT:;
#ARTISTTRANSLIT:PinocchioP;
#GENRE:;
#CREDIT:;
#MUSIC:Common World Domination-audio.ogg;
#BANNER:Common World Domination-banner.png;
#BACKGROUND:Common World Domination-background.png;
#JACKET:Common World Domination-jacket.png;
#DISCIMAGE:;
#CDIMAGE:;
#SELECTABLE:YES;
#LYRICSPATH:;
#CDTITLE:scr-cdtitle.png;
#SAMPLESTART:51.2;
#SAMPLELENGTH:12.8;
#BPMS:0.000=150.000;
#STOPS:;
#WARPS:;
#DELAYS:;
#SPEEDS:0.000=1.000=0.000=0,
194.000=0.500=0.000=0,
194.063=1.000=4.000=0,
238.000=0.000=1.000=0
;
#SCROLLS:0.000=1.000,
28.000=0.750,
32.000=1.000,
60.000=0.750,
64.000=1.000,
188.000=0.750,
194.000=1.000,
238.000=69.000,
238.063=1.000
;
#TICKCOUNTS:;
#TIMESIGNATURES:;
#LABELS:;
#COMBOS:;
#FAKES:238.500=1.000;
#BGCHANGES:;
#FGCHANGES:;
#ATTACKS:;

//---------------dance-single - [XMOD] DS, XO, MD----------------
#NOTEDATA:;
#CHARTNAME:two doubloons(step);
#CHARTSTYLE:;
#CREDIT:Scrypts;
#STEPSTYPE:dance-single;
#DESCRIPTION:[XMOD] DS, XO, MD-;
#DIFFICULTY:Hard;
#METER:13;
#METERF:13;
#RADARVALUES:0,0,0,0,0;
#NOTES:
// measure 0
0000
0000
0000
0000
,  // measure 1
0000
0000
0000
0000
,  // measure 2
0000
0000
0000
0000
,  // measure 3
0000
0000
0000
0000
,  // measure 4
1100
0000
0000
0000
0000
0000
0000
0101
0000
0000
0000
0000
0000
0000
0000
0000
,  // measure 5
1010
0000
0000
0000
0000
0000
0000
0011
0000
0000
0000
0000
0000
0000
0000
0000
,  // measure 6
0110
0000
0000
0000
0000
0000
0000
1001
0000
0000
0000
0000
2000
0000
0000
0000
,  // measure 7
3200
0000
0000
0000
,  // measure 8
1300
0001
1000
0001
0100
0000
0010
0000
1000
0000
0010
0000
0200
0000
0000
0000
,  // measure 9
0301
0010
0100
1000
0010
1000
1001
0000
,  // measure 10
0001
1000
0001
1000
0100
0000
0010
0000
0001
0000
0010
0000
0100
0000
0000
0000
,  // measure 11
1000
0000
1100
0000
0001
0101
0200
0320
,  // measure 12
1030
0001
1000
0001
0100
0000
0010
0000
1000
0000
0010
0000
0200
0000
0000
0000
,  // measure 13
0301
1000
0001
1000
0100
0000
0010
0000
0001
0000
0010
0000
0200
0000
0000
0000
,  // measure 14
1300
0001
1000
0001
0100
0000
0010
0000
1000
0000
0001
0000
0010
0000
0100
0000
,  // measure 15
2000
0000
0000
0000
,  // measure 16
3001
0000
0000
0100
0000
0000
0001
0000
1000
0000
0000
1000
0100
0000
1000
0000
,  // measure 17
0010
0000
0000
0010
0100
0000
0001
0000
2000
0000
0000
0000
3100
0000
0010
0000
,  // measure 18
0001
0000
0100
0010
1000
0010
0100
0001
,  // measure 19
0020
0000
0130
1000
0001
0000
0110
0000
,  // measure 20
1001
0000
0000
1000
0010
0000
1000
0000
0001
0010
0100
0010
0001
0000
1000
0000
,  // measure 21
0010
0000
0000
0010
0100
0000
0001
0000
1000
0000
0000
0000
0100
0000
1000
0000
,  // measure 22
0010
0000
1001
0001
0010
0000
1001
1000
,  // measure 23
1010
0011
1001
MMMM
,  // measure 24
1000
0000
0000
1000
0010
0000
0100
0001
1000
0000
0100
0000
0001
0000
0100
0000
,  // measure 25
1000
0001
0100
1000
0100
0010
1000
0001
,  // measure 26
0010
0000
0000
0010
0001
0000
1000
0000
0001
0000
0100
0010
1000
0000
0001
1000
,  // measure 27
0200
0000
0301
0100
1000
1001
0000
0001
,  // measure 28
0012
1003
0000
2000
0010
3001
0000
0001
,  // measure 29
0010
0000
0100
0000
1000
0000
0010
0100
0001
0000
1000
0000
0100
0000
0010
0000
,  // measure 30
0001
1000
0010
1000
0002
0000
0013
0200
,  // measure 31
0000
0000
0000
0000
0300
0000
0000
1000
,  // measure 32
0020
0000
0100
0000
1030
0000
0001
0000
0020
0000
0100
0000
0031
0000
1000
0001
,  // measure 33
1000
0100
0010
0100
0001
0100
1000
0001
,  // measure 34
0200
0000
0010
0000
0310
0000
1000
0000
0001
0000
1000
0200
0000
0000
0320
0000
,  // measure 35
0031
1000
0010
0100
0001
0000
1001
1000
,  // measure 36
0200
0000
0010
0000
1300
0000
0001
0000
0200
0000
0010
0000
0301
0000
1000
0001
,  // measure 37
0100
0000
0010
0000
1000
0000
1000
0000
0001
0000
0010
0000
0010
0000
0100
1000
,  // measure 38
0001
0000
0000
0000
0002
0000
0103
0001
1000
0000
0000
0000
2000
0000
3100
1000
,  // measure 39
0010
0000
0000
0000
0000
0000
0000
0000
1010
0000
0000
0000
0000
0000
0000
0000
0110
0000
0000
0000
0000
0000
0000
0000
1001
0000
0000
0000
0000
0000
0000
0000
0000
0000
0000
0000
0000
0000
0000
0000
0000
0000
1000
0000
0000
0001
0000
0000
,  // measure 40
0020
0000
0100
0000
0031
0000
1000
0000
0020
0000
0100
0000
1030
0000
0001
1000
,  // measure 41
0001
0000
0010
0000
1000
0000
0010
0000
0100
0000
0010
0000
0001
0000
1000
0001
,  // measure 42
0200
0000
0010
0000
0310
0000
1000
0001
0010
0000
0010
0200
0000
0000
2300
0000
,  // measure 43
3001
0000
0100
0000
0010
0000
1000
0000
0001
0010
0000
0010
0000
0010
0000
0001
,  // measure 44
0200
0000
0010
0000
0301
0000
1000
0000
0200
0000
0010
0000
1300
0000
0001
0100
,  // measure 45
0010
0000
0100
0000
0001
0000
0001
0000
1000
0000
0100
0000
0100
0000
0010
0001
,  // measure 46
2000
0000
3000
0000
1000
0000
0010
0100
0002
0000
0003
0000
0011
0000
0000
0000
,  // measure 47
1001
1000
0000
0010
0000
0100
0001
1000
,  // measure 48
0200
0300
2002
0000
,  // measure 49
0000
0000
3003
0000
1000
0010
0100
0001
,  // measure 50
0010
0000
0001
0000
1001
0000
0000
0000
1000
0001
1000
0001
0100
0000
0010
0000
,  // measure 51
1000
0010
0100
0000
0001
0000
0101
0000
,  // measure 52
1000
0000
1100
0000
0200
0000
0320
0000
0031
1000
0001
1000
0100
0000
0010
0000
,  // measure 53
0001
0000
0010
0000
0200
0000
0000
0000
1300
0001
1000
0001
0100
0000
0010
0000
,  // measure 54
1000
0000
0010
0000
0200
0000
0000
0000
0301
1000
0001
1000
0100
0000
0010
0000
,  // measure 55
0001
0000
1000
0000
0010
0000
0100
0000
0001
0000
0000
0011
0000
0000
0010
0000
,  // measure 56
0000
0110
0000
0000
0100
0000
1000
0000
0000
0000
0000
0000
0020
0000
0000
0000
,  // measure 57
0000
0000
0000
0000
,  // measure 58
0000
0000
0000
0000
,  // measure 59
0000
0000
0030
000M
;

//---------------dance-single - [XMOD] DS, FS, XO, HS-, MD----------------
#NOTEDATA:;
#CHARTNAME:mr krabs i have an idea;
#CHARTSTYLE:;
#CREDIT:Scrypts;
#STEPSTYPE:dance-single;
#DESCRIPTION:[XMOD] DS, FS, XO, HS-, MD-;
#DIFFICULTY:Challenge;
#METER:16;
#METERF:16;
#RADARVALUES:0,0,0,0,0;
#NOTES:
// measure 0
0000
0000
0000
0000
,  // measure 1
0000
0000
0000
0000
,  // measure 2
0000
0000
0000
0000
,  // measure 3
0000
0000
0000
0000
,  // measure 4
1100
0000
1000
0000
0020
0030
0000
0101
0000
0000
0001
0000
1000
0000
1000
0000
,  // measure 5
0101
0000
0001
0000
0020
0030
0000
1100
0000
0000
0001
1000
0001
0100
0010
0000
,  // measure 6
1010
0000
1000
0000
0200
0300
0000
0011
0000
0000
0001
0000
1001
0000
1000
0010
,  // measure 7
0200
0000
0000
0000
0000
0000
0301
0000
1000
0100
0010
0001
2000
0000
0000
0000
,  // measure 8
3001
0100
0010
0100
0002
0000
0010
0000
2003
0000
3010
0100
0001
0000
1000
0000
,  // measure 9
0002
0000
0010
0000
2003
0000
0100
0000
3001
0010
0100
1000
0001
0000
1000
0001
,  // measure 10
1000
0100
0010
0100
2000
0000
0010
0000
3002
0000
0013
0100
1000
0000
0001
0000
,  // measure 11
0101
0000
0000
0000
1100
0000
1000
0000
0001
0000
0101
0000
0001
0100
0001
1000
,  // measure 12
0001
0010
0100
0010
0002
0000
0010
0000
2003
0000
3100
0010
0002
0000
0000
0000
,  // measure 13
1003
0010
0100
0010
2000
0000
0010
0000
3002
0000
0103
0010
4000
0000
0000
0000
,  // measure 14
3001
0010
0100
0010
0002
0000
0010
0000
2003
0000
3100
0010
0001
1000
0010
0000
,  // measure 15
0200
0000
0302
0000
0023
0000
0230
0000
1300
0001
0000
0001
1000
0010
0100
0001
,  // measure 16
2000
0000
0000
3200
0000
0000
1300
0000
0001
0000
0000
0001
1000
0000
0100
0000
,  // measure 17
0002
0000
0000
0103
1000
0000
0010
0000
0002
0000
0000
0000
0013
0000
0100
0000
,  // measure 18
0002
0000
0013
0100
0001
0100
1000
0001
,  // measure 19
0100
0000
0000
0100
0010
0000
2000
0000
3001
0000
0000
0000
0110
0000
0000
0000
,  // measure 20
1001
0000
0000
0001
0010
0000
0100
0000
1000
0001
0100
0001
1000
0000
0100
0000
,  // measure 21
0020
0000
0000
1030
0010
0000
0100
0000
2000
0000
0000
0000
3001
0000
0100
0000
,  // measure 22
0010
0000
2001
3001
0010
0000
1002
1003
,  // measure 23
2010
3100
0012
0103
1001
0000
MMMM
0000
,  // measure 24
2000
0000
0000
3100
0010
0000
0001
1000
0100
1000
0020
0000
0230
0000
0302
0000
,  // measure 25
0013
0000
0100
0010
0001
0000
1000
0000
0010
0000
0100
0000
1000
0000
0100
0000
,  // measure 26
0002
0003
0000
0001
0010
0000
0100
0000
1000
0000
0100
1000
0010
0000
0100
0001
,  // measure 27
2000
0000
0000
0000
3100
0000
0010
0000
0001
0000
1002
0000
0000
0000
0103
0002
,  // measure 28
0010
0000
1003
0000
0000
0000
0100
2000
0010
0000
3001
0000
0000
0000
0010
0002
,  // measure 29
0100
0000
1003
0000
0100
0000
0010
0001
1000
0000
0010
0000
1000
0000
0100
0000
,  // measure 30
0110
0010
0001
1000
0020
0000
0130
0002
,  // measure 31
1000
0000
0000
0000
1000
0000
0000
1003
0001
0000
0010
0000
0100
0000
1000
0001
,  // measure 32
1000
0000
0100
00M0
0100
0000
0001
1000
0001
0000
0100
00M0
0100
0000
1000
0001
,  // measure 33
1000
0000
0100
0000
0001
0000
0100
0000
2000
0000
0000
0000
3001
0000
0100
0001
,  // measure 34
0020
0000
0100
0000
0130
0000
1000
0010
0100
0000
0010
2000
0000
0000
3001
0000
,  // measure 35
0010
0100
1000
0010
0100
0001
1001
1000
,  // measure 36
0001
0000
0100
00M0
0100
0000
1000
0001
1000
0000
0100
00M0
0100
0000
0001
1000
,  // measure 37
0100
0000
1000
0000
0010
0M00
0010
0000
0001
0000
1000
0000
1002
0000
0103
0001
,  // measure 38
0020
0000
0030
0000
0110
0000
0100
1000
0020
0000
0030
0000
0110
0000
0100
0001
,  // measure 39
0020
0000
0100
1000
0000
0000
0100
0031
0020
0000
0000
0000
0030
0000
0001
1000
,  // measure 40
0010
0000
0100
000M
0100
0000
1000
0001
0010
0000
0100
M000
0100
0000
0001
1000
,  // measure 41
0001
0000
0100
0000
1000
0000
0100
0000
0001
1000
0001
0000
1000
0001
1000
0100
,  // measure 42
0020
0000
0100
0000
0130
0000
1000
0001
1000
0010
0000
0200
0000
0000
0302
0000
,  // measure 43
0013
0000
0100
1000
0010
0000
0100
0001
2000
0010
0000
0001
0000
0100
0000
3001
,  // measure 44
0010
0000
0100
M000
0100
0000
0001
1000
0010
0000
0100
000M
0100
0000
1000
0001
,  // measure 45
0100
0000
0001
0000
0010
0M00
0010
0000
1000
0000
0001
0000
2001
0000
3100
1000
,  // measure 46
0020
0000
0030
0000
0110
0000
0100
0001
0020
0000
0030
0000
0110
0000
0000
0000
,  // measure 47
1100
2000
0000
3200
0000
0302
2003
3020
,  // measure 48
0032
0000
0000
0003
2001
0000
0000
0000
,  // measure 49
3000
0000
0000
0000
0001
1000
0001
1000
0002
0000
0100
0000
2003
0000
0010
0000
,  // measure 50
3001
0100
0010
1000
0001
0000
1000
0001
1000
0010
0100
0010
2000
0000
0100
0000
,  // measure 51
3002
0000
0103
0010
1000
0000
0001
0000
0011
0000
0000
0000
1010
0000
1000
0000
,  // measure 52
0001
0000
0011
0000
0001
0010
0001
1000
0001
0100
0010
0100
0002
0000
0100
0000
,  // measure 53
2003
0000
3010
0100
0002
0000
0000
0000
1003
0100
0010
0100
2000
0000
0100
0000
,  // measure 54
3002
0000
0013
0100
4000
0000
0000
0000
3001
0100
0010
0100
0002
0000
0100
0000
,  // measure 55
2003
0000
3010
0100
0001
1000
0100
0000
0110
0000
0000
0011
0000
0000
1001
0000
,  // measure 56
0000
1010
0000
0000
0010
0000
0100
0000
0000
0000
0000
0000
0002
0000
0000
0000
,  // measure 57
0000
0000
0000
0000
,  // measure 58
0000
0000
0000
0000
,  // measure 59
0000
0000
0003
0MM0
;
