#VERSION:0.83;
#TITLE:Colored Garden;
#SUBTITLE:;
#ARTIST:ぱらどっと;
#TITLETRANSLIT:;
#SUBTITLETRANSLIT:;
#ARTISTTRANSLIT:Para Dot;
#GENRE:Color bass;
#CREDIT:Create!;
#MUSIC:song.ogg;
#BANNER:bn.png;
#BACKGROUND:bg.png;
#CDTITLE:create_cdtitle.png;
#SAMPLESTART:32.116;
#SAMPLELENGTH:26.400;
#SELECTABLE:YES;
#OFFSET:-0.116;
#BPMS:0.000=150.000;
#STOPS:;
#FAKES:17.875=0.021,
20.750=0.021,
21.875=0.021,
25.875=0.021,
28.750=0.021,
29.875=0.021,
33.875=0.021,
36.750=0.021,
37.875=0.021,
41.875=0.021,
45.875=0.021,
113.625=0.021,
116.625=0.021,
117.625=0.021,
118.625=0.021,
121.625=0.021,
129.625=0.021,
132.625=0.021,
133.625=0.021,
134.625=0.021,
137.625=0.021,
145.000=0.021,
150.625=0.021,
153.625=0.021,
155.125=0.021,
157.625=0.021,
161.625=0.021,
163.625=0.021,
169.625=0.021
;
#JACKET:jacket.png;
#LASTSECONDHINT:76.116;
#BGCHANGES:;
#FGCHANGES:;

//--------------- dance-single - ----------------
#NOTEDATA:;
#STEPSTYPE:dance-single;
#DESCRIPTION:16th bursts;
#CHARTNAME:Mostly 8ths;
#CREDIT:Create!;
#DIFFICULTY:Medium;
#METER:12;
#RADARVALUES:0,0,0,0,0;
#NOTES:
0000
0000
0000
0000
,
0000
0000
0000
0000
,
0000
0000
0000
0000
,
0000
0000
0000
0000
,
2200
0000
0000
0000
0000
0000
0000
0000
3322
0000
0000
0033
1000
0000
0000
0000
,
2020
3232
2323
3031
,
0022
0000
0000
0000
0000
0000
0000
0000
2233
0000
0000
3300
0001
0000
0000
0000
,
0202
0000
0000
0000
2323
0000
0000
0000
3232
0000
0000
0303
1000
0100
1000
0000
,
0022
0000
0000
0000
0000
0000
0000
0000
2233
0000
0000
3300
0001
0000
0000
0000
,
0202
2323
3232
1303
,
2200
0000
0000
0000
0000
0000
0000
0000
3322
0000
0000
0033
1000
0000
0000
0000
,
0020
0000
0000
0230
0302
0000
2003
0000
3000
0000
0000
0000
0100
0010
0100
0000
,
0110
0000
1000
0000
,
0001
0000
1000
0000
,
1001
0000
0001
0000
,
1000
0000
0000
0000
0000
0000
0000
0000
0001
0000
0000
0000
1000
0001
1000
0000
,
1001
0001
0010
0001
1000
0010
1000
0010
,
1000
0100
1000
0010
1000
0001
0010
0100
,
1001
0001
0100
0001
0010
0001
0100
0001
,
0010
0000
0100
0000
1000
0000
0010
0000
1000
0000
0100
0000
0010
0001
0010
0001
,
1000
0000
0001
0001
0101
0000
1010
0000
,
1001
0000
1000
1000
1100
0000
0101
0000
,
1001
0000
0001
0001
0101
0000
1100
0000
,
1001
0000
1000
1000
1100
0000
0004
0003
,
1000
0001
1000
0001
0100
0010
0100
0010
,
1000
0001
1000
0001
0010
0100
0010
0100
,
1000
0010
1000
0100
0010
0001
0100
0001
,
0010
0000
0000
0000
,
0210
0000
1300
0001
0200
0301
1000
0100
,
1000
0000
0001
0000
0100
0000
0001
0000
0001
0010
0001
0010
0001
0000
0100
0000
,
0020
0000
1030
0100
0020
0030
0004
0000
,
0000
0000
4003
0000
3010
0010
0010
0000
,
0202
0000
0000
0303
1000
0000
0100
0000
0020
0000
0031
0000
1000
0000
0010
0000
,
1000
0000
0001
0000
0010
0000
0001
0000
0001
0100
0001
0100
0001
0000
0010
0000
,
0200
0000
1300
0010
0200
0300
0004
0000
,
0000
0000
4003
0000
3100
0100
0100
0000
,
1000
0000
0000
0000
MMMM
0000
0000
0000
1001
0000
0000
0000
2000
3000
0001
0010
,
0001
0010
0001
0000
2000
3000
0001
0000
0100
0000
0010
1000
0002
1003
0010
1000
,
0001
0000
0000
0000
0020
0030
0001
0000
0100
0000
0000
0000
0020
1030
0001
1000
,
0001
1000
0001
1000
0200
0300
0010
0000
0011
0000
0000
0000
0201
0300
0000
0000
,
0220
0330
0000
0000
2000
3000
0001
0010
0001
0000
0000
0000
2000
3000
0001
0100
,
0001
0100
0001
0100
0020
0030
1000
0000
0100
0000
1000
0000
0002
0003
0400
0000
,
0301
0000
0000
0000
2000
3000
0001
0010
0001
0000
0000
0000
2000
3000
0001
0010
,
0001
0000
0000
0000
,
1000
0000
0000
0000
;

//--------------- dance-single - ----------------
#NOTEDATA:;
#STEPSTYPE:dance-single;
#DESCRIPTION:JU;
#DIFFICULTY:Hard;
#METER:15;
#RADARVALUES:0,0,0,0,0;
#CHARTNAME:Less technical;
#CREDIT:Create!;
#NOTES:
0000
0000
0000
0000
,
0000
0000
0000
0000
,
0000
0000
0000
0000
,
0000
0000
0000
0000
,
1200
0000
0000
0000
0000
0000
0000
0000
0000
0000
0000
0000
0000
0000
0300
00M0
0201
0000
0000
0000
0000
0000
0000
0000
0301
0000
0000
0000
1000
0000
0000
0000
,
0021
0000
0000
0000
0000
0000
0M30
0000
1020
0000
0000
0000
0000
0000
0030
0M00
0012
0000
0000
0000
0000
0000
0003
0000
1000
0000
0100
0000
0010
0000
0001
0000
,
0201
0000
0000
0000
0000
0000
0000
0000
0000
0000
0000
0000
0000
0000
0300
00M0
1200
0000
0000
0000
0000
0000
0000
0000
1300
0000
0000
0000
0001
0000
0000
0000
,
1020
0000
0000
0000
0000
0000
0M30
0000
0021
0000
0000
0000
0000
0000
0030
0M00
2010
0000
0000
0000
0000
0000
3000
0000
0001
0000
1000
0000
0001
0000
1000
0000
,
0021
0000
0000
0000
0000
0000
0000
0000
0000
0000
0000
0000
0000
0000
0030
0M00
1020
0000
0000
0000
0000
0000
0000
0000
1030
0000
0000
0000
0001
0000
0000
0000
,
1200
0000
0000
0000
0000
0000
03M0
0000
0201
0000
0000
0000
0000
0000
0300
00M0
2100
0000
0000
0000
0000
0000
3000
0000
0001
0000
0010
0000
0100
0000
1000
0000
,
1020
0000
0000
0000
0000
0000
0000
0000
0000
0000
0000
0000
0000
0000
0030
0M00
0021
0000
0000
0000
0000
0000
0000
0000
0031
0000
0000
0000
1000
0000
0000
0000
,
0020
0000
0000
0230
0302
0000
2003
0000
3100
0010
0001
0100
0001
1000
0001
0010
,
0110
0000
1000
0000
,
0001
0000
1000
0000
,
0001
0000
0000
0000
1000
0010
0100
0001
,
1000
0100
1000
0100
1000
0000
0001
0100
0001
0010
0001
0000
1000
0010
0100
0001
,
1000
0001
0010
0001
1000
0010
1000
0010
,
1000
0001
0010
0100
1000
0000
0001
0100
0010
1000
0001
0000
0010
0000
0100
0000
,
1000
0000
0001
0100
0010
1000
0001
0000
0010
0000
0100
0000
0010
0000
0001
0000
,
0100
0010
1000
0001
1000
0000
0100
0010
0001
1000
0010
0000
0100
0001
0100
0001
,
0010
0000
1100
1001
0101
0000
1010
0000
,
1100
0000
0011
1001
1010
0000
0101
0000
,
1100
0000
0011
1001
1010
0000
0101
0000
,
0011
0000
0000
0000
1100
0000
1001
0000
0101
0000
0000
0000
1000
0000
0100
1000
,
0010
1000
0100
1000
0010
1000
0100
1000
,
0001
0100
0001
0010
0001
0100
0001
0010
,
0100
1000
0001
0100
0010
1000
0001
0010
0100
1000
0001
0100
0010
1000
0001
0010
,
0000
0000
0000
0000
0000
0000
0000
0000
0000
0000
0000
0000
0000
0000
0000
0000
0000
0000
0000
0000
0000
0000
0000
0000
0000
0000
0000
0000
0000
0000
0000
0000
0001
0000
1000
0000
0010
0000
0000
1000
0000
0000
0001
0000
0000
1000
0000
0000
,
0200
0000
0000
0000
1300
0000
0010
1000
0200
0000
1000
0000
1300
0001
0100
0010
,
1000
0000
0001
0010
0001
0000
0100
0010
1000
0001
0100
0010
1000
0000
0100
1000
,
0020
0000
0000
0000
1030
0000
0100
1000
0020
0000
1000
0000
1030
0001
0010
0100
,
1000
0001
0010
0100
1000
0000
0010
1000
0100
0000
0001
0000
0100
0000
0000
0000
,
2001
0000
0000
0000
3001
0000
0100
0001
0020
0000
0001
0000
0031
1000
0010
0100
,
0010
0000
1000
0100
1000
0000
0010
0100
0001
1000
0010
0100
0001
0000
0010
0001
,
0200
0000
0000
0000
0301
0000
0010
0001
0200
0000
0001
0000
0301
1000
0010
0100
,
0001
1000
0010
0100
0001
0000
0010
0001
0100
0000
1000
0000
0100
0000
0000
0000
,
1000
0000
0000
0000
MMMM
0000
0000
0000
1001
0000
0000
0000
2100
3000
0001
0100
,
0001
0100
0001
0000
2100
3000
0001
0000
0100
0000
0010
1000
0010
1000
0010
1000
,
0100
0000
0000
0000
0102
0003
1000
0100
0010
0000
0000
0000
0001
1000
0001
1000
,
0001
1000
0001
1000
0010
0000
0100
0001
0010
0000
0000
0000
1010
0000
0000
0000
,
0101
0000
0000
0000
2100
3000
0001
0100
0010
0000
0000
0000
0012
0003
1000
0100
,
1000
0100
1000
0100
0010
0000
0001
0100
0010
1000
0001
1000
0100
0010
0001
1000
,
0010
0000
0000
0000
0012
0003
1000
0010
0100
0000
0000
0000
2100
3000
0001
0100
,
0010
0000
0000
0000
,
1000
0000
0000
0000
;

//--------------- dance-single - Create! ----------------
#NOTEDATA:;
#STEPSTYPE:dance-single;
#DESCRIPTION:FS+;
#CHARTNAME:Technical;
#CREDIT:Create!;
#DIFFICULTY:Challenge;
#METER:16;
#RADARVALUES:0,0,0,0,0;
#NOTES:
0000
0000
0000
0000
,
0000
0000
0000
0000
,
0000
0000
0000
0000
,
0000
0000
0000
0000
0000
0000
0000
0000
0000
0000
0000
0000
0001
1000
0001
1000
,
0200
0000
0000
0000
0000
0000
0000
0000
0000
0000
0000
0000
0000
0000
0300
00M0
0200
0000
0001
0000
0000
0000
0300
0000
1000
0000
0000
0000
0001
0000
0000
0000
,
0020
0000
0000
0000
0000
0000
0000
0000
0230
0000
0000
0000
0000
0000
0300
M000
0200
0000
0001
0000
0000
0000
0300
0000
1000
0000
0100
0000
0010
0000
0001
0000
,
0200
0000
0000
0000
0000
0000
0000
0000
0000
0000
0000
0000
0000
0000
0300
00M0
0200
0000
1000
0000
0000
0000
0300
0000
0001
0000
0000
0000
1000
0000
0000
0000
,
0020
0000
0000
0000
0000
0000
0000
0000
0230
0000
0000
0000
0000
0000
0300
00M0
0200
0000
1000
0000
0000
0000
0300
0000
0001
0000
1000
0000
0001
0000
1000
0000
,
0020
0000
0000
0000
0000
0000
0000
0000
0000
0000
0000
0000
0000
0000
0030
0M00
0020
0000
0001
0000
0000
0000
0030
0000
1000
0000
0000
0000
0001
0000
0000
0000
,
0200
0000
0000
0000
0000
0000
0000
0000
0320
0000
0000
0000
0000
0000
0030
M000
0020
0000
0001
0000
0000
0000
0030
0000
1000
0000
0010
0000
0100
0000
0001
0000
,
0020
0000
0000
0000
0000
0000
0000
0000
0000
0000
0000
0000
0000
0000
0030
0M00
0020
0000
1000
0000
0000
0000
0030
0000
0001
0000
0000
0000
0010
0000
0000
0000
,
0200
0000
0000
0000
0000
0000
2300
0000
3002
0000
0000
0000
0203
0000
0300
00M0
0200
0000
1300
0000
0001
0000
0010
0000
0001
0000
1000
0000
0001
0000
0100
0000
,
0110
0000
1000
0000
,
0001
0000
1000
0000
,
0001
0000
0000
0000
1000
0010
0100
0001
,
1000
0100
1000
0100
1000
0000
0001
0100
0001
0010
0001
0000
1000
0010
0100
0001
,
1000
0001
0010
0001
1000
0010
1000
0010
,
1000
0001
0010
0100
1000
0000
0001
0100
0010
1000
0001
0000
0010
0000
0100
0000
,
1000
0000
0001
0100
0010
1000
0001
0000
0010
0000
0100
0000
0010
0000
0001
0000
,
0100
0010
1000
0001
1000
0000
0100
0010
0001
1000
0010
0000
0100
0001
0100
0001
,
0010
0000
1100
1001
0101
0000
1010
0000
,
1100
0000
0011
1001
1010
0000
0101
0000
,
1100
0000
0011
1001
1010
0000
0101
0000
,
0011
0000
0000
0000
1100
0000
1001
0000
0101
0000
0000
0000
1000
0000
0100
1000
,
0010
1000
0100
1000
0010
1000
0100
1000
,
0001
0100
0001
0010
0001
0100
0001
0010
,
0100
1000
0100
1000
0001
1000
0001
1000
0010
0100
0010
0100
0001
1000
0001
1000
,
0000
0000
0000
0000
0000
0000
0000
0000
0000
0000
0000
0000
0000
0000
0000
0000
0000
0000
0000
0000
0000
0000
0000
0000
0000
0000
0000
0000
0000
0000
0000
0000
0001
0000
1000
0000
0100
0000
0000
1000
0000
0000
0001
0000
0000
1000
0000
0000
,
0020
0000
0000
0000
0000
0000
0000
0000
1030
0000
0000
0000
0100
00M0
0100
0000
0002
0000
0000
0000
1000
0000
0000
0000
1003
0000
0001
0000
0010
0000
0010
0000
,
0010
0000
0000
0000
0100
00M0
0100
0000
0001
0000
0000
0000
0010
0M00
0010
0000
1000
0000
0001
0000
0100
00M0
0100
0000
1000
0000
0000
0000
0001
0000
1000
0000
,
0020
0000
0000
0000
0000
0000
0000
0000
1030
0000
0000
0000
0010
0M00
0010
0000
0002
0000
0000
0000
1000
0000
0000
0000
1003
0000
0001
0000
0100
0000
0010
0000
,
1000
0001
0100
0010
1000
0000
0100
1000
0010
0000
0001
0000
0010
0000
0000
0000
,
2001
0000
0000
0000
0000
0000
0000
0000
3001
0000
0000
0000
0100
00M0
0100
0000
2000
0000
0000
0000
0001
0000
0000
0000
3001
0000
1000
0000
0010
0000
0010
0000
,
0010
0000
0000
0000
0100
00M0
0100
0000
1000
0000
0000
0000
0010
0M00
0010
0000
0001
0000
1000
0000
0100
00M0
0100
0000
0001
0000
0000
0000
1000
0000
0001
0000
,
0020
0000
0000
0000
0000
0000
0000
0000
0031
0000
0000
0000
0010
0M00
0010
0000
2000
0000
0000
0000
0001
0000
0000
0000
3001
0000
1000
0000
0100
0000
0010
0000
,
0001
1000
0100
0010
0001
0000
0100
0001
0010
0000
1000
0000
0010
0000
0000
0000
,
0001
0000
0000
0000
MMMM
0000
0000
0000
1001
0000
0000
0000
0012
0003
0100
0100
,
0100
0000
0100
0000
0100
0000
0000
0000
0012
0000
0003
0000
1000
0000
0000
0000
0010
0000
0000
0000
0100
M000
0100
0000
0100
0000
0100
0000
0100
0000
0100
0000
,
1000
0000
0000
0000
0000
0000
0000
0000
0012
0000
0003
0000
0100
00M0
0100
0000
1000
0000
0000
0000
0000
0000
0000
0000
0100
M000
0100
0000
0100
0000
0100
0000
,
0100
0000
0100
0000
0100
0000
0100
0000
1000
0000
0000
0000
0010
0M00
0010
0000
0001
0000
0000
0000
0000
0000
0000
0000
2100
0000
3000
0000
0000
0000
0000
0000
,
1001
0000
0000
0000
0000
0000
0000
0000
2100
0000
3000
0000
0010
0M00
0010
0000
0001
0000
0000
0000
0000
0000
0000
0000
2010
0000
3000
0000
0100
000M
0100
0000
,
0100
0100
0100
0100
1000
0000
0010
1000
0100
0010
0001
1000
0010
0100
0001
1000
,
0100
0000
0000
0000
0000
0000
0000
0000
2010
0000
3000
0000
0100
00M0
0100
0000
0001
0000
0000
0000
0000
0000
0000
0000
2010
0000
3000
0000
0100
0000
1000
0000
,
0001
0000
0000
0000
,
1001
0000
0000
0000
;
