#TITLE:Close the World;
#SUBTITLE:beatmania IIDX 21 Spada;
#ARTIST:DJ NAGAI feat. a☆ru;
#TITLETRANSLIT:;
#SUBTITLETRANSLIT:;
#ARTISTTRANSLIT:;
#GENRE:;
#CREDIT:Braeden;
#MUSIC:Close the World.ogg;
#JACKET:jacket.png;
#BACKGROUND:bg.png;
#BANNER:ban.png;
#CDTITLE:;
#SAMPLESTART:33.836;
#SAMPLELENGTH:24.894;
#SELECTABLE:YES;
#OFFSET:-0.644;
#BPMS:0.000=188.000;
#STOPS:101.500=0.638
,244.000=0.319
;
#BGCHANGES:;
#FGCHANGES:;

//--------------- dance-single - ----------------
#NOTES:
     dance-single:
     :
     Beginner:
     3:
     0,0,0,0,0:
0000
0000
0000
0000
,
0000
0000
0000
0000
,
0000
0000
0000
0000
,
0000
0000
1000
0000
,
0001
0000
1000
0000
,
0000
0000
0010
0000
,
0000
0000
0100
0000
,
0000
0000
0000
0000
,
0001
0000
0000
0000
,
0000
0000
1000
0000
,
0000
0000
0001
0000
,
0000
0000
0100
0000
,
0000
0000
0010
0000
,
0000
0000
1001
0000
,
0000
0000
1000
0000
,
0000
0000
0001
0000
,
0000
0000
0100
0000
,
0000
0000
0010
0000
,
1000
0000
0000
0000
,
0001
0000
0100
0000
,
0010
0000
1000
0000
,
0000
0000
0001
0000
,
1000
0000
0000
0000
,
0001
0000
0000
0000
,
1000
0000
0001
0000
,
0000
0000
0000
0000
,
1001
0000
0001
0000
,
0000
0000
0100
0000
,
0010
0000
1000
0000
,
0000
0000
0020
0000
,
0030
0000
2000
0000
,
3000
0000
0000
0000
,
0001
0000
1000
0000
,
0000
0000
0010
0000
,
1001
0000
1000
0000
,
0000
0000
0001
0000
,
0100
0000
0010
0000
,
0000
0000
0200
0000
,
0300
0000
0100
0000
,
0010
0000
1000
0000
,
0001
0000
0000
0000
,
1000
0000
0010
0000
,
0000
0000
0000
0000
,
1000
0000
0010
0000
,
0000
0000
0000
0000
,
1000
0000
0000
0000
,
0001
0000
0000
0000
,
0100
0000
0000
0000
,
0010
0000
0000
0000
,
1000
0000
0000
0000
,
0100
0000
0000
0000
,
0010
0000
0000
0000
,
0100
0000
0000
0000
,
1001
0000
0000
0000
,
0001
0000
0000
0000
,
1000
0000
0000
0000
,
0010
0000
0000
0000
,
0100
0000
0000
0000
,
0001
0000
0000
0000
,
1000
0000
0001
0000
,
1000
0000
0001
0000
,
1000
0000
0000
1001
,
0000
1000
0000
0000
,
0000
0001
0000
0100
,
0000
0010
0000
0000
,
0000
0200
0000
0300
,
0000
0002
0000
0003
,
0000
0000
0000
1000
,
0000
0001
0000
0000
,
0000
0100
0000
1001
,
0000
0001
0000
0000
,
0000
1000
0000
0010
,
0000
0100
0000
0000
,
0000
0020
0000
0030
,
0000
2000
0000
3000
,
0000
0010
0000
0000
,
0000
0000
0000
0100
,
0000
0010
0000
0000
,
0000
0000
0000
1000
,
0000
0001
0000
0000
,
0000
0000
0000
1001
,
0000
1000
0000
0001
,
0000
0000
0000
0010
,
0000
0001
0000
1000
,
0000
0000
0000
1001
,
0000
0000
0000
0001
,
0000
0000
0000
1000
,
0000
0000
0000
0000
,
0000
1000
0000
0100
,
0000
0000
1001
0000
;

//--------------- dance-single - ----------------
#NOTES:
     dance-single:
     :
     Easy:
     8:
     0,0,0,0,0:
0000
0000
0000
0000
,
0000
0000
0000
0000
,
0000
0000
0000
0000
,
0000
0000
1000
0000
,
0001
0000
1000
0200
,
0300
0010
0001
0200
,
0300
0010
1000
0001
,
0000
1000
0000
0001
0000
1000
0000
0000
,
1001
2002
3003
0000
,
0000
0000
0000
0000
2000
0000
3000
0001
,
0100
0000
0000
0000
0020
0000
0030
1000
,
0001
0000
0000
0000
0020
0000
0130
1000
,
0000
0000
0001
1000
,
0010
0000
0000
0000
1001
0000
0000
0001
,
0100
0000
0010
0000
1000
0000
0000
0100
,
0010
0000
0001
0000
1000
0000
0000
0001
,
0100
0000
0010
0000
1001
0000
0000
2000
,
0000
3010
1010
0100
,
0001
0020
0030
0001
,
0100
0000
0010
0000
1000
0002
0000
0000
,
0003
0100
0010
0000
1010
0000
0000
1000
,
0000
0001
0100
0020
,
0030
0000
1000
0002
0000
0000
0103
0010
,
0000
0000
1000
0002
0000
0000
0000
0003
,
0000
1000
0001
0200
0000
0000
0000
0000
,
0000
0000
0000
0310
0100
0000
0001
0000
,
2002
0000
3003
0000
0001
0000
0100
0002
,
0000
0003
0010
0100
,
1000
0000
0001
0000
0100
0000
0001
0200
,
0000
0000
0300
0000
0010
0000
1000
0020
,
0000
0000
0030
0000
1000
0000
1000
0002
,
0000
0000
0003
1000
,
0010
0000
1000
0000
0001
0000
0010
0100
,
0000
1000
0000
0001
0100
0000
0010
0000
,
1020
0000
1030
0000
0100
0000
0010
0002
,
0000
0003
0100
0010
,
0100
0000
0001
0000
0010
0000
0100
0020
,
0000
0000
0030
0000
0001
0000
1000
0020
,
0000
0000
0030
0000
0100
0000
0001
0020
,
0000
0000
0130
0000
0010
0000
0001
0200
,
0000
0000
0300
0010
,
2010
0000
0000
0000
3001
0000
0000
2002
,
0000
0000
0000
3003
,
1000
0000
0010
0000
0100
0000
0100
0020
,
0000
0000
0000
0030
,
1001
0000
1000
0001
,
1000
0000
0000
0001
0000
0000
0000
0000
,
1000
0000
0000
0000
,
0010
0000
0000
0000
,
0100
0001
0000
1000
,
0001
0001
0000
0100
,
0001
0000
0000
0000
,
1000
0000
0000
0000
,
1001
0000
0001
0100
,
0010
1000
0000
0000
,
0001
0000
0010
0000
,
0001
0000
0100
0010
,
1001
0001
1000
0010
,
1010
1000
0100
0010
,
0001
0000
1000
0000
,
0001
0010
0001
1000
,
1010
0010
0100
0202
,
0303
0000
0001
1000
0000
1020
0000
0000
,
0030
0100
0001
0000
0010
0000
1001
0000
,
0010
0000
1000
0000
0001
0020
0000
0000
,
0030
0000
0100
0000
1000
0002
0000
0000
,
0003
0000
1000
0000
0010
2000
0000
0000
,
0000
3000
0001
0100
,
0001
0000
0010
0000
0001
0100
0000
0010
,
0000
1000
0001
0000
0100
0000
1001
0000
,
0001
0000
0010
0000
0001
0200
0000
0000
,
0300
0001
0010
0100
,
1000
0000
0001
0000
0100
0020
0000
0000
,
0030
0000
1000
0000
0001
0200
0000
0000
,
0310
0000
1000
0000
0001
0200
0000
0000
,
0301
0000
0010
0000
0100
2000
0000
0000
,
0000
3000
0001
1001
,
1000
0000
0010
0000
0100
0020
0000
0000
,
0000
0030
0100
1001
,
0001
0000
1000
0000
0010
0200
0000
0000
,
0000
0000
0300
0001
,
0100
0010
1000
0002
,
0000
2003
0000
0000
3000
0000
0010
0000
,
0100
0000
0001
0000
0010
0000
0100
1000
,
0000
0000
1000
0010
0000
0000
0100
0000
,
0001
0000
1000
1010
,
0100
0000
0001
0101
,
0100
0000
0010
0000
0000
1001
0000
1001
,
0000
0000
1000
0000
0010
0000
1000
0100
,
0000
0010
0001
0000
0010
0100
0000
0000
;

//--------------- dance-single - ----------------
#NOTES:
     dance-single:
     :
     Medium:
     11:
     0,0,0,0,0:
0000
0000
0000
0000
,
0000
0000
0000
0000
,
0000
0000
0000
0000
,
0000
0000
0000
0000
1000
1000
0000
0000
,
0001
0001
0000
0000
1000
0100
0010
0001
,
0000
1000
0010
1000
0001
0100
0010
1000
,
0000
0001
0100
0001
1000
0100
0010
0001
,
0000
1000
0000
1010
0000
0110
0000
0100
,
0100
1001
0000
0000
,
0000
0000
0000
0000
1010
0000
0000
0010
,
0010
1000
0010
0100
0001
0000
0000
1000
,
1000
0010
0100
0001
0100
0000
0000
0010
,
0010
1000
0001
1000
0001
0000
0000
0100
,
0100
0010
0100
0000
1001
0000
0000
0001
,
0001
0100
0010
1000
0001
0000
0000
0010
,
0010
0100
1000
0001
0200
0000
0300
0010
,
1000
0100
0010
0001
1000
0000
0010
0020
,
0000
0000
1030
0001
2000
0000
3200
0000
,
2300
0001
3100
2000
,
0010
0000
3001
0000
0100
0100
0000
0000
,
0010
0010
0000
0000
1001
0000
1000
1000
,
0000
0000
0001
1000
0001
0000
0100
0020
,
0000
1030
0001
0200
0000
0000
0310
1000
,
0000
0100
0010
0200
0000
0000
0000
0000
,
0300
1000
0001
2000
0000
0000
0000
0000
,
0000
3000
0000
10M1
0002
0000
0103
0000
,
1002
0000
0000
0000
1003
0000
0010
0100
,
0001
0010
0001
0000
2000
0000
3002
0000
,
0203
0000
0320
0000
1030
0000
0100
0010
,
0001
0000
0100
0010
1000
0001
0100
0200
,
0000
0000
0310
1000
0010
0000
1000
0001
,
0001
2000
0000
3002
0000
0013
0001
1000
,
0002
0000
0203
0000
0302
0000
1003
1000
,
0000
1001
0000
0001
0200
0000
0310
0000
,
2010
0000
0100
0000
3001
0000
1000
0010
,
0100
0000
0001
0100
0010
0000
1000
0000
,
0002
0000
0100
0000
1003
0000
0010
0100
,
0010
0000
1000
0000
0001
0010
0100
0100
,
0000
0010
0001
0000
1000
0000
0010
2000
,
0000
0000
3001
0000
0100
0000
0010
1000
,
0001
0000
0100
0000
0010
1000
0001
0010
,
0002
0000
0203
0000
0302
0000
1003
2000
,
0000
0000
0000
3001
,
0010
0001
0100
0010
0100
0001
0010
0020
,
0000
0000
0000
0030
,
2002
3003
1000
0001
,
0100
0000
0010
1000
0000
0000
0010
0000
,
1000
0000
0000
0000
0000
0000
0000
0001
,
1000
0000
0000
0000
,
0001
0000
0000
0000
0000
0000
1000
0001
,
1000
0000
0010
0010
0000
0000
0100
0000
,
0001
0000
0000
0000
0000
0000
0000
1000
,
0001
0100
0010
1000
,
1002
0000
0000
0100
0103
0000
1000
0010
,
1000
0000
0100
0010
0001
0000
1000
0010
,
0100
0000
0000
0001
1000
0000
0000
0010
,
1000
0000
0000
0001
0000
0000
0100
0000
0010
0000
1000
0000
0100
0000
0010
0000
,
0001
0000
0100
0000
0010
0000
1000
1000
,
0100
0000
0010
0001
0000
0000
1000
0000
,
0001
0000
0000
0100
0000
0000
0001
0000
1000
0000
0000
0010
0000
0000
1000
0000
,
0001
0100
0010
1000
0001
0010
0001
1000
,
0M10
2000
3001
1002
,
0003
0000
0001
0100
0000
0220
0000
0300
,
0000
0130
0010
1000
0001
0010
0001
0000
,
1001
0000
2000
0000
3010
0100
0001
0000
,
0010
0000
0100
1000
0001
0200
0000
0000
,
0310
0000
1000
0000
0100
0010
0001
1000
,
0000
0010
0000
1000
0001
0100
0010
0000
,
1000
0000
1001
0000
0010
0010
0000
0110
,
0000
1000
0001
1000
0010
0100
0001
0010
,
0001
0000
1000
0010
0100
0020
0000
0130
,
0010
2000
3001
0200
,
0310
0000
2000
0000
3001
0100
0010
1000
,
0001
0000
0100
0001
0010
0020
0000
0000
,
0130
0010
0001
0000
1000
0010
0200
0000
,
0301
0000
0010
0000
0100
1000
0001
0100
,
0001
0100
0010
1000
0010
1000
0001
0000
,
0100
0000
0010
0000
1000
2002
0000
0000
,
0000
3003
0001
0101
,
0100
0000
0010
0000
1000
2002
0000
0000
,
0000
0000
0000
0000
3003
0000
1000
0001
,
1000
0100
0010
0002
,
0000
2003
0000
0000
3001
0000
0100
0010
,
1000
0000
0002
0000
0203
0000
0310
0010
,
0000
1000
0001
1000
0010
0100
0001
0010
,
0100
1000
0000
0001
0100
0001
1000
0100
,
0010
0001
0000
1000
0010
0100
0001
0010
,
0100
0020
0000
0031
0000
1001
0000
0110
,
0000
0100
0100
0000
1001
0000
0001
0001
,
0000
0100
0100
0000
0010
1001
0000
0000
;

//--------------- dance-single - XO FS ----------------
#NOTES:
     dance-single:
     XO FS:
     Hard:
     14:
     1,1,1,0.122,1:
0000
0000
0000
0000
,
0000
0000
0000
0000
,
0000
0000
0000
0000
,
0000
0000
0000
0000
0001
0001
0000
0100
,
0010
0010
1000
0001
1000
0010
0100
1000
,
0000
0100
0010
1000
0001
0010
0100
0001
,
0000
0100
0010
0001
1000
0010
1000
0001
,
0000
0100
0000
0110
0000
1010
0000
1000
,
1001
0101
0100
0010
,
1000
0000
0001
0000
1001
0000
1000
0100
,
1000
0001
0001
0100
0201
0000
0310
1000
,
0001
0100
0100
0010
2010
0000
3001
0010
,
0100
1000
1000
0001
0101
0000
0100
0010
,
1000
0000
0001
0000
1000
0001
1000
0001
1000
0000
0000
0000
0001
0000
0100
0000
,
1000
0100
0010
0100
0001
0000
1000
0100
,
0001
0100
0010
0100
1000
0000
0000
0001
,
0100
0000
0010
0000
0100
0000
0001
0000
0101
0000
0000
0000
0100
00M0
0100
0000
,
0000
0000
0000
0000
1000
0100
1000
0100
1000
0000
0010
0000
1000
0000
0100
0000
,
0001
0100
0010
0100
1000
0010
1000
0100
,
0001
0000
0100
0000
1000
0000
0001
0000
0100
00M0
0200
0000
0000
0000
1300
0000
,
0010
0M00
0010
0000
0000
0000
0001
0000
1001
0000
0000
0000
1000
0000
1010
0000
,
0000
0000
0000
0000
0010
1000
0010
1000
0010
0000
0000
0000
0100
0000
0002
0000
,
0000
1003
0010
0210
0000
0000
0301
0010
,
0000
0100
1000
2002
0000
0000
0000
0000
,
3003
0001
0100
0100
0001
0010
0100
1000
,
0010
0100
0001
10M1
2000
0000
3002
0000
,
1003
0100
0010
0100
0001
0100
1000
1000
,
0010
0100
0001
0010
0001
0100
0001
0100
,
2000
0000
3100
0010
1000
0001
0100
0100
,
0010
1000
0001
1000
0100
0010
0001
1002
,
0000
1003
0001
0100
0010
1000
0001
0200
,
0000
2300
0000
3200
0000
0310
1000
0001
,
1000
0100
0010
0001
0010
0100
1000
1001
,
0000
0101
0000
0110
0010
1000
0010
1000
,
0001
0010
0001
0010
1000
0010
0100
0100
,
1000
0001
0100
0001
0010
0100
1000
0001
,
2000
0000
3002
0000
0013
0100
0010
0002
,
0000
0203
0000
0301
0100
0010
1000
1002
,
0000
1003
0100
0010
0001
1000
0010
0001
,
0010
0100
0001
0100
0010
1000
0001
2000
,
0001
0000
3010
0000
1000
0100
0010
0001
,
0101
0000
0200
0000
0320
0000
0130
0202
,
0000
0000
0000
0000
0000
0303
0010
0000
,
1002
0000
0203
0000
0320
0000
0130
2002
,
0000
0000
0000
3003
,
0210
0000
0000
0000
0310
1000
1000
0010
,
0100
0000
0001
0000
0010
0100
1000
0000
,
0001
0000
0000
0000
0000
0000
0000
0000
1000
0000
1000
0000
0010
0000
0100
0001
,
0100
0000
0000
0000
0010
1000
0001
0000
,
0200
0000
0310
0000
0000
1000
0100
0010
,
0001
0000
0100
0010
0000
0000
1000
0000
,
1001
0000
0000
0000
0001
0000
0000
0000
0100
0000
0000
0000
0000
0000
0010
1000
,
0010
0100
0001
0010
,
0011
0000
0000
0000
0001
0000
0100
00M0
0100
0000
1000
0000
0001
0000
0100
0000
,
0001
0000
0000
0000
0001
0000
0010
0M00
0010
0000
1000
0000
0001
0000
1000
0100
,
1000
0000
0000
0000
0000
0000
0001
0000
0100
0000
0010
0000
1000
0000
0001
1000
,
0001
0000
0000
0100
0000
0000
0010
0000
1000
0000
0100
0000
0010
0000
0001
0000
,
1001
0000
0000
0000
1000
0000
0000
0000
0001
0000
0100
00M0
0100
0000
1000
0000
,
1001
0000
0001
0000
1000
0010
0100
0001
,
0101
0000
0000
0100
0000
0000
0010
1000
0010
0000
0000
0100
0000
0000
0001
0000
,
1000
0100
0010
0001
1000
0010
0100
0001
,
1M01
2000
3020
0230
,
0000
0000
0310
1001
0000
2020
0000
0000
,
3030
0100
0001
0100
0010
1000
0001
0010
,
0100
0010
1000
0010
0100
1000
0001
0010
,
0100
0010
0100
1000
0100
2001
0000
3001
,
0100
0010
0100
0001
0100
0001
0010
0200
,
0000
0302
0000
0103
0010
0100
1000
0010
,
0100
0001
0010
0000
0100
1001
0000
0101
,
0000
1010
0010
1000
0100
0010
0001
0100
,
0001
0100
1000
0100
0010
1000
0010
0100
,
0010
0100
0002
0000
0203
0000
0301
0010
,
0001
0100
0010
1000
0100
0001
0100
0010
,
0100
1000
0001
0100
0001
0201
0000
0301
,
0010
0100
1000
0001
0100
1000
0100
0010
,
1000
0100
0001
0100
1000
0010
0100
0001
,
0010
0001
1000
0100
0010
0100
2001
0000
,
3010
0000
0100
0000
0001
2002
0000
0000
,
0000
3003
1000
0110
,
0200
0000
0302
0000
1003
0220
0000
0000
,
0000
0000
0000
0000
0330
0000
1001
1000
,
0010
1000
0001
0100
0001
0100
1000
0100
,
0010
0000
0100
0000
0001
0000
0100
0000
0010
0000
1000
0000
0001
0100
0001
0100
,
0001
0010
0100
0010
0100
1000
1001
0001
,
0000
0000
0100
0000
0010
0000
1000
0000
0001
0100
0010
1000
0010
0000
1000
0000
,
0100
0000
0001
0000
0000
0000
0100
0000
1000
0000
0100
0010
0100
0000
1000
0000
,
0001
0000
0100
0000
0000
0000
0010
0000
0100
0000
0001
1000
0001
0000
0100
0000
,
0010
1000
0001
0010
0100
1100
0000
1001
,
0000
0001
1001
0000
0110
0000
0100
0100
,
0000
0001
0001
0000
0001
0101
0000
0000
;

//--------------- dance-single - SJ XO FS- ----------------
#NOTES:
     dance-single:
     SJ XO FS-:
     Challenge:
     17:
     1,1,1,0.122,1:
0000
0000
0000
0000
,
0000
0000
0000
0000
,
0000
0000
0000
0000
,
0000
0000
0000
0000
1000
1000
0000
0001
,
0010
0000
0010
0000
0001
1000
0001
1000
0001
0000
0100
0000
0010
0000
0001
0000
,
0010
0000
0100
0000
0001
0000
1000
0001
1000
0000
0010
0000
0100
0000
1000
0000
,
0100
0000
0010
0000
1000
0000
1000
0000
0001
0010
0001
1000
0001
0100
0010
1000
,
0001
0010
0100
1000
0100
0010
0001
0100
0010
1000
0001
0010
0100
1000
0001
0100
,
0001
0100
0010
1000
0001
0000
0000
0000
1000
0000
0000
0000
0010
0000
0000
0000
,
0100
0000
0001
0000
2001
0000
3001
0100
,
0001
0010
0100
1000
0001
0000
0100
00M0
0100
0000
1000
0000
0001
0000
1001
0000
,
1000
0100
0010
0001
1000
0000
0100
00M0
0200
0000
0000
0000
0301
0000
1001
0000
,
1000
0001
0010
0001
1000
0000
0100
00M0
0200
0000
0000
0000
0301
0000
0101
0000
,
0100
0010
0100
0001
1000
0100
1000
0100
0020
0000
0000
0000
0031
0000
0101
0000
,
0100
0010
1000
0001
0010
0000
0100
M000
0200
0000
0000
0000
0301
0000
1001
0000
,
1000
0100
0010
0001
1000
0000
1000
0000
2002
0000
0000
0000
3003
0000
0001
0000
,
1000
0100
0010
0001
1000
0000
0010
0000
0110
0000
0000
0000
0101
0000
2002
0000
,
0000
0000
3003
0000
1000
0001
1000
0001
0100
0000
0010
0000
1000
0000
0100
0000
,
0001
0100
1000
0010
1000
0010
0001
0010
,
0100
0001
1000
0100
1100
2200
0000
3300
,
1001
2001
0000
3001
0101
0000
0110
0220
,
0000
0000
0330
0000
0010
1000
0010
0100
0001
0000
0100
0000
0010
0000
0001
0000
,
0010
0100
0001
0202
0000
0303
0100
0020
,
0000
1030
0100
0110
0010
0001
1000
0010
,
0100
0000
0001
0000
0001
0000
1000
0100
1000
0010
0100
0001
0100
0010
1000
0001
,
0010
0100
1000
0001
0100
0010
100M
0000
0020
0000
0000
0000
1030
0000
0000
0000
,
1001
0000
0001
0000
0100
0000
0010
0000
0100
0000
0001
0000
1000
0000
0001
0010
,
0100
1000
0001
0100
0010
1000
0001
0010
0001
1000
0001
0000
1000
0000
0100
0000
,
0001
0000
0100
0000
0010
0001
1000
0000
0001
0100
0010
0000
1000
0001
1000
0000
,
0010
0000
0100
0000
1000
0000
0100
0000
0010
1000
0001
0010
0001
0000
1002
0000
,
0000
0000
1003
0000
0001
0000
0100
0000
0001
1000
0001
0100
0010
1000
0001
1000
,
0001
0000
2000
0000
0100
0000
3001
0000
1000
0010
0100
0000
0001
0000
1000
0000
,
1001
0000
0001
1000
0010
0000
0100
0000
0001
1000
0001
0000
0010
0000
1001
0000
,
0000
0000
0101
0000
0000
0000
1010
0000
1000
0100
0010
0001
1000
0010
0100
0001
,
1000
0010
1000
0000
0001
0100
0001
0000
1000
0010
0100
0000
0001
0010
0001
0010
,
0100
1000
0100
0000
1000
0001
1000
0000
0010
1000
0010
0000
1000
0001
1000
0000
,
0001
0000
0100
0000
0010
0000
0100
0000
0001
0010
0100
1000
0001
1000
0100
1000
,
0001
0000
0100
0000
0010
1000
0001
0000
1000
0010
0100
0001
0100
0000
1002
0000
,
0000
0000
1003
0000
0001
0000
0100
0000
0010
1000
0010
0000
1000
0000
0100
0000
,
1000
0010
0001
0010
0100
0001
1000
0001
,
0101
0000
0100
0000
0010
0000
0100
0000
0010
1000
0010
0100
0001
1000
0100
0010
,
0002
0000
1000
0000
0013
0000
0011
2002
,
0000
0000
3003
0100
,
1001
0000
0001
0000
1000
0000
0010
0000
0100
0001
1000
0001
0010
0000
2002
0000
,
0000
0000
0000
0000
0000
0000
0000
3003
,
0002
0000
0000
0000
0000
0000
0000
0000
1003
0000
0010
1000
0010
0000
0100
0000
,
0001
0000
0000
0000
0010
0000
0001
1000
0001
0000
0100
0010
0100
0000
0001
0000
,
1000
0000
0000
0000
0000
0000
0001
1000
0001
0000
0100
0010
0100
0000
0001
1000
,
0001
0000
0100
0000
0001
0000
0100
0000
0010
1000
0001
0000
1000
0000
0100
0000
,
0020
0000
0000
0000
0031
0000
0000
0000
0100
0000
0001
0100
0001
0000
1000
0000
,
0002
0000
0000
0000
0103
0000
0100
0000
0010
0000
1000
0001
0100
0000
0010
0000
,
1000
0001
1000
0000
0001
0000
0100
0000
0010
0000
1000
0001
1000
0000
0010
0100
,
0001
1000
0010
1000
0100
0000
0010
0001
1000
0010
0100
0000
0001
1000
0001
0000
,
2001
0000
0000
0000
3001
0000
0100
0000
0001
1000
0001
1000
0001
0000
0100
00M0
,
0100
0000
0000
0000
1000
0000
0001
0000
1000
0001
0010
0100
1000
0000
0001
0100
,
0010
0100
0001
0000
1000
0000
0001
0010
0100
1000
0001
0100
0001
0000
1000
0010
,
0100
0000
0000
0001
0000
0000
0100
0010
1000
0001
0100
0010
1000
0100
0010
0001
,
1000
0000
0001
0000
0001
0000
0010
0M00
0010
0000
1000
0001
0100
0000
0010
0000
,
1001
0000
0000
0000
0001
0000
1000
0000
1000
0001
0100
0001
1000
0000
0100
0010
,
0001
0000
0000
1000
0000
0000
0001
0100
0010
0000
0000
1000
0000
0000
0100
0010
,
0001
0000
1000
0000
0001
0000
1000
0000
0001
0010
0100
1000
0001
0100
0001
1000
,
00M1
2000
3001
0201
,
0000
0000
0310
1001
0001
0201
0000
0000
,
0000
0000
0310
0000
1000
0000
0001
0000
1000
0100
0010
0001
1000
0000
0100
0000
,
0001
0000
0100
0000
1000
0010
1000
0000
0001
0000
0100
0000
0010
0000
0001
0000
,
0010
0100
0001
0000
1000
0100
0010
0001
1000
0000
1002
0000
0000
0000
0103
0000
,
0001
0000
0100
0000
0100
0001
1000
0000
0001
0010
0100
1000
0001
0000
0200
0000
,
0000
2300
0000
3100
0010
0100
0001
0000
,
1000
0100
0010
0001
1000
0010
0100
0001
0100
0000
1001
0000
0000
0000
0101
0000
,
0000
0000
0110
0000
0010
1000
0010
0100
0001
0010
0100
1000
0001
0000
0010
0000
,
0100
0010
1000
0010
0100
1000
0001
0100
,
0010
1000
0010
0000
0100
0001
0100
0010
1000
0001
1000
0000
0001
0000
0100
0000
,
1000
0000
0100
0000
0010
1000
0010
0100
0001
0000
0010
0000
0100
0000
0010
0000
,
0001
0000
1000
0000
0010
1000
0100
1000
0010
0000
1002
0000
0000
0000
1003
0000
,
0100
0010
0001
0000
0010
0100
1000
0000
0001
0000
0100
0000
1000
0000
0100
0000
,
0010
0100
0001
1000
0010
0100
0001
0001
,
0100
0000
0100
0000
0010
1000
0010
1000
0001
0100
0010
1000
0020
0000
0000
0000
,
1000
0000
0001
0000
1030
2002
0000
0000
,
0000
3003
1000
1200
,
0010
0000
1000
0000
0310
2002
0000
0000
,
0000
0000
0000
0000
3003
0000
0001
0100
,
0010
0100
1000
0100
0010
0100
0001
0100
,
1000
0000
0001
0000
0010
0000
0100
0000
0001
0000
1000
0000
0001
0100
0001
0100
,
0010
1000
0001
0100
0010
1000
1001
0101
,
0000
0000
0010
0000
1010
0000
1000
0000
0001
0010
0100
1000
0001
0000
0001
0000
,
1000
0000
1000
0000
0001
0100
0010
0000
1000
0000
0001
0100
0010
0000
0010
0000
,
0100
0000
0100
0000
0010
0000
1000
0000
0001
0000
1000
0010
0100
0001
0100
0010
,
1000
0001
0010
0001
1000
0010
0100
0001
1000
0000
1001
0000
0000
0000
1010
0000
,
0000
0000
0110
0000
0101
0000
0000
0000
1000
0001
1000
0001
0100
0000
0110
0000
,
0000
1010
1001
0000
1010
0011
0000
0000
;

//--------------- dance-double - ----------------
#NOTES:
     dance-double:
     :
     Hard:
     14:
     0,0,0,0,0:
00000000
00000000
00000000
00000000
,
00000000
00000000
00000000
00000000
,
00000000
00000000
00000000
00000000
,
00000000
00000000
00000000
00000000
00010000
00010000
00000000
00000000
,
00001000
00001000
00000000
00000000
00100000
00010000
00001000
00020000
,
00000000
00000000
00130000
00000000
00001000
00000000
00010000
00001000
00010000
00000000
00000100
00000000
00001000
00000000
00020000
00000000
,
00000000
00031000
00000100
00010000
00000010
00001000
00000010
00000100
,
00000000
00000001
00000000
00001001
00000000
00011000
00000000
00001000
,
00101000
02020000
03030000
00000000
,
00000000
00000000
00000000
00000000
10010000
00000000
10000000
01000000
,
00010000
01000000
00100000
00010000
00200000
00000000
00301000
00010000
,
00001000
00000100
00001000
00010000
00000200
00000000
00001300
00000010
,
00001000
00000100
00000010
00000010
00000002
00000000
00001003
00000100
,
00010000
00000000
00001000
00000000
00010000
00001000
00010000
00001000
00010000
00000000
00000000
00000000
00001000
00000000
01000000
00000000
,
00100000
00010000
00100000
01000000
00010000
00000000
10000000
00100000
,
01000000
00010000
00100000
00001000
00020000
00000000
00030000
00001000
,
00010000
00000100
00001000
00000001
00001001
00000000
00001000
00001010
,
00000000
00000000
00000000
00000000
00001000
00000001
00001000
00000010
00001000
00000000
00000100
00000000
00000010
00000000
00000001
00000000
,
00000100
00000010
00000001
00000010
00000100
00000010
00010000
00001000
,
00100000
00010000
10000000
00100000
01000000
02000000
00000000
00000000
,
03000100
00000200
00000000
00000000
00010300
00000000
00000100
00010100
,
00000000
00000000
00000000
00000000
00010000
00000100
00010000
00000100
00010000
00000000
00001000
00000000
00000010
00000000
00000200
00000000
,
00000000
00000310
00010000
00022000
00000000
00033000
00001000
01000000
,
00000000
00100000
10000000
20020000
00000000
00000000
00000000
00000000
,
30030000
01000000
00001000
00022000
00000000
00000000
00000000
00000000
,
00000000
00033000
00000000
0M011000
00020000
00000000
00030200
00000000
,
00001300
00000100
00000010
00000001
00000010
00000100
00001000
00010000
,
00100000
00010000
01000000
00100000
10000000
00010000
00100000
00001000
,
00010000
00001000
00100000
00000010
00001000
00000001
00000010
00000100
,
00001000
00000100
00010000
00000100
00001000
00000001
00001000
00001002
,
00000000
00000000
00001003
00000100
00010000
00001000
00010000
00001000
,
01000000
00100000
00000000
00010000
00000000
00100000
01000000
00010000
,
10000000
00100000
01000000
00001000
01000000
00001000
00010000
00011000
,
00000000
00001100
00000000
00001001
00000001
00001000
00000010
00000100
,
00000102
00000000
00000013
00000100
00001000
00000100
00010000
00001000
,
00100000
00010000
00100000
01000000
10000000
00000000
00010000
00000000
,
00001000
00000000
00000001
00000000
00001000
00000000
00000010
00010000
,
00001000
00010000
00001000
00100000
00010000
01000000
00100000
10020000
,
00000000
10030000
00100000
01000000
00001000
00010000
00001000
00000100
,
00001000
00010000
00000100
00001000
00000100
00000010
00001000
00000010
,
00000001
00000000
00001000
00000000
00000010
00000000
00001000
00000000
00000001
00001000
00000001
00001000
00000100
00000000
00000000
00000000
,
00001100
00000000
00000100
00000000
00010000
00000000
00001000
00202000
,
00000000
00000000
00303000
00001000
,
10001000
10000000
00100000
01000000
00100000
10000000
01000000
20020000
,
00000000
00000000
00000000
30030000
,
00011000
00000000
00010000
00000000
00000000
00000010
00000100
00000001
,
00001000
00000001
00000000
00010000
,
00001000
00000000
00000000
00000000
00000000
00000000
00000000
00000000
00000000
00000000
00000000
00000000
00000000
00000000
01000000
00100000
,
01000000
00000000
00000000
00000000
,
00010000
00000000
10000000
00000000
00000000
00010000
00100000
00001000
,
00010000
00000000
00000100
00001000
00000000
00000000
00000001
00000000
,
00001000
00000000
00000000
00000000
00000000
00000000
00000000
00000000
00000000
00000000
00000000
00000000
00000000
00000000
00000010
00010000
,
00000010
00000000
00000000
00000000
,
00010010
00000000
00000010
00001000
00000000
00000100
00010000
00001000
,
00100000
00000000
00000000
00000000
00010000
00000000
10000000
00000000
00010000
00000000
00000000
00000000
01000000
00000000
00100000
01000000
,
00010000
00000000
00000000
00000000
10000000
00000000
00010000
00000000
00100000
00000000
00001000
00000000
00000000
00000000
00010000
00001000
,
00010000
00000000
00000000
00000100
00000000
00000000
00001000
00000000
00000001
00000000
00000010
00000000
00000100
00000000
00001000
00000000
,
00001100
00000000
00000100
00000000
00010000
00000010
00000100
00000010
,
00001010
00000000
00000000
00000000
00001000
00000000
00000010
00000000
00000000
00000000
00000000
00000000
00001000
00000000
00000001
00001000
,
00000001
00000000
00000000
00000100
00000000
00000000
00000010
00001000
00000010
00000000
00000000
00010000
00000000
00000000
00001000
00010000
,
00001000
00000000
00100000
00000000
00010000
00000000
01000000
00000000
00100000
01000000
00010000
00000000
00100000
00001000
00010000
00000000
,
0M011000
00020000
00030100
00020200
,
00030300
00000000
00000010
00001001
00000000
00002020
00000000
00000000
,
00003030
00000000
00001000
00000000
00001000
00000000
00000010
00000000
00000100
00000010
00001000
00000010
00001000
00000000
00000100
00000000
,
00000010
00000001
00000100
00001000
00000100
00000010
00001000
00000100
,
00001000
00000100
00010000
00001000
00100000
00210000
00000000
00000000
,
00301000
00010000
00100000
00010000
00001000
00100000
00010000
00001000
,
00000000
00010000
00000000
00100000
00010000
01000000
00001000
00010000
,
00001000
01000000
00100000
01000000
00001000
00011000
00000000
00001100
,
00000000
00001001
00000001
00000100
00000010
00010000
00012000
00000000
,
01003000
00100000
10000000
01000000
00010000
00001000
00010000
00000100
,
00001000
00000001
00001000
00000100
00001000
00010000
00001000
00100000
,
00001000
01000000
00100000
10000000
01000000
00100000
00010000
00001000
,
00000100
00000000
00010000
00000000
00001000
00010000
00001000
00010000
00001000
00000000
00011000
00000000
00000000
00000000
00010000
00000000
,
00000100
00001000
00000010
00001000
00000010
00000100
00001000
00000100
,
00000010
00001000
00000100
00010000
00001000
00010000
00001000
00100000
,
00001000
00000000
00100000
00000000
00010000
01000000
00001000
01000000
00010000
00000000
10000000
00000000
10010000
00000000
00000000
00000000
,
00010000
00000000
00100000
00000000
00001000
00022000
00000000
00000000
,
00000000
00033000
00010000
00010010
,
00001000
00000000
00000010
00000000
00000100
00002002
00000000
00000000
,
00000000
00000000
00000000
00000000
00003003
00000000
00000001
00000010
,
00001000
00010000
01000000
10000000
00010000
01000000
00100000
10000000
,
01000000
00010000
01000000
00100000
00010000
00100000
00001000
00010000
,
00001000
00010000
00000100
00001000
00000010
00000100
00000001
00000001
,
00000000
00001000
00000010
00000010
00010000
00001000
00010000
00001000
,
00000100
00000000
00001000
00000000
00000000
00000000
00010000
00000000
00001000
00000000
00000100
00001000
00000100
00000000
00010000
00000000
,
00001000
00000000
01000000
00000000
00000000
00000000
00010000
00000000
00100000
00000000
00001000
00010000
00001000
00000000
01000000
00000000
,
00100000
10000000
00000000
00010000
00000000
10010000
00000000
00011000
,
00000000
00010000
00010100
00000000
00001001
00000000
00000001
00000001
,
00000000
00001000
00001000
00000000
00000100
00001001
00000000
00000000
;
