#VERSION:0.83;
#TITLE:Climactic Cry;
#SUBTITLE:;
#ARTIST:Shoujo Byou;
#TITLETRANSLIT:;
#SUBTITLETRANSLIT:;
#ARTISTTRANSLIT:;
#GENRE:;
#ORIGIN:;
#CREDIT:;
#BANNER:;
#BACKGROUND:;
#PREVIEWVID:;
#JACKET:;
#CDIMAGE:;
#DISCIMAGE:;
#LYRICSPATH:;
#CDTITLE:;
#MUSIC:Climactic Cry.ogg;
#OFFSET:-0.607565;
#SAMPLESTART:61.287804;
#SAMPLELENGTH:13.714283;
#SELECTABLE:YES;
#BPMS:0.000=125.000,
26.000=140.000;
#STOPS:;
#DELAYS:;
#WARPS:;
#TIMESIGNATURES:0.000=4=4;
#TICKCOUNTS:0.000=4;
#COMBOS:0.000=1;
#SPEEDS:0.000=1.000=0.000=0,
60.000=0.667=6.500=0,
66.500=0.713=0.000=0,
67.500=0.763=0.000=0,
68.500=0.817=0.000=0,
69.500=0.874=0.000=0,
70.500=0.934=0.000=0,
71.500=1.000=0.000=0,
200.000=1.333=4.000=0,
216.000=1.500=4.000=0;
#SCROLLS:0.000=1.000,
168.000=0.667;
#FAKES:;
#LABELS:0.000=Song Start;
#BGCHANGES:;
#KEYSOUNDS:;
#ATTACKS:
;

//---------------dance-single - FSDS XO----------------
#NOTEDATA:;
#CHARTNAME:;
#STEPSTYPE:dance-single;
#DESCRIPTION:FSDS XO;
#CHARTSTYLE:;
#DIFFICULTY:Challenge;
#METER:17;
#RADARVALUES:0.367281,0.408608,0.034337,0.317616,0.452817,599.000000,591.000000,8.000000,74.000000,21.000000,0.000000,0.000000,0.000000,0.000000,0.367281,0.408608,0.034337,0.317616,0.452817,599.000000,591.000000,8.000000,74.000000,21.000000,0.000000,0.000000,0.000000,0.000000;
#CREDIT:Kingly;
#NOTES:
// measure 0
0000
0000
0000
0000
,  // measure 1
0000
0000
0000
0000
,  // measure 2
0000
0000
0000
0000
,  // measure 3
0000
0000
0000
0000
,  // measure 4
0001
0010
0100
1000
0100
0010
0001
1000
,  // measure 5
0010
0000
0100
0000
1000
0000
0100
0002
0000
0000
0000
0000
1003
0000
0200
0010
,  // measure 6
0000
0000
1300
0000
0001
0000
0100
0010
1000
0001
1000
0001
1000
0001
1000
0001
,  // measure 7
1000
0000
0010
0100
0000
0001
0000
0010
0000
0001
1000
0000
0001
0100
00M0
0100
,  // measure 8
1000
0001
0020
0000
0230
0000
2300
0000
,  // measure 9
3001
0000
0010
0000
0100
1000
0000
0010
0000
1000
0001
0000
1000
0100
00M0
0100
,  // measure 10
0001
1000
0020
0000
0230
0000
2300
0000
,  // measure 11
3100
0000
0001
0000
1000
0100
0000
1000
0000
0010
1000
0000
0001
0010
0M00
0010
,  // measure 12
1000
0001
0200
0000
0320
0000
2030
0000
,  // measure 13
3100
0000
1000
0000
0001
0100
0000
0001
0000
0010
0001
0000
1000
0010
0M00
0010
,  // measure 14
0001
0010
0001
0010
0100
1000
0100
1000
0001
0100
0010
1000
0001
0010
0001
1000
,  // measure 15
0020
0230
0302
2003
3200
2300
3020
0230
,  // measure 16
0302
0023
0032
2003
3010
2020
3030
0202
,  // measure 17
0303
0022
0033
2200
3300
0220
0330
1001
,  // measure 18
0001
0000
0100
0000
0010
0000
1000
0100
1000
0000
0001
0100
0001
0100
0010
1000
,  // measure 19
0001
0000
0010
0000
0100
1000
0100
1000
0000
0001
0100
0000
0010
1000
0001
0000
,  // measure 20
0010
0000
0001
0000
0100
0001
0100
0001
0000
1000
0100
0000
0010
0001
1000
0000
,  // measure 21
0010
0000
0100
0000
0001
1000
0001
1000
0000
0100
0010
0000
0001
1000
0010
0000
,  // measure 22
0200
0000
2300
0000
3200
0000
0302
0000
1003
0100
0010
0001
1000
0000
0001
0000
,  // measure 23
1001
0000
1000
0000
0100
0010
0001
0010
0000
0100
1000
0000
0001
0100
0010
0000
,  // measure 24
1000
0000
0001
0000
0100
0010
1000
0010
0000
0100
0001
0000
1000
0100
0010
0002
,  // measure 25
0000
0000
1003
0000
0100
0000
0002
0000
0000
0000
0103
0000
0010
0000
0001
1000
,  // measure 26
0001
0100
0000
0010
1000
0000
0001
0000
1000
0000
1000
0000
0001
0010
0200
1000
,  // measure 27
0000
0300
M100
0000
0001
0100
0020
1000
0000
0030
M010
0000
0001
0010
0200
1000
,  // measure 28
0300
M100
0001
0000
1000
0010
0100
0002
0000
0000
0103
00M0
0100
0000
2000
0001
,  // measure 29
0000
0000
3100
00M0
0100
0000
0002
0010
0000
0000
0103
00M0
0100
0000
2000
0010
,  // measure 30
0000
0000
3001
0000
1000
0100
1000
0000
0001
0100
0001
0000
1000
0010
0200
0001
,  // measure 31
0000
0300
010M
0000
1000
0100
0020
0001
0000
0030
001M
0000
1000
0010
0200
0001
,  // measure 32
0000
0300
010M
1000
0000
0100
0000
0001
0000
0100
0010
0000
0001
0010
0100
1000
,  // measure 33
0001
0000
0100
0000
0010
1000
0010
1000
0001
0010
0100
1000
0001
0000
0100
0000
,  // measure 34
2000
0000
3200
0000
0320
0000
2030
0000
0000
0000
3001
0010
0001
0010
0100
1000
,  // measure 35
0001
0000
0100
00M0
0100
0000
1000
0100
0000
0001
0100
0000
0010
0001
0010
0100
,  // measure 36
1000
0000
0001
0000
0100
0000
0001
0010
0100
0000
1000
0000
0001
0100
0010
0100
,  // measure 37
1000
0000
0100
0000
0010
0000
1000
0010
0M00
0010
0001
0000
0010
0000
0100
1000
,  // measure 38
0001
0100
0001
0100
0010
1000
0010
1000
0001
0010
0100
1000
0001
0000
0100
2000
,  // measure 39
0000
0000
3100
0002
0000
0000
1003
0000
0001
0010
0001
0000
1000
0100
1000
0000
,  // measure 40
0001
0000
0100
0000
1000
0000
0100
0010
1000
0000
0001
0000
1000
0100
0010
0001
,  // measure 41
1000
0001
0100
0001
1000
0100
1000
0010
0100
0001
1000
0001
0010
0100
1000
0002
,  // measure 42
2000
0000
0000
0000
,  // measure 43
0000
0000
0003
0000
,  // measure 44
3100
1000
0010
0100
0001
1000
0100
0010
,  // measure 45
0001
1000
0100
1000
0010
0100
0001
0100
,  // measure 46
1000
0100
0010
1000
0100
1000
0001
0100
,  // measure 47
0010
1000
0001
0010
0001
0100
0010
1000
,  // measure 48
0100
1000
0010
1000
0001
0010
0100
1000
,  // measure 49
0002
0100
1000
0023
,  // measure 50
0000
0000
0130
1000
0100
0010
0001
1000
0001
0100
0001
0100
0010
1000
0010
1000
,  // measure 51
0001
0000
0100
00M0
0100
0000
1000
0100
0000
0001
0200
0000
0000
0000
0310
0000
,  // measure 52
0002
0000
0000
0000
1003
0000
0010
0200
0000
0000
0000
0000
0000
0000
0301
0100
,  // measure 53
1000
0000
0100
0000
0010
0000
1000
0001
0000
1000
0001
0000
0010
0000
0100
1000
,  // measure 54
0002
0000
0203
0000
0000
0000
0320
0000
1030
0010
1000
0010
0100
0001
0100
0001
,  // measure 55
1000
0000
0100
00M0
0100
0000
0001
0100
0000
1000
0100
0000
0010
0000
1000
0000
,  // measure 56
0001
0000
0010
0000
1000
0000
0010
0002
0000
0000
0000
0000
1003
0000
0100
0001
,  // measure 57
0000
0100
1000
0000
0100
0010
0001
1000
0001
0100
0001
0100
0010
1000
0001
0010
,  // measure 58
0100
1000
0000
0010
0000
1000
0000
0001
0100
00M0
0100
1000
0000
0000
0100
0010
,  // measure 59
0001
0000
0100
0001
0000
1000
0000
0100
0000
0000
0010
0001
0010
0100
1000
0001
,  // measure 60
0100
0001
0000
0010
0000
0001
0000
1000
0100
00M0
0100
0001
0000
0000
0100
0010
,  // measure 61
2000
0000
3001
0000
0010
0000
0100
1000
0001
0000
0100
0020
0000
0000
1030
0001
,  // measure 62
1000
0100
00M0
0100
0001
0000
1000
0100
0000
0001
0100
0000
0010
0000
0001
1000
,  // measure 63
0010
0000
0100
0001
0000
1000
0000
0100
0020
0000
0032
0000
0203
0000
0320
0000
,  // measure 64
1030
0100
0000
1000
0000
0001
0000
1000
0100
00M0
0100
0001
0000
0000
0010
0001
,  // measure 65
1000
0000
0000
0100
0000
0000
1000
0000
0000
0001
0000
0000
0100
0000
0000
0001
0000
0000
0010
0000
0000
0100
0000
0000
1000
0000
0000
0001
0000
0000
1000
0000
0000
0001
0000
0000
1000
0000
0010
0000
0100
0000
0001
0000
0000
0000
0000
0000
,  // measure 66
2002
0000
0000
0000
,  // measure 67
0000
0000
0000
0000
,  // measure 68
3003
0000
0000
0000
;

//---------------dance-single - ----------------
#NOTEDATA:;
#CHARTNAME:;
#STEPSTYPE:dance-single;
#DESCRIPTION:;
#CHARTSTYLE:;
#DIFFICULTY:Hard;
#METER:15;
#RADARVALUES:0.324974,0.350236,0.021461,0.184560,0.287571,530.000000,525.000000,5.000000,43.000000,0.000000,0.000000,0.000000,0.000000,0.000000,0.324974,0.350236,0.021461,0.184560,0.287571,530.000000,525.000000,5.000000,43.000000,0.000000,0.000000,0.000000,0.000000,0.000000;
#CREDIT:Kingly;
#NOTES:
// measure 0
0000
0000
0000
0000
,  // measure 1
0000
0000
0000
0000
,  // measure 2
0000
0000
0000
0000
,  // measure 3
0000
0000
0000
0000
,  // measure 4
1000
0100
0010
0001
0010
0100
1000
0001
,  // measure 5
0100
0001
0010
0100
1000
1000
0001
0100
,  // measure 6
1000
0000
0100
0000
0001
0000
1000
0000
0100
0000
0010
0000
0001
1000
0001
1000
,  // measure 7
0001
0000
0100
0000
0010
1000
0000
0010
1000
0000
0001
0000
0010
0001
0000
0010
,  // measure 8
0001
0100
0020
0000
2030
0000
3002
0000
,  // measure 9
0013
0000
0100
0000
1000
0001
0000
1000
0001
0000
0100
0000
0010
0100
0000
0010
,  // measure 10
0100
0001
2000
0000
3200
0000
0302
0000
,  // measure 11
0103
0000
0010
0000
0001
0100
0000
0001
0100
0000
0010
0000
1000
0100
0000
1000
,  // measure 12
0100
0010
0002
0000
2003
0000
3020
0000
,  // measure 13
0130
0000
0001
0000
0010
0100
0000
0010
0100
0000
1000
0000
0001
1000
0000
0001
,  // measure 14
1000
0100
1000
0000
0001
0100
0001
0000
1000
0010
1000
0000
0001
0010
0100
1000
,  // measure 15
0001
0100
0001
0100
0010
1000
0010
1000
,  // measure 16
0001
0010
0001
0010
0100
2000
3000
1100
,  // measure 17
0000
0002
0003
0101
0000
2000
3000
0110
,  // measure 18
0002
0000
0000
0000
1003
0000
0100
0010
0001
0000
1000
0000
0001
0100
0001
0100
,  // measure 19
0001
1000
0100
0010
0001
0100
0001
1000
,  // measure 20
0010
0000
0100
0001
0100
0000
0001
0000
0010
0000
0001
0000
1000
0010
1000
0010
,  // measure 21
0000
0100
0001
0000
1000
0000
0100
0000
0010
0000
0100
0000
0001
0000
0100
0000
,  // measure 22
0010
0000
0001
0000
0010
0000
0100
0000
1000
0001
1000
0000
0010
0000
0100
0001
,  // measure 23
1000
0100
0010
0001
0100
0010
1000
0001
,  // measure 24
0010
0000
0100
1000
0100
0000
0010
0000
0001
0000
0100
0000
0001
0000
1000
0010
,  // measure 25
1000
0000
0001
0000
0100
0000
1000
0000
0100
0000
0010
0000
1000
0000
0001
0010
,  // measure 26
0001
0010
0000
0100
1000
0000
0001
0000
0100
0000
0001
0000
1000
0100
1000
0200
,  // measure 27
0000
0000
0310
0000
0001
1000
0001
2000
0000
0000
3010
0000
0100
0001
0100
0001
,  // measure 28
0000
1000
0100
0000
0010
0001
0010
0002
0000
0000
1003
0000
0010
0000
0200
0001
,  // measure 29
0000
0000
0310
0000
1000
0000
0200
1000
0000
0000
0310
0000
0001
0000
0100
0002
,  // measure 30
0000
0000
0000
0000
1003
0000
0100
0000
0010
0001
1000
0000
0001
0100
0001
0200
,  // measure 31
0000
0000
0310
0000
1000
0001
1000
0002
0000
0000
0013
0000
0100
1000
0100
2000
,  // measure 32
0000
0000
3001
0100
0000
0010
0000
2000
0000
3001
0010
0000
0100
1000
0100
1000
,  // measure 33
0001
0100
0010
0100
1000
0100
0001
1000
,  // measure 34
1001
0000
0001
0000
0010
0000
0200
0000
0000
0000
1300
0000
0001
0100
0001
0100
,  // measure 35
0001
0000
1000
0000
0100
0000
0010
0001
0000
0100
0001
0000
1000
0100
0010
0000
,  // measure 36
0001
0000
1000
0000
0001
0000
0100
0010
0000
0100
0001
0000
1000
0100
1000
0100
,  // measure 37
0010
0000
0001
0000
0100
0000
0001
1000
0000
0001
1000
0000
0100
0000
0010
0001
,  // measure 38
1000
0000
0001
0100
0001
0000
1000
0100
1000
0000
0001
0000
1000
0000
0100
0002
,  // measure 39
0000
0000
0103
2000
0000
0000
3001
0000
0100
0000
0010
0000
1000
0100
1000
0000
,  // measure 40
0001
0000
0100
0000
1000
0000
0100
0001
0100
0000
0010
0000
1000
0000
0001
0010
,  // measure 41
0001
0000
1000
0000
0100
0000
1000
0010
1000
0000
0001
0000
0010
0100
1000
0002
,  // measure 42
2000
0000
0000
0000
,  // measure 43
0000
0000
3003
0000
,  // measure 44
0001
0100
1000
0100
0001
1000
0100
1000
,  // measure 45
0010
0100
0001
0010
0100
1000
0001
1000
,  // measure 46
0020
0000
0130
0001
1000
0100
0010
0001
,  // measure 47
0100
0001
1000
0100
1000
0010
0100
0001
,  // measure 48
1000
0100
0001
0100
1000
0001
0100
0010
,  // measure 49
2000
0001
0001
3001
,  // measure 50
0000
1000
0100
0010
0001
0100
0010
1000
,  // measure 51
0001
0000
0010
0000
0001
0000
1000
0010
0000
1000
0020
0000
0000
0000
0130
0000
,  // measure 52
0002
0000
0000
0000
1000
0000
0000
2003
0000
0000
0000
0000
0000
0000
3100
0000
,  // measure 53
0001
0000
0100
0000
0010
0000
0001
1000
0000
0001
1000
0000
0010
0000
0100
0001
,  // measure 54
2000
0000
3200
0000
0000
0000
0310
0000
0001
0100
0001
0000
1000
0100
1000
0100
,  // measure 55
1000
0000
0001
0000
0100
0000
0010
1000
0000
0010
1000
0000
0001
0000
0100
0000
,  // measure 56
0010
0000
1000
0000
0100
0000
0001
0200
0000
0000
0000
0000
0310
0000
0001
2000
,  // measure 57
0000
0000
3010
0000
1000
0001
1000
0200
0000
0000
0000
0000
0000
0000
0000
0000
,  // measure 58
0310
0001
0000
0100
0000
0001
0000
1000
0100
0000
0010
0000
0001
0000
1000
0100
,  // measure 59
1000
0000
0001
0100
0000
0010
0000
2000
0000
0000
3001
0000
1000
0000
0010
0000
,  // measure 60
0100
0001
0000
0010
0000
0001
0000
1000
0010
0000
0100
0000
0001
0000
1000
0010
,  // measure 61
1000
0000
0001
0010
0000
0100
0000
2000
0000
0000
3001
0100
0001
0000
1000
0000
,  // measure 62
0010
1000
0000
0100
0000
1000
0000
0001
0100
0000
0010
0000
1000
0000
0001
0100
,  // measure 63
0001
0000
1000
0100
0000
0010
0000
0002
0000
0000
1003
0000
0001
0000
0010
0000
,  // measure 64
0100
1000
0000
0010
0000
1000
0000
0001
0010
0000
0100
0000
1000
0000
0001
0010
,  // measure 65
0001
0000
1000
0010
0000
0100
0000
0001
1000
0000
1001
0000
0001
0010
0100
2000
,  // measure 66
0002
0000
0000
0000
,  // measure 67
0000
0000
0000
0000
,  // measure 68
3003
0000
0000
0000
;

//---------------dance-single - ----------------
#NOTEDATA:;
#CHARTNAME:;
#STEPSTYPE:dance-single;
#DESCRIPTION:;
#CHARTSTYLE:;
#DIFFICULTY:Medium;
#METER:13;
#RADARVALUES:0.253847,0.306456,0.008584,0.296155,0.118033,414.000000,412.000000,2.000000,69.000000,0.000000,0.000000,0.000000,0.000000,0.000000,0.253847,0.306456,0.008584,0.296155,0.118033,414.000000,412.000000,2.000000,69.000000,0.000000,0.000000,0.000000,0.000000,0.000000;
#CREDIT:Kingly;
#NOTES:
// measure 0
0000
0000
0000
0000
,  // measure 1
0000
0000
0000
0000
,  // measure 2
0000
0000
0000
0000
,  // measure 3
0000
0000
0000
0000
,  // measure 4
1000
0100
1000
0100
0010
0001
1000
0001
,  // measure 5
0100
0000
0020
0000
1000
0000
0000
2030
0000
0000
0000
0000
0001
0000
0000
3001
,  // measure 6
0000
0000
0010
0000
0100
0000
0000
1000
0001
0000
1000
0000
0001
0000
1000
0000
,  // measure 7
0001
0100
0010
0100
0001
0100
0010
0100
,  // measure 8
0001
1000
0200
0000
0320
0000
0032
0000
,  // measure 9
1003
0010
0100
0010
1000
0010
0100
0010
,  // measure 10
1000
0001
0020
0000
0230
0000
0302
0000
,  // measure 11
0103
1000
0100
0010
0100
1000
0100
0010
,  // measure 12
0100
1000
0002
0000
0203
0000
0320
0000
,  // measure 13
0130
0001
0100
0010
0100
0001
0100
0010
,  // measure 14
1000
0001
1000
0001
1000
0100
0010
0001
,  // measure 15
0100
0001
0100
0001
1000
0100
1000
0100
,  // measure 16
0010
0001
0010
0001
1000
2001
0000
3020
,  // measure 17
0000
0230
0000
0302
0000
2003
0000
3100
,  // measure 18
0020
0000
0000
0000
0031
0000
1000
0000
0010
0000
0100
0000
0001
0000
1000
0100
,  // measure 19
1000
0001
0100
0010
0100
0001
1000
0100
,  // measure 20
0010
0000
0001
2000
0000
0000
3010
0000
0100
0000
0010
0000
1000
0000
0001
0020
,  // measure 21
0000
0130
1000
0100
0010
0100
0001
0100
,  // measure 22
0010
0001
0010
0200
0000
1300
0001
0100
,  // measure 23
1000
0100
0010
1000
0001
0010
0100
1000
,  // measure 24
0001
0000
0100
0020
0000
0000
1030
0000
0100
0000
1000
0000
0001
0000
0010
0200
,  // measure 25
0000
0000
0310
0000
0001
0000
2000
0000
0000
0000
3001
0000
0010
0000
0100
0002
,  // measure 26
0000
0000
0103
0000
1000
0000
0100
0000
0010
0000
0001
0000
1000
0000
0010
2000
,  // measure 27
0000
0000
0000
0000
3001
0000
0100
0002
0000
0000
1003
0000
0100
0000
0010
0001
,  // measure 28
0000
0010
0002
0000
0000
0000
0000
0000
1003
0000
0010
0000
1000
0000
0100
2000
,  // measure 29
0000
0000
0000
0000
3001
0000
0010
0002
0000
0000
1003
0000
0010
0000
0100
0002
,  // measure 30
0000
0000
0103
0000
1000
0000
0100
0000
0001
0000
1000
0000
0001
0000
0010
0002
,  // measure 31
0000
0000
0000
0000
1003
0000
0100
2000
0000
0000
3001
0000
0100
0000
0010
2000
,  // measure 32
0000
0000
0000
3001
0000
0010
0000
0100
0000
1000
0002
0000
0000
0000
0103
0000
,  // measure 33
0020
0000
2030
0000
3002
0000
0013
0100
,  // measure 34
0001
0000
0100
0000
1000
0000
0002
0000
0000
0000
0103
0000
0001
1000
0001
0000
,  // measure 35
0010
0000
0100
0000
1000
0000
0001
0100
0000
0001
0200
0000
0000
0000
0310
0000
,  // measure 36
2000
0000
0000
0000
0001
0000
0000
3002
0000
0000
0000
0000
0013
0000
0100
0000
,  // measure 37
0001
0000
0100
0000
1000
0000
0100
0010
0000
0100
0010
0000
0001
0000
1000
0000
,  // measure 38
0010
0000
0100
0000
0100
0000
0001
0000
0001
0000
1000
0000
0100
0000
0010
0001
,  // measure 39
0000
0000
0010
0001
0000
0000
1000
0000
0010
0000
0100
0000
0001
0000
1000
0000
,  // measure 40
0001
0100
1000
0100
0020
0000
1030
0001
,  // measure 41
0010
0000
0100
0000
1000
0000
0010
0000
0100
0000
0001
0000
1000
0000
0100
0010
,  // measure 42
0002
0000
0000
0000
,  // measure 43
0000
0000
0003
0000
,  // measure 44
2000
0000
3002
0023
,  // measure 45
0230
2300
3020
0230
,  // measure 46
2300
0000
3200
0302
,  // measure 47
2003
0000
3200
0320
,  // measure 48
0032
0000
2003
3020
,  // measure 49
0230
0000
0000
0000
,  // measure 50
0300
0000
0000
0000
,  // measure 51
0001
0000
0010
0000
0100
0000
0000
1000
0000
0000
0200
0000
0000
0000
0310
0000
,  // measure 52
0001
0000
0000
0000
1000
0000
0000
0002
0000
0000
0000
0000
0000
0000
0103
0000
,  // measure 53
1000
0100
0010
1000
0010
0100
0001
1000
,  // measure 54
0100
0020
0000
0032
0000
2003
0000
3010
,  // measure 55
0100
0000
0001
0000
0100
0000
0010
1000
0000
0010
1000
0000
0001
0000
0010
0000
,  // measure 56
0100
0000
1000
0000
0001
0000
0000
0100
0000
0000
0001
0000
1000
0000
0000
0100
,  // measure 57
0000
0000
1000
0000
0010
0000
0100
0001
1000
0000
0100
0000
1000
0000
0100
0000
,  // measure 58
0010
0000
0001
0000
0100
0000
0001
0000
1000
0000
0001
0100
0000
0001
0100
0000
,  // measure 59
0010
0000
1000
0100
0000
1000
0100
0000
0010
0000
0001
0000
2000
0000
0000
0000
,  // measure 60
3001
0000
0100
0000
0010
0000
1000
0000
0001
0000
0010
0001
0000
0010
0001
0000
,  // measure 61
0100
0000
0010
1000
0000
0010
1000
0000
0100
0000
0010
0000
0001
0000
1000
0000
,  // measure 62
0001
0000
0100
0000
0010
0000
1000
0001
0000
1000
0001
0000
0010
0000
0100
1000
,  // measure 63
0100
0010
0001
2000
0000
3010
1000
0001
,  // measure 64
0010
0000
0100
0000
1000
0000
0001
0100
0000
0001
0100
0000
0010
0000
1000
0100
,  // measure 65
0000
1000
0100
0000
0010
0000
0001
0000
1000
0000
0010
0000
0100
0010
0100
0000
,  // measure 66
2002
0000
0000
0000
,  // measure 67
0000
0000
0000
0000
,  // measure 68
3003
0000
0000
0000
;
