#VERSION:0.83;
#TITLE:Chimera;
#SUBTITLE:;
#ARTIST:YAHPP;
#TITLETRANSLIT:;
#SUBTITLETRANSLIT:;
#ARTISTTRANSLIT:;
#GENRE:;
#ORIGIN:;
#CREDIT:;
#BANNER:bn.png;
#BACKGROUND:bg.png;
#PREVIEWVID:;
#JACKET:jkt.png;
#CDIMAGE:;
#DISCIMAGE:;
#LYRICSPATH:;
#CDTITLE:;
#MUSIC:audio.ogg;
#OFFSET:-0.077000;
#SAMPLESTART:14.891000;
#SAMPLELENGTH:12.000000;
#SELECTABLE:YES;
#BPMS:0.000=210.000;
#STOPS:;
#DELAYS:;
#WARPS:;
#TIMESIGNATURES:0.000=4=4;
#TICKCOUNTS:0.000=4;
#COMBOS:0.000=1;
#SPEEDS:0.000=1.000=0.000=0;
#SCROLLS:0.000=1.000;
#FAKES:;
#LABELS:0.000=Song Start;
#BGCHANGES:;
#KEYSOUNDS:;
#ATTACKS:
;

//---------------dance-single - Copied from Copied from Ama-tan----------------
#NOTEDATA:;
#CHARTNAME:Copied from Copied from Ama-tan;
#STEPSTYPE:dance-single;
#DESCRIPTION:Copied from Copied from Ama-tan;
#CHARTSTYLE:;
#DIFFICULTY:Hard;
#METER:14;
#RADARVALUES:0.690691,0.674826,0.303293,0.000000,0.000000,542.000000,508.000000,34.000000,0.000000,0.000000,0.000000,0.000000,0.000000,0.000000,0.690691,0.674826,0.303293,0.000000,0.000000,542.000000,508.000000,34.000000,0.000000,0.000000,0.000000,0.000000,0.000000,0.000000;
#CREDIT:Copied from Copied from Ama-tan;
#NOTES:
// measure 0
0000
0000
0000
0000
,  // measure 1
0000
0000
0000
0000
,  // measure 2
0000
0000
0000
0000
,  // measure 3
0000
0000
0000
0000
,  // measure 4
0000
0000
0000
0000
,  // measure 5
1000
0010
0100
0001
0100
0010
1000
0000
,  // measure 6
0001
0010
0100
1000
0100
0010
0001
0000
,  // measure 7
1000
0010
0100
0001
1000
0010
0100
0000
,  // measure 8
0001
0010
0100
1000
0001
0010
0100
1000
,  // measure 9
0001
0001
0100
0100
,  // measure 10
0110
1010
1001
0001
,  // measure 11
0010
0100
1000
0001
,  // measure 12
0100
0101
0110
1010
,  // measure 13
1000
0100
1000
0000
0100
0000
0010
0000
,  // measure 14
0001
0100
0001
0000
0010
0000
0100
0000
,  // measure 15
1000
0010
0100
0001
1000
0010
0100
0001
,  // measure 16
1000
0000
0110
0000
1000
0001
1000
0000
,  // measure 17
0001
0010
0100
1000
0001
0010
0100
1000
,  // measure 18
0001
0000
0110
0000
0001
1000
0001
0000
,  // measure 19
1000
1100
0110
0011
,  // measure 20
0001
0100
0001
0000
1000
0100
1000
0000
,  // measure 21
0001
0100
0010
0100
0001
0100
0010
0100
,  // measure 22
0001
0010
1000
0010
1000
0010
0100
1000
,  // measure 23
0001
0100
0001
0000
1000
0100
1000
0000
,  // measure 24
0001
0100
1000
0100
1000
0100
0010
1000
,  // measure 25
0001
0100
0001
0000
1000
0100
1000
0000
,  // measure 26
0001
0010
0100
0000
1000
0001
1000
0001
,  // measure 27
0010
0100
0010
0100
0010
0100
0010
0100
,  // measure 28
1000
0000
1000
0000
1000
0000
0001
1000
,  // measure 29
0010
0100
0010
0100
0010
0100
0010
0100
,  // measure 30
0001
0001
0001
0100
,  // measure 31
0110
0010
1010
1000
,  // measure 32
0001
1000
0010
0100
1000
0100
0010
0100
,  // measure 33
0001
1000
0010
0100
1000
0100
0010
0100
,  // measure 34
0001
0001
0010
0010
,  // measure 35
0100
0100
1000
1000
,  // measure 36
0010
0000
0010
0000
0010
0000
0100
0001
,  // measure 37
1001
0000
0000
0000
0000
0000
0001
1000
,  // measure 38
0010
0100
0010
0100
0010
0100
0010
0100
,  // measure 39
0001
0000
0001
0000
0001
0000
1000
0001
,  // measure 40
0010
0100
0010
0100
0010
0100
0010
0100
,  // measure 41
1000
1000
1000
0010
,  // measure 42
0110
0100
0101
0001
,  // measure 43
1000
0001
0010
0100
0001
0100
0010
0100
,  // measure 44
1000
0001
0010
0100
0001
0100
0010
0100
,  // measure 45
1000
1000
0010
0010
,  // measure 46
0100
0100
0001
0001
,  // measure 47
0010
0010
0100
0100
,  // measure 48
1000
0000
1000
0000
1000
0000
0100
0010
,  // measure 49
0001
0100
0010
0100
1000
0100
0010
0100
,  // measure 50
0001
0100
0010
0100
1000
0100
0010
0100
,  // measure 51
0001
0000
0010
0100
1000
0000
0001
0010
,  // measure 52
0100
1100
1001
0101
,  // measure 53
0110
0000
1010
0110
,  // measure 54
0001
1000
0100
0010
1000
0010
0100
0010
,  // measure 55
0001
0000
0011
0110
,  // measure 56
1000
0001
0100
0010
0001
0010
0100
0010
,  // measure 57
1000
0001
0100
0010
0001
0010
0100
0001
,  // measure 58
0010
0100
1000
0010
0100
1000
0001
0010
,  // measure 59
0100
0001
0010
0100
1000
0000
1001
0000
,  // measure 60
0001
0100
0001
0000
0100
0000
0010
0000
,  // measure 61
1000
0100
1000
0000
0001
0000
0100
0000
,  // measure 62
1000
0100
0010
0001
1000
0100
0010
0001
,  // measure 63
0010
1010
1000
0100
,  // measure 64
0001
0100
0010
1000
0001
0100
0010
1000
,  // measure 65
0010
0000
0011
0000
1000
0010
0100
0001
,  // measure 66
1000
0101
0110
1010
,  // measure 67
1000
0100
1000
0000
0001
0100
0001
0000
,  // measure 68
1000
0100
0010
0100
1000
0100
0010
0100
,  // measure 69
1000
0010
0001
0010
0001
0010
0100
0001
,  // measure 70
1000
0100
0001
0000
1000
0100
0001
0000
,  // measure 71
1000
0100
0001
0100
0001
0100
0010
0001
,  // measure 72
1000
0010
0001
0000
1000
0010
0001
0000
,  // measure 73
1000
0010
0100
0000
0001
1000
0001
1000
,  // measure 74
0010
0100
0010
0100
1000
0100
0010
0100
,  // measure 75
0001
0000
0001
0000
0001
0000
1000
0001
,  // measure 76
0010
0100
0010
0100
0001
0100
0010
0100
,  // measure 77
1000
1000
1000
0100
,  // measure 78
0110
0010
0011
0001
,  // measure 79
1000
0001
0100
0010
0001
0010
0100
0010
,  // measure 80
1000
0001
0100
0010
0001
0010
0100
0010
,  // measure 81
1000
1000
0100
0100
,  // measure 82
0010
0010
0001
0001
,  // measure 83
0100
0100
0010
0010
,  // measure 84
1000
0100
0010
0001
0100
0010
1000
0001
,  // measure 85
1000
0100
0010
0100
0001
0100
0010
0100
,  // measure 86
1000
0100
0010
0100
0001
0100
0010
0100
,  // measure 87
1000
0010
0100
0001
1000
0100
0010
0100
,  // measure 88
0001
0000
0110
0000
,  // measure 89
1010
0000
0000
0000
;
