#VERSION:0.83;
#TITLE:Cherry Blossom;
#SUBTITLE:;
#ARTIST:M2U;
#TITLETRANSLIT:;
#SUBTITLETRANSLIT:;
#ARTISTTRANSLIT:;
#GENRE:;
#ORIGIN:;
#CREDIT:MUINELIM;
#BANNER:Cherry Blossom.png;
#BACKGROUND:Cherry Blossom-bg.png;
#PREVIEWVID:;
#JACKET:Cherry Blossom-jacket.png;
#CDIMAGE:;
#DISCIMAGE:;
#LYRICSPATH:;
#CDTITLE:;
#MUSIC:Cherry Blossom.ogg;
#OFFSET:-0.407000;
#SAMPLESTART:66.040001;
#SAMPLELENGTH:14.999992;
#SELECTABLE:YES;
#DISPLAYBPM:128.000000;
#BPMS:0.000=128.000;
#STOPS:;
#DELAYS:;
#WARPS:;
#TIMESIGNATURES:0.000=4=4;
#TICKCOUNTS:0.000=4;
#COMBOS:0.000=1;
#SPEEDS:0.000=1.000=0.000=0;
#SCROLLS:0.000=1.000;
#FAKES:;
#LABELS:0.000=Song Start;
#BGCHANGES:;
#KEYSOUNDS:;
#ATTACKS:
;

//---------------dance-single - ----------------
#NOTEDATA:;
#CHARTNAME:;
#STEPSTYPE:dance-single;
#DESCRIPTION:;
#CHARTSTYLE:;
#DIFFICULTY:Beginner;
#METER:3;
#RADARVALUES:0.118680,0.182901,0.013399,0.020099,0.000000,124.000000,122.000000,2.000000,3.000000,0.000000,0.000000,0.000000,0.000000,0.000000,0.118680,0.182901,0.013399,0.020099,0.000000,124.000000,122.000000,2.000000,3.000000,0.000000,0.000000,0.000000,0.000000,0.000000;
#CREDIT:MILEN;
#DISPLAYBPM:128.000000;
#NOTES:
0000
0000
0000
0000
,
0000
0000
0000
0000
,
0000
0000
0000
0000
,
0000
0000
0000
0000
,
1000
0000
1000
0000
,
0001
0000
0001
0000
,
1000
0000
0001
0000
,
1000
0000
0000
0001
,
0001
0000
0100
0000
,
0001
0000
0100
0000
,
0001
0000
0100
0000
,
0001
0000
0001
0000
,
1000
0000
0010
0000
,
1000
0000
0010
0000
,
1000
0000
0010
0000
,
1000
0000
1000
0000
,
0001
0000
0000
0000
,
0010
0000
0000
0000
,
0100
0000
0000
0000
,
1000
0000
0000
0000
,
1000
0000
0000
0000
,
0100
0000
0000
0000
,
0010
0000
0000
0000
,
0001
0000
0000
0000
,
0001
0000
0000
0000
,
0100
0000
0000
0000
,
0010
0000
0000
0000
,
1000
0000
0000
0000
,
1000
0000
0000
0000
,
0010
0000
0000
0000
,
0100
0000
0000
0000
,
0001
0000
0000
0000
,
0000
0000
0000
0000
,
1000
0000
0001
0000
,
1000
1000
1000
0000
,
0010
0000
0100
0000
,
0010
0000
0100
0000
,
0001
0000
1000
0000
,
0001
0000
1000
0000
,
0010
0000
0100
0000
,
0001
0000
1000
0000
,
0010
0000
0100
0000
,
0020
0000
0030
0000
,
1001
0000
0000
0000
,
0000
0000
0000
0000
,
1000
0000
0000
0000
,
0100
0000
0000
0000
,
0010
0000
0000
0000
,
0001
0000
0000
0000
,
0001
0000
0000
0000
,
0010
0000
0000
0000
,
0100
0000
0000
0000
,
1000
0000
0001
0000
,
1000
0000
0001
0000
,
1000
1000
1000
0000
,
0001
0001
0001
0000
,
0100
0000
0010
0000
,
0100
0000
0010
0000
,
1000
0000
0001
0000
,
1000
0000
0001
0000
,
0100
0000
0010
0000
,
1000
0000
0001
0000
,
0100
0000
0010
0000
,
0100
0100
0100
0000
,
0001
0000
0010
0000
,
0001
0000
0010
0000
,
0100
0000
1000
0000
,
0100
0000
1000
0000
,
0010
0000
0100
0000
,
0001
0000
1000
0000
,
0100
0000
0010
0000
,
0200
0000
0300
0000
,
1001
0000
0000
0000
,
0000
0000
0000
0000
,
1000
0000
0001
0000
,
0100
0000
0010
0000
,
1000
1000
1000
0000
,
0001
0001
0001
0002
,
0003
0000
0000
0000
;

//---------------dance-single - ----------------
#NOTEDATA:;
#CHARTNAME:;
#STEPSTYPE:dance-single;
#DESCRIPTION:;
#CHARTSTYLE:;
#DIFFICULTY:Easy;
#METER:5;
#RADARVALUES:0.211518,0.261287,0.046898,0.080396,0.000000,221.000000,214.000000,7.000000,12.000000,0.000000,0.000000,0.000000,0.000000,0.000000,0.211518,0.261287,0.046898,0.080396,0.000000,221.000000,214.000000,7.000000,12.000000,0.000000,0.000000,0.000000,0.000000,0.000000;
#CREDIT:MILEN;
#DISPLAYBPM:128.000000;
#NOTES:
0000
0000
0000
0000
,
0000
0000
0000
0000
,
0000
0000
0000
0000
,
0000
0000
0000
0000
,
1000
0000
1000
0000
,
0001
0000
0001
0000
,
1000
0000
0001
0000
,
1001
0000
0000
1000
,
1000
0100
1000
0000
,
0001
0010
0001
0000
,
1000
0100
1000
0000
,
0001
0010
0001
0001
,
1000
0010
1000
0000
,
0001
0100
0001
0000
,
1000
0010
1000
0000
,
0001
0100
0001
1000
,
1000
0100
0010
0000
,
0010
0001
0100
0100
,
0001
0010
0100
0000
,
0100
1000
0010
0010
,
1000
0001
0100
0000
,
0001
1000
0010
0010
,
1000
0001
0100
0010
,
0200
0000
0000
0300
,
0001
0000
0010
0000
,
0100
0000
1000
0000
,
0100
0000
0010
0000
,
0001
0000
0100
0000
,
0010
1000
0010
0000
,
0100
0001
0100
0000
,
0010
0100
0010
1000
,
0001
0010
0100
1000
,
0001
0010
0100
1000
,
2002
0000
0000
0000
,
3003
0000
0000
0000
,
0001
1000
0100
0000
,
1000
0001
0100
0000
,
0001
1000
0100
1000
,
0001
1000
0200
0300
,
1000
0001
0010
0000
,
0001
1000
0010
0000
,
1000
0001
0010
0001
,
1000
0001
0010
0001
,
1001
0000
0000
0000
,
0000
0000
0000
0000
,
1000
0000
0100
0000
,
0010
0000
0001
0000
,
0010
0000
0100
0000
,
1000
0000
0010
0000
,
0100
0001
0100
0000
,
0010
1000
0010
0000
,
0100
0010
0100
0001
,
1000
1000
0100
0100
,
0010
0010
0001
0001
,
2002
0000
0000
0000
,
3003
0000
0000
0000
,
1000
0010
0100
0000
,
0010
1000
0100
0000
,
1000
0010
0100
0010
,
1000
0010
0200
0300
,
0001
0010
0100
0000
,
0010
0001
0100
0000
,
0001
0010
0100
0010
,
0001
1000
2002
3003
,
0001
0100
0010
0100
,
0001
0010
0001
0000
,
1000
0010
0100
0010
,
1000
0100
1000
0000
,
0001
1000
0001
0010
,
0100
0010
0001
1000
,
0200
0300
0010
0001
,
1000
0010
0100
0001
,
1001
0000
0000
0000
,
0000
0000
0000
0000
,
1000
0010
1000
0010
,
0100
0001
0100
0001
,
0010
0100
1000
0001
,
0010
0100
1000
2002
,
3003
0000
0000
0000
;

//---------------dance-double - ----------------
#NOTEDATA:;
#CHARTNAME:;
#STEPSTYPE:dance-double;
#DESCRIPTION:;
#CHARTSTYLE:;
#DIFFICULTY:Easy;
#METER:5;
#RADARVALUES:0.207690,0.261287,0.066997,0.087096,0.000000,217.000000,207.000000,10.000000,13.000000,0.000000,0.000000,0.000000,0.000000,0.000000,0.207690,0.261287,0.066997,0.087096,0.000000,217.000000,207.000000,10.000000,13.000000,0.000000,0.000000,0.000000,0.000000,0.000000;
#CREDIT:MILEN;
#DISPLAYBPM:128.000000;
#NOTES:
// measure 0
00000000
00000000
00000000
00000000
,  // measure 1
00000000
00000000
00000000
00000000
,  // measure 2
00000000
00000000
00000000
00000000
,  // measure 3
00000000
00000000
00000000
00000000
,  // measure 4
00001000
00000000
00001000
00000000
,  // measure 5
00010000
00000000
00010000
00000000
,  // measure 6
00001000
00000000
00010000
00000000
,  // measure 7
00011000
00000000
00000000
00001000
,  // measure 8
00010000
00000000
01000000
00000000
,  // measure 9
00010000
00000000
00001000
00000000
,  // measure 10
00010000
00000000
01000000
00000000
,  // measure 11
00010000
00001000
00010000
00011000
,  // measure 12
00001000
00000000
00000100
00000000
,  // measure 13
00001000
00000000
00010000
00000000
,  // measure 14
00001000
00000000
00000100
00000000
,  // measure 15
00001000
00010000
00001000
00011000
,  // measure 16
00010000
00000100
00001000
00000000
,  // measure 17
00000100
00010000
00001000
00000000
,  // measure 18
01000000
00001000
00010000
00000000
,  // measure 19
00001000
01000000
00010000
00000000
,  // measure 20
00100000
00001000
00010000
00000000
,  // measure 21
00000010
00010000
00001000
00000000
,  // measure 22
01000000
00001000
00010000
00000100
,  // measure 23
00002000
00000000
00000000
00003000
,  // measure 24
00000001
00000000
00000010
00000000
,  // measure 25
00001000
00000000
00010000
00000000
,  // measure 26
00100000
00000000
10000000
00000000
,  // measure 27
01000000
00000000
00010000
00000000
,  // measure 28
00001000
00010000
00001000
00000000
,  // measure 29
00010000
00001000
00010000
00000000
,  // measure 30
00001000
00010000
00001000
00100000
,  // measure 31
00010000
01000000
00001000
00010000
,  // measure 32
00000100
00001000
00000010
00010000
,  // measure 33
00022000
00000000
00000000
00000000
,  // measure 34
00033000
00000000
00000000
00000000
,  // measure 35
00001000
00010000
00100000
00000000
,  // measure 36
00010000
00100000
10000000
00000000
,  // measure 37
00100000
00010000
00001000
00010000
,  // measure 38
00100000
00010000
00002000
00003000
,  // measure 39
00010000
00001000
00000010
00000000
,  // measure 40
00001000
00000010
00000001
00000000
,  // measure 41
00000010
00001000
00010000
00001000
,  // measure 42
00000010
00001000
00010000
00001000
,  // measure 43
00011000
00000000
00000000
00000000
,  // measure 44
00010000
00000000
01000000
00000000
,  // measure 45
10000000
00000000
00100000
00000000
,  // measure 46
00010000
00000000
00001000
00000000
,  // measure 47
00000010
00000000
00000001
00000000
,  // measure 48
00000100
00000000
00001000
00000000
,  // measure 49
00010000
00001000
00010000
00000000
,  // measure 50
00001000
00010000
00001000
00000000
,  // measure 51
00010000
00001000
00010000
00000010
,  // measure 52
00001000
00000100
00010000
00001000
,  // measure 53
01000000
00010000
00100000
00001000
,  // measure 54
00022000
00000000
00000000
00000000
,  // measure 55
00033000
00000000
00000000
00000000
,  // measure 56
00010000
00001000
00000010
00000000
,  // measure 57
00000100
00000010
00000001
00000000
,  // measure 58
00000100
00001000
00010000
00001000
,  // measure 59
00000100
00001000
00020000
00030000
,  // measure 60
00001000
00010000
00100000
00000000
,  // measure 61
01000000
00100000
10000000
00000000
,  // measure 62
01000000
00010000
00001000
00010000
,  // measure 63
01000000
00010000
00022000
00033000
,  // measure 64
00001000
00100000
00010000
01000000
,  // measure 65
00001000
00010000
00000010
00000000
,  // measure 66
00010000
00000100
00001000
00000010
,  // measure 67
00010000
00001000
01000000
00000000
,  // measure 68
00010000
00100000
00001000
00010000
,  // measure 69
00000100
00001000
00000010
00010000
,  // measure 70
00022000
00033000
00001000
01000000
,  // measure 71
00010000
00100000
00001000
00010000
,  // measure 72
00011000
00000000
00000000
00000000
,  // measure 73
00000000
00000000
00000000
00000000
,  // measure 74
00001000
00010000
00001000
00010000
,  // measure 75
00000100
00000010
00000100
00000010
,  // measure 76
00000001
00000100
00001000
00010000
,  // measure 77
00100000
10000000
00010000
20020000
,  // measure 78
30030000
00000000
00000000
00000000
;

//---------------dance-single - ----------------
#NOTEDATA:;
#CHARTNAME:;
#STEPSTYPE:dance-single;
#DESCRIPTION:;
#CHARTSTYLE:;
#DIFFICULTY:Medium;
#METER:9;
#RADARVALUES:0.391452,0.444188,0.301485,0.120594,0.020099,409.000000,364.000000,45.000000,18.000000,0.000000,0.000000,0.000000,0.000000,0.000000,0.391452,0.444188,0.301485,0.120594,0.020099,409.000000,364.000000,45.000000,18.000000,0.000000,0.000000,0.000000,0.000000,0.000000;
#CREDIT:MILEN;
#DISPLAYBPM:128.000000;
#NOTES:
0000
0000
0000
0000
,
0000
0000
0000
0000
,
0000
0000
0000
0000
,
0000
0000
0000
0000
,
1000
0001
1000
0001
0000
0001
0000
0100
,
0000
0100
0000
0010
0000
0010
1000
0000
,
0001
1000
0001
1000
0000
0010
0000
0100
,
0202
0000
0303
1001
,
1000
0000
0010
0100
0000
0010
0100
0000
,
0001
0000
0100
0010
0000
0100
0010
0000
,
1000
0000
0010
0100
0000
0010
0100
0001
,
0000
0100
0010
1000
0010
0100
0010
0000
,
0110
0000
0100
0001
0000
1000
0010
0000
,
0100
0000
0101
0000
1010
0000
1000
0100
,
0010
0000
0001
0010
0000
0100
0010
0100
,
2000
0001
0001
3001
,
1001
0000
0000
0000
0001
0000
0100
0000
0010
0000
0000
0010
0000
0000
0000
0000
,
1000
0100
0010
0000
0001
0010
0100
0000
,
1100
0000
0000
0000
1000
0000
0010
0000
0100
0000
0000
0100
0000
0000
0100
0000
,
0000
0001
1000
0010
0000
1000
0001
0100
,
0010
0000
0000
0000
0100
0000
0001
0000
0010
0000
0000
0010
0000
0000
0010
0000
,
0000
0001
0010
0100
0000
1000
0100
0010
,
0100
0000
1000
1000
0000
0000
0001
0001
,
0000
0101
0000
1010
0000
1000
0200
0000
,
0310
0001
0100
0110
,
0010
1000
0100
0110
,
0010
0001
1000
1001
,
0100
1000
0001
1001
,
0100
0110
0001
0011
,
1000
1100
0010
0110
,
1000
1010
0001
0101
,
1000
0010
0100
0001
,
0010
0100
0010
0000
0100
0010
0100
0000
,
1000
0000
0010
0000
0100
0000
0000
0100
0000
0000
0100
0000
0001
0000
0020
0000
,
0000
0130
1000
0020
0000
0100
0130
0000
,
0110
0000
1000
0100
0000
0001
0100
0000
,
1000
0000
0001
0010
0000
1000
0010
0000
,
0001
0000
1000
0100
0000
0001
0100
1000
,
0000
0010
0200
0000
0302
0000
2003
0000
,
3010
0000
0010
0001
0000
0010
1000
0000
,
1100
0000
0011
0000
1001
0000
1000
0010
,
0200
0000
0000
0301
0000
0001
0010
0100
,
1000
0010
0100
0001
,
1001
0000
0000
0000
,
0000
0000
0000
0000
0000
0000
0000
1000
,
0010
1000
0100
0110
,
0010
0001
0100
0110
,
0010
1000
0001
1001
,
0100
0001
1000
1001
,
0010
0110
1000
1100
,
0001
0011
0100
0110
,
0001
0101
1000
1010
,
0001
0100
0010
1000
,
0100
0010
0100
0000
0010
0100
0010
0000
,
0001
0000
0100
0000
0010
0000
0000
0010
0000
0000
0010
0000
1000
0000
0200
0000
,
0000
0310
0001
0200
0000
0010
0310
0000
,
0110
0000
0001
0100
0000
1000
0100
0000
,
0001
0000
1000
0010
0000
0001
0010
0000
,
1000
0000
0001
0100
0000
1000
0100
0001
,
0000
0010
0200
0000
2300
0000
3002
0000
,
0013
0000
0010
1000
0000
0010
0001
0000
,
0101
0000
1010
0000
1001
0000
0001
0010
,
0200
0000
0000
1300
0000
1000
0010
0010
,
0100
0000
0000
0000
0110
0000
0000
0000
0010
0000
0000
0010
0000
0000
0010
0000
,
1000
0001
0100
0010
1000
0000
1000
0000
,
0001
1000
0010
0100
0001
0000
0001
0000
,
1000
0001
0100
0010
0100
0000
0100
0000
,
0001
1000
0010
0100
0010
1000
0001
0000
,
1000
0100
0010
0001
1000
0000
1000
0000
,
0001
0010
0100
1000
0100
0010
0001
0100
,
0010
0000
0100
1000
0000
0100
0010
0100
,
0001
0010
0100
1000
,
1001
0001
0100
1000
,
0001
0010
1000
0100
,
0010
0011
0001
0101
,
0010
1010
1000
1100
,
0100
0010
0001
0100
0001
1000
0010
1000
,
0100
0010
0001
1000
0001
0000
2002
0000
,
3003
0000
0000
0000
;

//---------------dance-single - ----------------
#NOTEDATA:;
#CHARTNAME:;
#STEPSTYPE:dance-single;
#DESCRIPTION:;
#CHARTSTYLE:;
#DIFFICULTY:Hard;
#METER:12;
#RADARVALUES:0.485248,0.597108,0.227789,0.576172,0.137343,507.000000,473.000000,34.000000,86.000000,28.000000,0.000000,0.000000,0.000000,0.000000,0.485248,0.597108,0.227789,0.576172,0.137343,507.000000,473.000000,34.000000,86.000000,28.000000,0.000000,0.000000,0.000000,0.000000;
#CREDIT:MILEN;
#OFFSET:-0.407000;
#BPMS:0.000000=128.000000
;
#STOPS:28.000000=0.937500
;
#DELAYS:;
#WARPS:;
#TIMESIGNATURES:0.000000=4=4
;
#TICKCOUNTS:0.000000=4
;
#COMBOS:0.000000=1
;
#SPEEDS:0.000000=1.000000=0.000000=0
,194.000000=2.000000=12.000000=0
;
#SCROLLS:0.000000=1.000000
,170.000000=0.500000
;
#FAKES:;
#LABELS:0.000000=Song Start
;
#DISPLAYBPM:128.000000;
#NOTES:
0000
0000
0000
0000
,
0000
0000
0000
0000
,
0000
0000
0000
0000
,
0000
0000
0000
0000
,
1000
0100
0010
0001
0000
0101
0000
1020
,
0000
0100
0000
0001
0000
1030
0100
0010
,
0001
0100
0010
1010
0000
0201
0000
0310
,
0110
MMMM
2002
3003
1000
0010
0100
0020
,
0030
0001
0010
0000
1000
0100
0010
0200
,
0300
0001
0100
0000
1000
0010
0100
0020
,
0030
1000
0200
0010
0300
1000
0010
0001
,
0010
1000
0100
0010
0001
0100
0010
0200
,
0300
0000
1000
0000
0100
0000
0000
0000
0001
0000
0010
0000
0100
0010
0000
0100
,
0000
1000
0000
0010
0000
0100
0000
0002
0000
0000
0000
0000
1000
0000
1003
0000
,
0000
1000
0010
0100
0101
0000
0011
0000
,
1100
0000
1010
0000
0220
0330
0010
0100
,
0002
0000
0000
2003
0000
0000
3000
0000
0001
0000
0010
0000
0100
0010
0000
0200
,
0000
1300
0010
0000
0110
0000
0100
0010
,
2000
0000
0000
3002
0000
0000
0013
0000
0000
0000
0010
0000
0001
0000
0200
0000
,
0300
0010
1000
0100
1100
0000
1000
0001
,
0200
0000
0000
0320
0000
0000
1030
0000
0000
0000
1000
0000
0100
0010
0000
0200
,
0000
0310
0001
0100
0101
0000
0001
0020
,
0100
0030
0001
0101
0000
1010
0000
1100
,
0000
0011
2002
3003
1000
0020
0100
0030
,
1000
0100
0001
0100
1000
0020
0100
0030
,
1000
0100
0020
0001
0030
0001
0200
0010
,
0300
0010
2000
0100
3000
0100
0020
0001
,
0000
0100
0130
0000
1100
0000
0011
0000
,
0001
0100
1000
0100
0001
0010
0200
0300
,
1000
0010
0200
0001
0300
0010
2000
0100
,
3000
0010
0100
0010
1000
1000
0100
0100
,
0010
0010
0001
0001
1000
1000
0010
0010
,
0100
0000
0100
0000
0001
0000
0001
0000
0010
0000
0100
0000
1000
0010
0000
0100
,
0001
0010
0200
0010
0300
1000
0010
0001
,
0000
0010
0220
0330
0100
0001
0020
0100
,
0030
0001
0100
0000
0010
1000
0200
0010
,
0300
1000
0010
0000
0100
0001
0020
0100
,
0030
0001
0200
0010
0300
0001
0010
0100
,
1000
0020
0100
0130
0010
1000
0200
0010
,
0300
0000
1000
0000
0010
0000
0000
0000
0100
0000
0001
0000
0010
0100
0000
0010
,
0000
0100
0000
1000
0000
0001
0000
0200
0000
0000
0000
0000
0010
0000
0310
0000
,
0000
0010
1000
0001
0100
1000
0100
0001
,
0010
1000
0010
0001
1001
0000
MMMM
0000
,
MMMM
MMMM
MMMM
MMMM
,
MMMM
0000
0000
1000
0001
0020
0100
0030
,
0001
0100
1000
0100
0001
0020
0100
0030
,
0001
0100
0020
1000
0030
1000
0200
0010
,
0300
0010
0002
0100
0003
0100
0020
1000
,
0000
0100
0130
0000
0101
0000
1010
0000
,
1000
0100
0001
0100
1000
0010
0200
0300
,
0001
0010
0200
1000
0300
0010
0002
0100
,
0003
0010
0100
0010
0001
0001
0100
0100
,
0010
0010
1000
1000
0001
0001
0010
0010
,
0100
0000
0100
0000
1000
0000
1000
0000
0010
0000
0100
0000
0001
0010
0000
0100
,
1000
0010
0200
0010
0300
0001
0010
1000
,
0000
0010
0220
0330
0100
0010
0002
0100
,
0003
0020
0130
0000
0010
0100
2000
0010
,
3000
0200
0310
0000
0100
0010
0002
0100
,
0003
1000
0020
0001
0030
1000
0100
0001
,
0100
1000
1001
0000
0001
0100
0020
1000
,
0030
0000
0200
0000
0301
0000
0000
0000
0001
0000
1000
0000
0010
0100
0000
0010
,
0000
0100
0000
0001
0000
0010
0000
0200
0000
0000
0000
0000
0010
0000
0310
0000
,
0000
0010
0100
1000
1010
0000
0011
0000
,
0101
0000
0000
1100
0000
0000
1001
0000
0002
0000
0103
0000
2000
0000
3100
0000
,
0002
0010
0103
0000
2000
3010
0002
0013
,
2000
0100
3010
0000
0002
0013
2000
3010
,
0002
0100
0010
1003
2000
3010
0002
0013
,
2000
0100
0010
3001
0002
0103
0020
1030
,
0200
0000
0010
0000
1300
0000
0000
0000
2000
0000
3010
0000
0010
0200
0000
0301
,
0000
0020
0000
0100
0000
0031
0000
0200
0000
0000
0000
0000
0010
0000
0310
0000
,
0000
0020
0100
1030
0010
0001
0010
1000
,
0100
0001
0100
1000
1001
0000
0001
0000
,
0100
0010
1000
0100
,
0010
0000
0001
0000
1000
1000
0010
0010
,
0100
0100
0001
0001
1000
1000
0100
0100
,
0010
0000
0010
0000
0001
0000
0001
0000
0100
0010
0100
0000
0010
0000
1000
0000
,
0100
0010
0100
0000
0010
0000
0001
0000
1000
0100
1000
0000
0001
0010
0001
0000
,
1000
0001
1000
0000
2002
0000
0000
0000
3003
0000
0000
0000
0000
0000
0000
0000
;

//---------------dance-single - ----------------
#NOTEDATA:;
#CHARTNAME:;
#STEPSTYPE:dance-single;
#DESCRIPTION:;
#CHARTSTYLE:;
#DIFFICULTY:Challenge;
#METER:15;
#RADARVALUES:0.694852,0.856721,0.589571,0.629769,0.475677,726.000000,638.000000,88.000000,94.000000,27.000000,0.000000,0.000000,0.000000,0.000000,0.694852,0.856721,0.589571,0.629769,0.475677,726.000000,638.000000,88.000000,94.000000,27.000000,0.000000,0.000000,0.000000,0.000000;
#CREDIT:MILEN;
#OFFSET:-0.407000;
#BPMS:0.000000=128.000000
;
#STOPS:28.000000=0.937500
;
#DELAYS:;
#WARPS:;
#TIMESIGNATURES:0.000000=4=4
;
#TICKCOUNTS:0.000000=4
;
#COMBOS:0.000000=1
;
#SPEEDS:0.000000=1.000000=0.000000=0
,29.000000=999.000000=0.000000=0
,29.250000=1.000000=0.000000=0
,194.000000=2.000000=12.000000=0
;
#SCROLLS:0.000000=1.000000
,130.000000=2.000000
,130.125000=0.000000
,130.250000=2.000000
,130.375000=0.000000
,130.500000=2.000000
,130.625000=0.000000
,130.750000=2.000000
,130.875000=0.000000
,131.000000=2.000000
,131.125000=0.000000
,131.250000=2.000000
,131.375000=0.000000
,131.500000=2.000000
,131.625000=0.000000
,131.750000=2.000000
,131.875000=0.000000
,132.000000=2.000000
,132.125000=0.000000
,132.250000=2.000000
,132.375000=0.000000
,132.500000=2.000000
,132.625000=0.000000
,132.750000=2.000000
,132.875000=0.000000
,133.000000=1.000000
,170.000000=0.500000
,214.000000=1.000000
,214.125000=0.000000
,214.250000=1.000000
,214.375000=0.000000
,214.500000=1.000000
,214.625000=0.000000
,214.750000=1.000000
,214.875000=0.000000
,215.000000=1.000000
,215.125000=0.000000
,215.250000=1.000000
,215.375000=0.000000
,215.500000=1.000000
,215.625000=0.000000
,215.750000=1.000000
,215.875000=0.000000
,216.000000=1.000000
,216.125000=0.000000
,216.250000=1.000000
,216.375000=0.000000
,216.500000=1.000000
,216.625000=0.000000
,216.750000=1.000000
,216.875000=0.000000
,217.000000=0.500000
;
#FAKES:;
#LABELS:0.000000=Song Start
;
#DISPLAYBPM:128.000000;
#NOTES:
0000
0000
0000
0000
,
0000
0000
0000
0000
,
0000
0000
0000
0000
,
0000
0000
0000
0000
,
1000
0010
1000
0010
0100
0001
0100
0001
,
0010
0100
0010
0100
1000
0001
1000
0001
,
0100
0010
0100
0010
1000
0001
1000
0001
0100
0010
1000
0001
0010
0100
1000
0010
,
0200
M3MM
0110
0000
0010
1000
0100
0010
,
0001
0000
0010
0100
0020
0000
0031
0000
0010
0000
0100
0010
0200
0000
1300
0000
,
0100
0010
0000
0010
0200
0000
2300
0000
3001
0000
0100
0000
0010
0000
1000
0000
,
0001
0000
0010
0100
0020
0000
0130
0000
1000
0000
0100
0010
0200
0000
1300
0000
,
2000
3001
0002
0013
0010
0001
1000
0100
,
0010
0000
0001
0100
0002
0000
1003
0000
1010
0000
0000
0000
0101
0000
0000
0001
,
0010
0001
0000
0100
0000
0010
0000
1000
0100
0000
1000
0010
2000
0000
3002
0000
,
0000
0000
0013
0000
0100
0000
1000
0000
1010
0000
0000
0000
0101
0000
0000
0001
,
0020
0100
0130
0000
1001
0000
1000
0100
,
0010
0000
0001
0010
0001
0000
0100
0000
0110
0000
0000
0010
1000
0000
0200
0000
,
0000
1300
0010
0100
0010
0000
1000
0000
1001
0000
0000
0000
0001
0000
0010
0000
,
0100
0000
1000
0100
1000
0000
0010
0000
0110
0000
0000
0100
0001
0000
0020
0000
,
0000
0032
1003
2000
3100
0000
0100
0010
,
0001
0000
0100
0010
0100
0000
0010
0000
1010
0000
0000
1000
0200
0000
0000
0310
,
0000
0010
0001
0010
0100
0000
0010
0000
0011
0000
0001
0100
0020
0000
1030
0000
,
0001
0200
0301
0011
0000
1010
0000
0101
,
0000
1100
2002
3003
0001
0010
0100
0010
,
0001
0010
1000
0010
0001
0100
1000
0100
,
0001
0100
1000
0100
0010
1000
0100
0010
,
0001
0100
0010
0001
0010
0100
0001
0010
,
0100
1000
0010
0100
0101
0010
1010
1000
,
0100
0010
0200
0000
1300
0000
0100
0000
1100
0000
0010
0000
0011
0000
0001
0000
,
0100
0010
0200
0000
0301
0000
0100
0000
0010
1000
0010
0000
0100
0000
0010
0000
,
0100
0001
0100
0000
0010
0000
0100
0000
0101
0000
0001
0000
0011
0000
0001
0000
,
0101
0001
1001
1000
1010
1000
1100
1000
,
1010
0000
1000
0000
1001
0000
0001
0000
0100
0010
0100
0010
1000
0001
1000
0001
,
0010
0100
0010
0100
1000
0010
0100
0001
1000
0100
0010
0001
1000
0010
0100
0001
,
0010
0100
1000
0020
0200
0000
0330
0000
1001
0000
0001
0100
0020
0000
0031
0000
,
0010
0000
0100
0001
0020
0000
0130
0000
1100
0000
0000
1000
0020
0000
0130
0000
,
0010
0001
0000
0010
0100
0000
0010
0000
1010
0000
1000
0010
0200
0000
1300
0000
,
0100
0000
0010
1000
0200
0000
0310
0000
0011
0000
0000
0001
0200
0000
0310
0000
,
0020
0000
1030
0000
2000
0000
3001
0000
0001
0100
0020
0000
0031
0000
0010
0000
,
1000
0100
0010
0001
0010
0000
0001
0000
0101
0000
0100
0000
1010
0000
1000
0000
,
0001
0020
0000
0130
1000
0001
0010
0100
1000
0000
0010
0100
0020
0000
0031
0000
,
0000
0000
1010
0000
1000
0100
0010
0000
0011
0000
0001
0000
0100
0000
1000
0000
,
0100
0001
0010
0100
1001
0000
MMMM
0000
,
MMMM
MMMM
MMMM
MMMM
,
MMMM
0000
0000
0001
0200
0010
0000
0010
,
0000
0000
0310
1000
0020
0000
0100
0000
0000
0000
0100
0000
0000
0000
0100
0000
,
0000
0000
0130
0001
2000
0000
0010
0000
0000
0000
0010
0000
0000
0000
0010
0000
,
0000
0000
3100
0010
0002
0000
0100
0000
0000
0000
0100
0000
0000
0000
0100
0000
,
0000
0000
0013
0100
1000
0000
0010
0000
0110
0000
0000
0000
0101
0000
0000
0000
,
0011
1010
1100
0110
,
0011
0101
1100
1010
,
0110
0000
1001
0000
0002
0103
2000
3100
,
0002
0013
2000
3010
0002
0103
0020
1030
,
0200
0000
0310
0000
0002
0000
1003
0000
1000
0010
1000
0010
0100
0001
0100
0001
,
0010
0100
0010
0100
1000
0010
0100
0001
1000
0100
0010
0001
0100
0010
1000
0001
,
0010
0100
1000
0020
0200
0000
0330
0000
1001
0000
0001
0010
0200
0000
0301
0000
,
0100
0000
0010
0001
0200
0000
0310
0000
1010
0000
0000
1000
0200
0000
0310
0000
,
0100
0001
0000
0100
0010
0000
0100
0000
1100
0000
1000
0100
0020
0000
1030
0000
,
0010
0000
0100
1000
0020
0000
0130
0000
0101
0000
0000
0001
0020
0000
0130
0000
,
0200
0000
1300
0000
2000
0000
3001
0000
0001
0010
0200
0000
0301
0000
0100
0000
,
1000
0010
0100
0001
0100
0000
0001
0000
0011
0000
0010
0000
1100
0000
1000
0000
,
0001
0200
0000
0310
1000
0001
0100
0010
1000
0000
0100
0010
0200
0000
0301
0000
,
0000
0000
1100
0000
1000
0010
0100
0000
0202
0303
0000
0000
2020
3030
0000
0000
,
2200
3300
0000
0022
0033
0000
0110
0000
1001
0000
1000
0010
0200
0000
0310
2000
,
0000
3100
0010
0100
0001
0000
0100
0000
1000
0000
0001
0100
0020
0000
0130
0002
,
0000
0013
0100
0010
1000
0000
0010
0000
0001
0000
0100
0010
2000
0000
3100
0020
,
0000
0031
0100
0010
1000
0000
0100
0000
0120
0000
0031
0000
0210
0000
1300
0000
,
1020
0000
0130
0000
0201
0000
0310
0000
0110
0000
0100
0001
0020
0000
0130
0002
,
0000
0103
0010
0100
1000
0000
0010
0000
0110
0000
0100
0000
1001
0000
0001
0200
,
0000
0310
1000
0001
0010
0100
1000
0001
0100
0000
1000
0100
0010
0000
0220
0000
,
0330
0000
0101
0000
0001
0010
0100
0000
1100
0000
1000
0000
0010
0000
0001
0000
,
1000
0100
0001
0010
0210
1300
0100
0012
,
0003
2010
3000
0012
0003
2100
3000
0102
,
0003
2100
3000
0010
0110
0100
0101
0001
,
0011
0010
0110
0100
1100
1000
1010
0010
,
0110
0000
0100
0000
0101
0000
0001
0000
1000
0010
1000
0010
0100
0001
0100
0001
,
0010
0100
0010
0100
1000
0001
1000
0001
0100
0010
1000
0100
1000
0001
0100
0001
,
0010
0100
1000
0001
2002
0000
0000
0000
3003
0000
0000
0000
0000
0000
0000
0000
;

//---------------dance-double - ----------------
#NOTEDATA:;
#CHARTNAME:;
#STEPSTYPE:dance-double;
#DESCRIPTION:;
#CHARTSTYLE:;
#DIFFICULTY:Hard;
#METER:12;
#RADARVALUES:0.485248,0.597108,0.221089,0.489076,0.137343,507.000000,474.000000,33.000000,73.000000,56.000000,0.000000,0.000000,0.000000,0.000000,0.485248,0.597108,0.221089,0.489076,0.137343,507.000000,474.000000,33.000000,73.000000,56.000000,0.000000,0.000000,0.000000,0.000000;
#CREDIT:MILEN;
#OFFSET:-0.407000;
#BPMS:0.000000=128.000000
;
#STOPS:28.000000=0.937500
;
#DELAYS:;
#WARPS:;
#TIMESIGNATURES:0.000000=4=4
;
#TICKCOUNTS:0.000000=4
;
#COMBOS:0.000000=1
;
#SPEEDS:0.000000=1.000000=0.000000=0
,194.000000=2.000000=12.000000=0
;
#SCROLLS:0.000000=1.000000
,170.000000=0.500000
;
#FAKES:;
#LABELS:0.000000=Song Start
;
#DISPLAYBPM:128.000000;
#NOTES:
// measure 0
00000000
00000000
00000000
00000000
,  // measure 1
00000000
00000000
00000000
00000000
,  // measure 2
00000000
00000000
00000000
00000000
,  // measure 3
00000000
00000000
00000000
00000000
,  // measure 4
00001000
00010000
00100000
01000000
00000000
01001000
00000000
00010020
,  // measure 5
00000000
00001000
00000000
00000001
00000000
00001030
00001000
00000100
,  // measure 6
00010000
00001000
00000100
00000010
00000000
00020010
00000000
00031000
,  // measure 7
01001000
MMMMMMMM
00022000
00033000
00001000
00010000
00100000
02000000
,  // measure 8
03000000
00100000
00010000
00000000
00010000
00001000
00000100
00000020
,  // measure 9
00000030
00000100
00001000
00000000
00001000
00010000
00100000
20000000
,  // measure 10
30000000
00100000
00010000
00002000
00003000
00010000
00001000
00000100
,  // measure 11
00001000
00010000
00001000
00000100
00000001
00000010
00001000
00020000
,  // measure 12
00030000
00000000
00001000
00000000
00000010
00000000
00000000
00000000
00001000
00000000
00010000
00000000
00100000
10000000
00000000
01000000
,  // measure 13
00000000
10000000
00000000
01000000
00000000
00010000
00000000
00002000
00000000
00000000
00000000
00000000
00010000
00000000
00013000
00000000
,  // measure 14
00000000
00010000
00000100
00001000
00001010
00000000
00010010
00000000
,  // measure 15
00011000
00000000
01001000
00000000
02020000
03030000
00010000
00100000
,  // measure 16
00002000
00000000
00000000
00023000
00000000
00000000
00030000
00000000
00000100
00000000
00001000
00000000
00000100
00000010
00000000
00000002
,  // measure 17
00000000
00000103
00000100
00000000
00000110
00000000
00000010
00010000
,  // measure 18
00002000
00000000
00000000
00203000
00000000
00000000
00310000
00000000
00000000
00000000
00010000
00000000
01000000
00000000
00200000
00000000
,  // measure 19
00300000
10000000
01000000
00100000
00110000
00000000
00010000
01000000
,  // measure 20
00002000
00000000
00000000
00023000
00000000
00000000
00030010
00000000
00000000
00000000
00000010
00000000
00001000
00000100
00000000
00020000
,  // measure 21
00000000
00031000
00100000
01000000
11000000
00000000
10000000
00100000
,  // measure 22
00020000
00000000
00031000
00101000
00000000
00010010
00000000
01001000
,  // measure 23
00000000
00010100
00022000
00033000
00001000
00000100
00000002
00000003
,  // measure 24
00000100
00001000
00010000
00001000
00000100
00000001
00000020
00000030
,  // measure 25
00000001
00000100
00001000
00020000
00030000
00001000
00010000
00200000
,  // measure 26
00300000
00010000
00100000
20000000
30000000
00100000
10000000
02000000
,  // measure 27
00000000
00100000
03100000
00000000
00101000
00000000
00010100
00000000
,  // measure 28
00000100
00000010
00000001
00000100
00001000
00010000
00200000
00300000
,  // measure 29
00010000
00001000
00000100
00000002
00000003
00000100
00001000
00020000
,  // measure 30
00030000
00100000
10000000
01000000
00100000
00010000
00100000
01000000
,  // measure 31
00010000
00001000
00000010
00000100
00001000
00000100
00000010
00000001
,  // measure 32
00000100
00000000
00001000
00000000
00010000
00000000
00100000
00000000
10000000
00000000
01000000
00000000
00010000
00001000
00000000
00010000
,  // measure 33
00001000
00010000
00000100
00000020
00000030
00000001
00000100
00001000
,  // measure 34
00000000
00010000
00022000
00033000
00001000
00010000
00100000
20000000
,  // measure 35
30000000
01000000
00010000
00000000
00010000
00001000
00000100
00000002
,  // measure 36
00000003
00000010
00001000
00000000
00001000
00010000
01000000
20000000
,  // measure 37
30000000
00100000
00010000
00002000
00003000
00010000
00001000
00000100
,  // measure 38
00000001
00000020
00000100
00000130
00000010
00001000
00010000
02000000
,  // measure 39
03000000
00000000
00010000
00000000
00001000
00000000
00000000
00000000
00000100
00000000
00001000
00000000
00010000
00001000
00000000
00010000
,  // measure 40
00000000
00100000
00000000
01000000
00000000
00100000
00000000
20000000
00000000
00000000
00000000
00000000
00010000
00000000
30010000
00000000
,  // measure 41
00000000
00010000
01000000
00001000
00010000
00100000
00010000
00001000
,  // measure 42
00000010
00001000
00010000
00001000
00011000
00000000
MMMMMMMM
00000000
,  // measure 43
MMMMMMMM
MMMMMMMM
MMMMMMMM
MMMMMMMM
,  // measure 44
MMMMMMMM
00000000
00000000
00001000
00010000
01000000
20000000
30000000
,  // measure 45
01000000
00010000
00001000
00010000
01000000
10000000
00200000
00300000
,  // measure 46
10000000
01000000
00010000
00002000
00003000
00010000
00001000
00000020
,  // measure 47
00000030
00001000
00000010
00000002
00000003
00000010
00000001
00000200
,  // measure 48
00000000
00000010
00000310
00000000
00010010
00000000
01001000
00000000
,  // measure 49
01000000
00100000
10000000
01000000
00010000
00001000
00000020
00000030
,  // measure 50
00001000
00010000
01000000
20000000
30000000
01000000
00010000
00002000
,  // measure 51
00003000
00000010
00000001
00000100
00000010
00001000
00000010
00000100
,  // measure 52
00001000
00010000
00100000
01000000
00010000
01000000
00100000
10000000
,  // measure 53
01000000
00000000
00010000
00000000
00001000
00000000
00000010
00000000
00000001
00000000
00000100
00000000
00001000
00010000
00000000
00001000
,  // measure 54
00010000
00001000
01000000
00200000
00300000
10000000
01000000
00010000
,  // measure 55
00000000
00001000
00022000
00033000
00010000
00001000
00000010
00000002
,  // measure 56
00000003
00000100
00001000
00000000
00001000
00010000
01000000
20000000
,  // measure 57
30000000
00100000
00010000
00000000
00010000
00001000
00000100
00000002
,  // measure 58
00000003
00000010
00001000
00020000
00030000
00001000
00010000
01000000
,  // measure 59
10000000
00200000
01000000
01300000
00100000
00010000
00001000
00000200
,  // measure 60
00000300
00000000
00001000
00000000
00010000
00000000
00000000
00000000
01000000
00000000
00010000
00000000
00001000
00010000
00000000
00001000
,  // measure 61
00000000
00000010
00000000
00000100
00000000
00000010
00000000
00000002
00000000
00000000
00000000
00000000
00001000
00000000
00001003
00000000
,  // measure 62
00000000
00001000
00000100
00010000
00011000
00000000
00011000
00000000
,  // measure 63
00010100
00000000
00000000
00011000
00000000
00000000
01001000
00000000
01000000
00000000
00010000
00000000
00100000
00000000
01000000
00000000
,  // measure 64
00020000
00001000
00030010
00000000
00000010
00001000
00000100
00000010
,  // measure 65
00002000
00010000
01003000
00000000
01000000
00100000
00010000
00001000
,  // measure 66
00000200
00000001
00001000
00000310
00000010
00000100
00001000
00010000
,  // measure 67
00200000
10000000
00010000
01300000
01000000
00100000
00010000
00001000
,  // measure 68
00000020
00000000
00000001
00000000
00000130
00000000
00000000
00000000
00000010
00000000
00001000
00000000
00010000
02000000
00000000
13000000
,  // measure 69
00000000
00200000
00000000
01000000
00000000
00310000
00000000
00012000
00000000
00000000
00000000
00000000
00000100
00000000
00003100
00000000
,  // measure 70
00000000
00000200
00000001
00000310
00000100
00001000
00010000
00100000
,  // measure 71
00010000
00001000
00000010
00001000
00011000
00000000
00010000
00000000
,  // measure 72
01000000
10000000
00100000
00010000
,  // measure 73
00001000
00000000
00000100
00000000
00000001
00000001
00000010
00000010
,  // measure 74
00000100
00000100
00010000
00010000
00001000
00001000
00100000
00100000
,  // measure 75
01000000
00000000
01000000
00000000
10000000
00000000
10000000
00000000
00100000
01000000
00100000
00000000
00010000
00000000
00001000
00000000
,  // measure 76
00000100
00000010
00000100
00000000
00000001
00000000
00000010
00000000
00001000
00010000
00001000
00000000
00010000
00000010
00010000
00000000
,  // measure 77
00001000
01000000
00001000
00000000
00022000
00000000
00000000
00000000
00033000
00000000
00000000
00000000
00000000
00000000
00000000
00000000
;

//---------------dance-double - ----------------
#NOTEDATA:;
#CHARTNAME:;
#STEPSTYPE:dance-double;
#DESCRIPTION:;
#CHARTSTYLE:;
#DIFFICULTY:Challenge;
#METER:15;
#RADARVALUES:0.678581,0.856721,0.522575,0.582872,0.472327,709.000000,631.000000,78.000000,87.000000,55.000000,0.000000,0.000000,0.000000,0.000000,0.678581,0.856721,0.522575,0.582872,0.472327,709.000000,631.000000,78.000000,87.000000,55.000000,0.000000,0.000000,0.000000,0.000000;
#CREDIT:MILEN;
#OFFSET:-0.407000;
#BPMS:0.000000=128.000000
;
#STOPS:28.000000=0.937500
;
#DELAYS:;
#WARPS:;
#TIMESIGNATURES:0.000000=4=4
;
#TICKCOUNTS:0.000000=4
;
#COMBOS:0.000000=1
;
#SPEEDS:0.000000=1.000000=0.000000=0
,29.000000=999.000000=0.000000=0
,29.250000=1.000000=0.000000=0
,194.000000=2.000000=12.000000=0
;
#SCROLLS:0.000000=1.000000
,130.000000=2.000000
,130.125000=0.000000
,130.250000=2.000000
,130.375000=0.000000
,130.500000=2.000000
,130.625000=0.000000
,130.750000=2.000000
,130.875000=0.000000
,131.000000=2.000000
,131.125000=0.000000
,131.250000=2.000000
,131.375000=0.000000
,131.500000=2.000000
,131.625000=0.000000
,131.750000=2.000000
,131.875000=0.000000
,132.000000=2.000000
,132.125000=0.000000
,132.250000=2.000000
,132.375000=0.000000
,132.500000=2.000000
,132.625000=0.000000
,132.750000=2.000000
,132.875000=0.000000
,133.000000=1.000000
,170.000000=0.500000
,214.000000=1.000000
,214.125000=0.000000
,214.250000=1.000000
,214.375000=0.000000
,214.500000=1.000000
,214.625000=0.000000
,214.750000=1.000000
,214.875000=0.000000
,215.000000=1.000000
,215.125000=0.000000
,215.250000=1.000000
,215.375000=0.000000
,215.500000=1.000000
,215.625000=0.000000
,215.750000=1.000000
,215.875000=0.000000
,216.000000=1.000000
,216.125000=0.000000
,216.250000=1.000000
,216.375000=0.000000
,216.500000=1.000000
,216.625000=0.000000
,216.750000=1.000000
,216.875000=0.000000
,217.000000=0.500000
;
#FAKES:;
#LABELS:0.000000=Song Start
;
#DISPLAYBPM:128.000000;
#NOTES:
// measure 0
00000000
00000000
00000000
00000000
,  // measure 1
00000000
00000000
00000000
00000000
,  // measure 2
00000000
00000000
00000000
00000000
,  // measure 3
00000000
00000000
00000000
00000000
,  // measure 4
00001000
01000000
00001000
01000000
00001000
00010000
00001000
00010000
,  // measure 5
00000010
00010000
00000010
00010000
00001000
00010000
00001000
00010000
,  // measure 6
00001000
00100000
00001000
00100000
00010000
01000000
00010000
01000000
00001000
00010000
00001000
00010000
00000010
00001000
00000010
00001000
,  // measure 7
00000200
MMMMM3MM
00000110
00000000
00000010
00000001
00000100
00000010
,  // measure 8
00001000
00000000
00000100
00000010
00000200
00000000
00010300
00000000
00001000
00000000
00100000
01000000
00200000
00000000
00301000
00000000
,  // measure 9
00010000
00001000
00000000
00001000
00000200
00000000
00000302
00000000
00001003
00000000
00001000
00000000
00000100
00000000
00000010
00000000
,  // measure 10
00001000
00000000
00010000
00100000
00020000
00000000
00031000
00000000
00000010
00000000
00000001
00000100
00000020
00000000
00010030
00000000
,  // measure 11
00020000
00031000
00002000
00103000
00100000
01000000
10000000
00100000
,  // measure 12
00010000
00000000
00100000
01000000
00200000
00000000
10300000
00000000
11000000
00000000
00000000
00000000
01010000
00000000
00000000
00010000
,  // measure 13
00001000
00010000
00000000
01000000
00000000
10000000
00000000
00100000
01000000
00000000
00100000
01000000
00200000
00000000
00320000
00000000
,  // measure 14
00000000
00000000
00031000
00000000
00000100
00000000
00001000
00000000
00011000
00000000
00000000
00000000
00011000
00000000
00000000
00010000
,  // measure 15
00002000
00010000
00013000
00000000
00011000
00000000
00010000
00001000
,  // measure 16
00000100
00000000
00000001
00000010
00000001
00000000
00000100
00000000
00002000
00000000
00000000
00013000
00100000
00000000
00020000
00000000
,  // measure 17
00000000
00031000
00100000
00001000
00100000
00000000
00001000
00000000
00011000
00000000
00000000
00000000
00001000
00000000
00010000
00000000
,  // measure 18
01000000
00000000
10000000
00100000
10000000
00000000
01000000
00000000
00020000
00000000
00000000
00031000
00000010
00000000
00002000
00000000
,  // measure 19
00000000
00023000
00030100
00000200
00000310
00000000
00000010
00000001
,  // measure 20
00000100
00000000
00001000
00010000
00001000
00000000
00000100
00000000
00000002
00000000
00000000
00000013
00000200
00000000
00000000
00001300
,  // measure 21
00000000
00000100
00010000
00001000
00010000
00000000
00001000
00000000
01001000
00000000
01000000
00100000
20000000
00000000
31000000
00000000
,  // measure 22
00010000
00001000
00000010
00000011
00000000
00010100
00000000
01001000
,  // measure 23
00000000
10100000
20020000
30030000
10000000
01000000
00100000
00010000
,  // measure 24
00100000
00001000
00010000
00000100
00001000
00000100
00000010
00000001
,  // measure 25
00000100
00001000
00010000
00000010
00001000
00010000
00100000
00001000
,  // measure 26
00010000
00100000
10000000
01000000
00010000
00001000
00100000
00010000
,  // measure 27
00001000
00000100
00010000
00001000
00000200
00000301
00001001
00001000
,  // measure 28
00000010
00010000
00001000
00000000
00100000
00000000
00010000
00000000
20000000
00000000
30100000
00000000
01100000
00000000
01000000
00000000
,  // measure 29
00010000
00100000
01000000
00000000
00010000
00000000
00001000
00000000
00000010
00000001
00000100
00000000
00000010
00000000
00010000
00000000
,  // measure 30
00001000
00100000
00010000
00000000
01000000
00000000
00100000
00000000
10100000
00000000
10000000
00000000
11000000
00000000
00000000
00000000
,  // measure 31
00110000
00001000
00011000
00000000
00011000
00000010
00001010
00000000
,  // measure 32
00000101
00000000
00000001
00000000
00000011
00000000
00000000
00000000
00000010
00000100
00000010
00000100
00010000
00001000
00010000
00001000
,  // measure 33
00100000
01000000
00100000
01000000
10000000
00100000
01000000
00010000
00100000
01000000
00100000
00001000
00010000
00000100
00000010
00000100
,  // measure 34
00001000
00000100
00010000
00001000
00022000
00000000
00033000
00000000
00011000
00000000
00010000
00001000
00000100
00000000
00001000
00010000
,  // measure 35
00000100
00000000
00010000
00001000
00000200
00000000
00000301
00000000
00000011
00000000
00000000
00000010
00000200
00000000
00000310
00000000
,  // measure 36
00000001
00000100
00000000
00000100
00001000
00000000
00010000
00000000
00011000
00000000
00001000
00010000
00100000
00000000
00010000
00001000
,  // measure 37
00100000
00000000
00001000
00010000
00200000
00000000
10300000
00000000
11000000
00000000
00000000
01000000
00200000
00000000
00301000
00000000
,  // measure 38
00002000
00000000
00013000
00000000
00020000
00000000
00030010
00000000
00000010
00001000
00000100
00000000
00000010
00000100
00001000
00000000
,  // measure 39
00000010
00001000
00000100
00000010
00000001
00000000
00001000
00000000
00002020
00000000
00003030
00000000
00001010
00000000
00000010
00000000
,  // measure 40
00010000
00001000
00000000
00001000
00100000
00010000
00100000
01000000
10000000
00000000
00100000
01000000
00200000
00000000
00310000
00000000
,  // measure 41
00000000
00011000
00010000
00000100
00001100
00001000
00000010
00000001
,  // measure 42
00000010
00000100
00001000
00010000
00011000
00000000
MMMMMMMM
00000000
,  // measure 43
MMMMMMMM
MMMMMMMM
MMMMMMMM
MMMMMMMM
,  // measure 44
MMMMMMMM
00000000
00000000
00010000
00002000
00100000
00000000
00100000
,  // measure 45
00000000
00100000
00023000
00000010
00000000
00000010
00000000
00000010
,  // measure 46
00000000
00000010
00032000
01000000
00000000
01000000
00000000
01000000
,  // measure 47
00000000
01000000
00023000
00000100
00000000
00000100
00000000
00000100
,  // measure 48
00000000
00030100
00000010
00000001
00000101
00000000
00001100
00000000
,  // measure 49
00011000
00110000
10100000
01010000
,  // measure 50
00101000
00010010
01001000
00010100
,  // measure 51
00001010
00000000
00000101
00000000
00000002
00000013
00000020
00001030
,  // measure 52
00002000
00013000
00020000
01030000
02000000
13000000
20000000
30100000
,  // measure 53
00200000
00000000
00310000
00000000
00020000
00000000
00031000
00000000
00001000
00100000
00001000
00100000
00010000
01000000
00010000
01000000
,  // measure 54
00001000
00010000
00001000
00010000
00000100
00000010
00000001
00001000
00000010
00010000
00001000
00100000
00010000
10000000
00100000
01000000
,  // measure 55
00010000
00100000
00001000
00010000
00022000
00000000
00033000
00000000
00011000
00000000
00001000
00010000
01000000
00000000
00010000
00001000
,  // measure 56
01000000
00000000
00001000
00010000
02000000
00000000
13000000
00000000
10100000
00000000
00000000
00100000
02000000
00000000
03100000
00000000
,  // measure 57
10000000
01000000
00000000
01000000
00010000
00000000
00001000
00000000
00011000
00000000
00010000
00001000
00000010
00000000
00001000
00010000
,  // measure 58
00000010
00000000
00010000
00001000
00000020
00000000
00000031
00000000
00000101
00000000
00000000
00000100
00000020
00000000
00010030
00000000
,  // measure 59
00020000
00000000
00031000
00000000
00002000
00000000
00103000
00000000
00100000
00010000
01000000
00000000
00100000
01000000
00010000
00000000
,  // measure 60
00100000
00010000
01000000
00100000
10000000
00000000
00010000
00000000
00220000
00000000
00330000
00000000
00110000
00000000
00100000
00000000
,  // measure 61
00001000
00010000
00000000
00010000
00000010
00001000
00000010
00000100
00000001
00000000
00000010
00000100
00000020
00000000
00001030
00000000
,  // measure 62
00000000
00011000
00001000
01000000
01020000
00000000
00230000
00000000
,  // measure 63
00302000
00000000
00000000
00003020
00000000
00000000
00020030
00000000
01030000
00000000
01000000
00100000
20000000
00000000
31000000
00010000
,  // measure 64
00000000
00010000
00001000
00010000
00000100
00000000
00001100
00000000
00001000
00000000
00000010
00000100
00000002
00000000
00000013
00001000
,  // measure 65
00000000
00001000
00010000
00001000
00100000
00000000
00110000
00000000
00010000
00000000
10000000
00100000
02000000
00000000
03010000
00200000
,  // measure 66
00000000
01300000
00010000
00001000
00010000
00000000
00000100
00000000
00000020
00000000
00000031
00000000
00000200
00000000
00001300
00000000
,  // measure 67
00020000
00000000
01030000
00000000
20000000
00000000
30100000
00000000
01100000
00000000
01000000
00001000
00020000
00000000
00130000
00002000
,  // measure 68
00000000
00003010
00010000
00001000
00000100
00000000
00000001
00000000
00000011
00000000
00000100
00000000
00001100
00000000
00001000
00000020
,  // measure 69
00000000
00010030
00001000
00100000
01000000
10000000
00100000
00010000
00001000
00000000
00010000
00001000
00000100
00000000
00000202
00000000
,  // measure 70
00000303
00000011
00000010
00001000
00011000
00010000
01000000
10000000
,  // measure 71
01000000
00100000
00001000
00010000
00012000
00003010
00000001
00000201
,  // measure 72
00000300
00000120
00000030
00020010
00030000
00012000
00003000
00201000
,  // measure 73
00300000
02100000
03000000
10000000
10100000
00100000
00110000
00010000
,  // measure 74
00011000
00001000
00001100
00000100
00000101
00000001
00000011
00000010
,  // measure 75
00001010
00000000
00001000
00000000
00011000
00000000
00010000
00000000
00000100
00000010
00000100
00000010
00001000
00010000
00001000
00010000
,  // measure 76
01000000
00100000
01000000
00100000
00010000
01000000
00100000
10000000
00010000
00100000
01000000
00010000
00001000
00000010
00000100
00001000
,  // measure 77
00000001
00000100
00001000
00010000
00022000
00000000
00000000
00000000
00033000
00000000
00000000
00000000
00000000
00000000
00000000
00000000
;

//---------------dance-double - ----------------
#NOTEDATA:;
#CHARTNAME:;
#STEPSTYPE:dance-double;
#DESCRIPTION:;
#CHARTSTYLE:;
#DIFFICULTY:Medium;
#METER:9;
#RADARVALUES:0.367525,0.418060,0.180891,0.113894,0.020099,384.000000,357.000000,27.000000,17.000000,0.000000,0.000000,0.000000,0.000000,0.000000,0.367525,0.418060,0.180891,0.113894,0.020099,384.000000,357.000000,27.000000,17.000000,0.000000,0.000000,0.000000,0.000000,0.000000;
#CREDIT:MILEN;
#DISPLAYBPM:128.000000;
#NOTES:
// measure 0
00000000
00000000
00000000
00000000
,  // measure 1
00000000
00000000
00000000
00000000
,  // measure 2
00000000
00000000
00000000
00000000
,  // measure 3
00000000
00000000
00000000
00000000
,  // measure 4
00001000
00010000
00001000
00010000
00000000
00000100
00000000
00001000
,  // measure 5
00000000
00000010
00000000
00010000
00000000
00001000
00010000
00000000
,  // measure 6
00010000
00001000
00010000
00001000
00000000
00100000
00000000
00010000
,  // measure 7
20000000
00000000
30000000
10010000
,  // measure 8
00010000
00000000
01000000
00001000
00000000
00010000
00001000
00000000
,  // measure 9
00010000
00000000
00000010
00010000
00000000
00001000
00010000
00000000
,  // measure 10
00000100
00000000
00010000
00001000
00000000
00100000
00001000
00010000
,  // measure 11
00000000
00000010
00010000
00001000
00010000
00000010
00010000
00000000
,  // measure 12
00011000
00000000
00001000
00100000
00000000
00001000
00010000
00000000
,  // measure 13
00000100
00000000
00001100
00000000
00000011
00000000
00000001
00000100
,  // measure 14
00000010
00000000
00001000
00000010
00000000
00001000
00000100
00010000
,  // measure 15
00002000
00010000
00010000
00013000
,  // measure 16
00011000
00000000
00000000
00000000
00010000
00000000
00001000
00000000
00010000
00000000
00000000
00010000
00000000
00000000
00000000
00000000
,  // measure 17
00001000
00010000
01000000
00000000
10000000
00100000
01000000
00000000
,  // measure 18
01010000
00000000
00000000
00000000
00010000
00000000
00100000
00000000
01000000
00000000
00000000
01000000
00000000
00000000
01000000
00000000
,  // measure 19
00000000
00010000
00001000
00000010
00000000
00001000
00000010
00000100
,  // measure 20
00000010
00000000
00000000
00000000
00000001
00000000
00000100
00000000
00000010
00000000
00000000
00000010
00000000
00000000
00000010
00000000
,  // measure 21
00000000
00001000
00000100
00000010
00000000
00000100
00001000
00000100
,  // measure 22
00010000
00000000
00001000
00001000
00000000
00000000
00010000
00010000
,  // measure 23
00000000
00001000
00000000
00011000
00000000
00010000
02000000
00000000
,  // measure 24
13000000
00100000
00010000
00001000
,  // measure 25
00010000
00001000
00000100
00000001
,  // measure 26
00000010
00001000
00010000
00001000
,  // measure 27
00010000
01000000
10000000
00100000
,  // measure 28
01100000
01000000
00001000
00010000
,  // measure 29
00011000
00001000
00010000
00000010
,  // measure 30
00000110
00000100
00000001
00001000
,  // measure 31
00001001
00000001
00000010
00001000
,  // measure 32
00010000
00001000
00010000
00000000
00001000
00010000
00001000
00000000
,  // measure 33
00010000
00000000
00001000
00000000
00010000
00000000
00000000
00010000
00000000
00000000
00010000
00000000
01000000
00000000
20000000
00000000
,  // measure 34
00000000
30100000
00010000
00002000
00000000
00010000
00013000
00000000
,  // measure 35
00011000
00000000
00010000
00000100
00000000
00010000
00001000
00000000
,  // measure 36
00010000
00000000
00001000
00100000
00000000
00001000
00010000
00000000
,  // measure 37
00001000
00000000
00010000
00000010
00000000
00010000
00001000
00100000
,  // measure 38
00000000
00010000
00200000
00000000
00302000
00000000
00023000
00000000
,  // measure 39
00030010
00000000
00000010
00001000
00000000
00000100
00001000
00000000
,  // measure 40
00001010
00000000
00000100
00000000
00000101
00000000
00000001
00000010
,  // measure 41
00002000
00000000
00000000
00013000
00000000
00010000
01000000
10000000
,  // measure 42
00010000
00100000
00001000
00010000
,  // measure 43
00011000
00000000
00000000
00000000
,  // measure 44
00000000
00000000
00000000
00000000
00000000
00000000
00000000
00000001
,  // measure 45
00000001
00000010
00001000
00010000
,  // measure 46
00001000
00010000
01000000
10000000
,  // measure 47
00100000
00010000
00001000
00010000
,  // measure 48
00001000
00000100
00000001
00000010
,  // measure 49
00000110
00000100
00010000
00001000
,  // measure 50
00011000
00010000
00001000
00100000
,  // measure 51
01100000
01000000
10000000
00010000
,  // measure 52
10010000
10000000
00100000
00010000
,  // measure 53
00001000
00010000
00001000
00000000
00010000
00001000
00010000
00000000
,  // measure 54
00001000
00000000
00010000
00000000
00001000
00000000
00000000
00001000
00000000
00000000
00001000
00000000
00000100
00000000
00000002
00000000
,  // measure 55
00000000
00000013
00001000
00020000
00000000
00001000
00031000
00000000
,  // measure 56
00011000
00000000
00001000
01000000
00000000
00001000
00010000
00000000
,  // measure 57
00001000
00000000
00010000
00000010
00000000
00010000
00001000
00000000
,  // measure 58
00010000
00000000
00001000
00100000
00000000
00001000
00010000
00000010
,  // measure 59
00000000
00001000
00000020
00000000
00020030
00000000
00032000
00000000
,  // measure 60
00103000
00000000
00100000
00010000
00000000
01000000
00010000
00000000
,  // measure 61
00110000
00000000
01000000
00000000
11000000
00000000
10000000
00100000
,  // measure 62
00020000
00000000
00000000
00031000
00000000
00001000
00000100
00000001
,  // measure 63
00001000
00000000
00000000
00000000
00000010
00000000
00000000
00000000
00000100
00000000
00000000
00000100
00000000
00000000
00000100
00000000
,  // measure 64
00001000
00010000
01000000
00000000
00010000
00000000
00001000
00000000
,  // measure 65
00010000
00001000
00000100
00000000
00001000
00000000
00010000
00000000
,  // measure 66
00001000
00010000
00100000
00000000
00010000
00000000
00001000
00000000
,  // measure 67
00010000
00001000
00000010
00000000
00001000
00000010
00000001
00000000
,  // measure 68
00000100
00001000
00010000
00000000
00100000
00000000
10000000
00000000
,  // measure 69
01000000
00100000
00010000
00000000
00001000
00000100
00000010
00000000
,  // measure 70
00000011
00000000
00000001
00000100
00000000
00000010
00000100
00000010
,  // measure 71
00001000
00000100
00010000
00001000
,  // measure 72
00011000
00010000
01000000
10000000
,  // measure 73
00100000
00010000
00001000
00000100
,  // measure 74
00000101
00000001
00000010
00001000
,  // measure 75
00011000
00010000
01000000
10000000
,  // measure 76
00100000
01000000
00100000
01000000
00001000
00010000
00001000
00010000
,  // measure 77
00000010
00000100
00000010
00000100
00000001
00000000
00002002
00000000
,  // measure 78
00003003
00000000
00000000
00000000
;
