#TITLE:Castle In The Sky;
#SUBTITLE:;
#ARTIST:Kim Petras;
#TITLETRANSLIT:;
#SUBTITLETRANSLIT:;
#ARTISTTRANSLIT:;
#GENRE:;
#CREDIT:Braeden;
#MUSIC:Castle In The Sky.ogg;
#BANNER:ban.png;
#BACKGROUND:bg.png;
#CDTITLE:;
#SAMPLESTART:96.483;
#SAMPLELENGTH:12.000;
#SELECTABLE:YES;
#OFFSET:0.004;
#BPMS:0.000=169.000;
#STOPS:142.000=0.355
,269.000=0.355
;
#BGCHANGES:;
#FGCHANGES:;

//--------------- dance-single - ----------------
#NOTES:
     dance-single:
     :
     Beginner:
     3:
     0.093,0,0.045,0,0:
0000
0000
0000
0000
,
0000
0000
0000
0000
,
0000
0000
0000
0000
,
0000
0000
0000
0000
,
0001
0000
1000
0000
,
0001
0000
0000
0000
,
0200
0000
0300
0000
,
0010
0000
0010
0000
,
1000
0000
0001
0000
,
0100
0000
0000
0000
,
0002
0000
0003
0000
,
0010
0000
0010
0000
,
0002
0000
0003
0000
,
2000
0000
3000
0000
,
0020
0000
0030
0000
,
0200
0000
0300
0000
,
0001
0000
1000
0000
,
0010
0000
0000
0000
,
0200
0000
0300
0000
,
0010
0000
0010
0000
,
1000
0000
0000
0001
,
0000
0000
0100
0000
,
0010
0000
0000
1000
,
0000
0000
0000
0000
,
0001
0000
0000
1000
,
0000
0000
0001
0000
,
0100
0000
0000
0001
,
0000
0000
0000
0000
,
0000
1000
0000
0010
,
0000
0100
0000
0001
,
0000
1000
0000
0010
,
0000
1000
0000
0001
,
0000
0100
0000
0010
,
0000
0100
0000
0001
,
0000
1000
0000
0000
,
0001
0000
0000
1001
,
0000
0000
0000
1000
,
0000
0000
0000
0020
,
0000
0030
0000
0010
,
0000
0010
0000
1000
,
0000
0000
0000
0001
,
0000
0000
0000
0200
,
0000
0300
0000
0010
,
0000
0010
0000
1001
,
0000
0000
0000
1000
,
0000
0000
0000
0002
,
0000
0003
0000
0010
,
0000
0100
0000
0010
,
0000
0000
0000
0001
,
0000
0000
0000
2000
,
0000
3000
0000
0010
,
0000
0010
0000
1000
,
0000
0000
0010
0000
,
0000
0100
0000
0010
,
0000
0000
1000
0000
,
0000
0000
0000
0001
,
0000
0000
0100
0000
,
0000
0010
0000
0100
,
0000
0000
0010
0000
,
0000
0000
1000
0000
,
0001
0000
0100
0000
,
0001
0000
1000
0000
,
0010
0000
0100
0000
,
0001
0000
0000
2000
,
0000
3000
0000
0020
,
0000
0030
0000
0200
,
0000
0300
0000
0000
,
0000
0000
1001
0000
,
1000
0000
0001
0000
,
0000
0000
0200
0000
,
0300
0000
0010
0000
,
0010
0000
1000
0000
,
0001
0000
0100
0000
,
0000
0000
0200
0000
,
0300
0000
0010
0000
,
0010
0000
1001
0000
,
0000
1000
0000
0000
,
0100
0000
0200
0000
,
0300
0000
0000
1000
,
0000
0001
0000
0100
,
0000
0010
0000
1000
,
0000
0002
0000
0000
,
0003
0100
0000
0010
,
0000
0000
1000
0000
,
0000
0002
0000
0003
,
0000
2000
0000
3000
,
0000
0020
0000
0030
,
0000
2000
0000
3000
,
0000
0001
0000
0000
,
0000
0100
0000
0000
,
0000
0010
0000
0000
;

//--------------- dance-single - ----------------
#NOTES:
     dance-single:
     :
     Easy:
     6:
     0.238,0,0.068,0.151,0:
0000
0000
0000
0000
,
0000
0000
0000
0000
,
0000
0000
0000
0000
,
0000
0000
0000
0000
,
1000
0001
0100
0000
,
0010
1000
0001
2000
,
0000
0000
3000
0001
,
0010
0001
0010
0001
,
1000
0010
1000
0000
,
0001
0100
0010
2000
,
0000
0000
3000
0001
,
0010
0001
0010
0001
,
2000
0000
0000
0000
,
3002
0000
0000
0000
,
0203
0000
0000
0000
,
0310
1000
0001
1000
,
1001
0001
0100
0000
,
0001
1000
0010
2000
,
0000
0000
3000
0001
,
0010
0001
0010
0001
,
1000
0100
1000
0100
,
0010
0001
1000
0020
,
0130
0001
0100
0010
,
1000
0001
0001
0010
,
0001
0010
0100
1000
,
0001
0100
0010
1000
,
0001
0100
0010
1000
,
0001
0100
0100
0010
,
1000
0001
1000
0010
,
1000
0000
0000
0001
0000
0000
1001
0000
,
1000
0010
0100
0001
,
0100
0000
0000
0010
0000
0000
1000
0000
,
0100
0010
0001
0010
,
0100
0000
0000
1000
0000
0000
0001
0000
,
1000
0010
1000
0001
,
1000
0010
1000
1001
,
0001
0100
0000
0010
,
1000
0001
0200
0000
,
0000
0300
0001
0010
,
0001
0010
0100
0010
,
0001
1000
0000
0010
,
0100
0001
2000
0000
,
0000
3000
0001
0010
,
0001
0010
0100
1100
,
1000
0010
1000
0001
,
0010
0001
0100
0020
,
1000
1030
0100
0010
,
0100
1000
0001
1001
,
1000
0010
0000
0100
,
0001
0010
0001
2000
,
0000
3000
0100
0010
,
0001
0010
0001
1000
,
1000
0010
0100
0100
,
0001
0010
0010
0100
,
0010
0001
1000
0010
,
0100
0100
0001
1000
,
1001
0001
0100
0010
,
1000
0001
0001
1000
,
0010
1000
0001
0100
,
0001
0001
1000
0001
,
1000
0010
0100
0001
,
0000
0100
0000
0000
0010
0000
1000
0000
,
0001
0010
0100
0010
,
0000
0001
0000
0000
1000
0000
1002
0000
,
0000
0000
0003
0200
,
0000
0000
0300
0020
,
0000
0000
1030
0001
,
1000
0001
1001
1000
,
0010
0000
0100
0001
,
0010
0002
0000
0000
,
0003
1000
0010
1000
,
0010
0100
0001
1000
,
0001
0000
0010
0100
,
1000
0001
2000
0000
,
3000
0001
0010
0001
,
0010
0001
2001
3001
,
0010
0200
1300
1010
,
0010
0200
0000
0000
,
0300
0001
1000
0010
,
1000
0001
0100
0010
,
1000
0000
0001
0010
,
0100
2000
0000
0000
,
3000
0001
0010
0001
,
0010
0001
1000
0100
,
1000
0000
0001
2000
0000
0000
0000
0000
,
3000
0000
0001
0200
0000
0000
0000
0000
,
0300
0000
0010
2000
0000
0000
0000
0000
,
3000
0000
0001
0200
0000
0000
0000
0000
,
0300
0000
0001
2000
0000
0000
0000
0000
,
3000
0000
0010
0200
0000
0000
0000
0000
,
0300
0000
0001
2000
0000
0000
0000
0000
,
3000
0001
0000
0000
;

//--------------- dance-single - XO JA ----------------
#NOTES:
     dance-single:
     XO JA:
     Medium:
     10:
     0.361,0,0.06,0.113,0:
0000
0000
0000
0000
,
0000
0000
0000
0000
,
0000
0000
0000
0000
,
0000
0000
0000
0000
,
1001
0000
0001
0000
0100
0100
0000
0001
,
0010
0001
1000
0010
1000
0100
0010
0001
,
2000
0000
0000
0000
3000
0000
0001
0001
,
0010
0000
0001
0001
0010
0000
0100
0000
,
1100
0000
1000
0000
0001
0001
0000
0100
,
0010
0100
0001
0100
0010
0100
0001
1000
,
0020
0000
0000
0000
0030
0000
1000
0001
,
0010
0000
0001
1000
0010
0000
1000
0000
,
2001
0001
3010
0200
,
0001
0000
0301
0000
1000
0000
0010
1000
,
0002
0000
0000
0000
0003
0000
1000
0010
,
0000
1000
0001
0000
0100
0000
0001
0000
,
0101
0000
0100
0000
0010
0010
0000
1000
,
0100
0010
0100
1000
0100
0010
0100
1000
,
0002
0000
0000
0000
0003
0000
1000
1000
,
0010
0000
0100
0100
0010
0000
1000
0000
,
0001
0100
1000
0000
0100
0000
0001
0010
,
1000
0000
0010
0000
0001
0100
0002
0000
,
1003
0100
0001
0000
0100
0000
0010
0001
,
1000
0010
0100
0001
,
1000
0001
0010
0000
0100
0000
1000
0100
,
0002
0000
0103
0000
0010
0001
1000
0000
,
0001
0100
0002
0000
0003
1000
0100
1000
,
0001
0100
0010
0100
,
0001
0010
0001
0000
1000
0000
1000
0001
,
0100
1000
0100
0010
2000
0000
3001
0000
,
0100
0010
0100
0000
0001
0000
1000
0001
,
0100
1000
0100
0010
0100
0000
0001
0000
,
1000
0010
1000
0000
0001
0000
1000
0100
,
0001
0100
1000
0001
0200
0000
0310
0000
,
1000
0000
1001
0000
0001
0000
0100
0010
,
0100
0001
1M01
1001
,
1000
0000
0010
0010
0000
1000
0100
1000
,
0001
0010
0001
0100
0001
0200
0000
0000
,
0000
0000
0300
0000
0001
1000
0010
0000
,
1000
0001
0010
0000
0001
0000
1001
0000
,
1000
0000
0010
0010
0000
1000
0100
0010
,
0100
1000
0100
0010
0100
0020
0000
0000
,
0000
0000
0030
0000
0001
0001
0010
0000
,
0001
0001
0010
0000
0100
0000
1200
0000
,
1000
0310
0012
1000
,
0103
0000
0001
0000
1000
0010
0200
0000
,
0010
0000
0310
0000
1000
0001
0000
0010
,
0001
1000
0001
1001
,
1000
0000
0010
0010
0000
1000
0100
0010
,
0100
1000
0100
0010
0001
2000
0000
0000
,
0000
0000
3000
0000
0001
1000
0010
0000
,
1000
0001
0010
0000
0001
0000
1000
0100
,
0001
0000
0100
0000
0010
0001
1000
0000
,
0001
0000
0100
0010
0100
0000
0001
0100
,
1000
0000
0100
0000
0010
1000
0100
0000
,
0010
0000
0001
0000
0010
0000
0001
0100
,
0010
0000
0001
0000
0010
1000
0001
0000
,
1000
0000
0001
0100
0010
1000
0001
0010
,
0100
0000
1000
0000
0001
0100
0001
0000
,
1000
0000
0010
0000
1000
0000
0001
0100
,
0001
0000
1000
0000
0001
0100
1000
0100
,
0010
1000
0002
0000
1003
0000
0001
0100
,
0001
0000
1000
0000
0001
0100
0010
0001
,
0010
0100
0002
0000
1003
0000
2010
0000
,
3010
0100
0001
2000
,
3000
0010
0000
0000
0100
0000
0001
0000
,
1000
0000
0010
0000
1000
0001
1000
0000
,
0010
1M00
2001
3001
,
0100
0100
0000
0001
0010
0100
1000
0100
,
0010
0001
1000
0020
0000
0000
0000
0000
,
0030
0000
1000
0001
0010
0000
0001
1000
,
0010
0100
0201
0310
,
1000
1000
0000
0001
0100
0010
0100
0001
,
0100
0010
0100
0020
0000
0000
0000
0000
,
0030
0000
1000
1000
0010
0000
1000
0001
,
0010
0000
0100
0000
2001
0000
3001
0010
,
0000
0000
2100
0000
3001
0100
0010
0000
,
1000
0000
0001
0100
0010
0000
0110
0000
,
0100
0000
0001
0010
0000
0001
1000
0000
,
0010
1010
1001
0001
,
0100
0100
0000
0001
0010
0100
0010
0001
,
1000
0010
0100
0002
0000
0000
0000
0000
,
0003
0000
1000
0001
0010
0000
0001
1000
,
0010
0000
1000
0000
0001
0010
0001
0000
,
1000
0000
0001
0002
0000
0000
0103
0000
,
0010
0000
1000
2000
0000
0000
3010
0000
,
0100
0000
0001
0002
0000
0000
0103
0000
,
0010
0000
1000
1000
0020
0000
0000
0000
,
0000
0000
0100
0230
0000
0000
0000
0000
,
0000
0000
0010
0320
0000
0000
0000
0000
,
0000
0000
1000
2030
0000
0000
0000
0000
,
0000
0000
3100
0001
0000
0000
0000
0000
;

//--------------- dance-single - XO+ DS FS ----------------
#NOTES:
     dance-single:
     XO+ DS FS:
     Hard:
     13:
     0.69,0,0.143,0.09,0.143:
0000
0000
0000
0000
,
0000
0000
0000
0000
,
0000
0000
0000
0000
,
0000
0000
0000
0000
,
1001
0000
1000
0000
0001
0001
0000
1000
,
0001
0100
1000
0100
0010
1000
0001
1000
,
0200
0000
0000
0000
0000
0000
1300
0001
,
0010
00M0
1000
0001
0010
0000
0001
0000
,
1001
0000
1000
0000
0100
0100
0000
1000
,
0100
0010
1000
0010
0001
1000
0001
0010
,
0200
0000
0000
0000
0300
0000
1000
0001
,
0010
00M0
1000
0001
0010
0000
0001
0000
,
2000
0000
3001
0100
0001
0000
2000
0000
,
3001
0010
0002
0000
1003
0000
0001
0100
,
0020
0000
0000
0000
0030
0000
1000
0001
,
0000
0010
0001
0000
2000
0000
3100
0000
,
1100
0000
1000
0000
0100
0100
0000
1000
,
0001
0100
1000
0100
0001
1000
0100
0010
,
0002
0000
0000
0000
0003
0000
1000
0100
,
0010
00M0
1000
0100
0010
0000
0001
0000
,
1000
0000
0100
00M0
0100
0000
0001
0000
0010
0000
0100
0000
1000
0000
0100
00M0
,
0100
0001
0100
0010
1000
0001
2000
0000
,
3001
0000
0100
00M0
0100
0000
1000
0000
0010
0000
1000
0000
0001
0000
1000
0000
,
0100
0110
0011
1001
,
0001
0000
0010
0M00
0010
0000
1000
0000
0001
0000
1000
0000
0001
0000
0010
0M00
,
0010
0100
0010
1000
0001
1000
0001
0001
,
1000
0000
0100
00M0
0200
0000
0000
0000
0301
0000
1000
0000
0001
0000
0100
0000
,
0010
0000
1010
0000
1001
0000
0101
0001
,
1000
0100
0001
0100
0010
0001
1000
0001
,
0100
1000
0001
0010
2000
0000
3001
0010
,
1000
0010
0100
1000
0001
0100
0010
1000
,
0100
0001
1000
0010
0002
0000
1003
0001
,
1000
0100
0001
0100
0010
0100
1000
0001
,
0100
1000
0001
0010
2000
0000
3001
0000
,
1000
0100
0010
0001
0010
0100
1000
0010
,
1010
0110
M101
1001
,
0001
0000
0100
0100
0000
0001
1000
0100
,
0001
0100
1000
0010
1000
0001
0200
0000
,
0000
0000
0300
0000
0001
1000
0010
00M0
,
0001
1000
0010
0000
1000
0000
1001
0000
,
0001
0000
0100
0100
0000
0001
0010
1000
,
0010
0100
0010
0001
1000
0010
2000
0000
,
0000
0000
3000
0000
1000
0100
0010
00M0
,
1000
0100
0010
0000
0001
0000
2001
0000
,
3001
0010
0001
0000
0200
0000
0310
1000
,
0010
0000
1000
0000
0001
0100
0002
0000
,
0100
0000
1003
0000
0001
0100
0000
0001
,
1000
0010
1000
1001
,
0001
0000
1000
1000
0000
0001
0100
1000
,
0100
0010
0100
0001
0100
0010
2000
0000
,
0000
0000
3000
0000
0001
1000
0100
0M00
,
0001
0000
1000
0000
0010
0000
1000
0000
0001
0100
0001
0000
1000
0000
0100
00M0
,
0100
0000
0001
0000
0100
0000
0001
0000
1000
0000
0100
00M0
0200
0000
0000
0000
,
0301
0000
1000
0000
0001
0000
0010
0000
0002
0000
0000
0000
1003
0000
0010
0M00
,
0010
0001
1000
0010
1000
0100
0010
0000
,
0011
0000
0000
0000
1001
0000
0000
0000
1010
0000
0000
0000
1000
0000
0100
00M0
,
0100
0000
0001
0000
1000
0000
0010
0000
1000
0000
0010
0M00
0010
0000
0001
0000
,
0010
0000
0001
0010
1000
0010
0100
1000
,
0002
0000
1003
0000
0001
0100
0010
0000
,
1010
0000
0001
1000
0001
1000
0001
0010
,
1000
0010
0100
1000
0001
1000
0100
0001
,
1000
0010
0002
0000
1003
0001
0010
1000
,
0010
0100
1000
0001
1000
0001
0010
1000
,
0001
0100
2000
0000
3001
0100
0002
1000
,
1003
0100
0010
0100
1000
0001
0010
1000
,
0001
0100
1000
0000
0001
0000
2002
0000
,
0000
0000
3003
0000
0001
1000
0100
0000
,
0011
0000
1M01
0000
1100
1000
0100
0010
,
0001
0001
1000
0001
0100
1000
0100
0010
,
0100
0001
1000
0100
1000
0001
1000
0010
,
1000
0001
2000
0010
3010
1000
0002
0010
,
0013
0001
0100
0000
0010
1000
0010
1000
,
0001
0001
0010
0001
0100
1000
0100
0010
,
0100
0001
0100
0010
2000
0000
0100
0000
,
3001
0000
0002
0010
0013
0001
2000
0010
,
3010
0000
0100
0000
0001
0010
0100
0010
0001
0000
0010
0000
1000
0000
0010
0000
,
0001
1000
0002
0010
1003
0002
0010
1003
,
0001
0100
0010
1000
0001
0000
0101
0000
,
0100
0000
1010
0010
0000
1000
1001
0000
,
0001
0000
0101
0000
0100
0010
0100
0001
,
0010
0010
0001
1000
0100
0001
0100
0010
,
0001
1000
0010
0100
0002
0000
0100
0000
,
1003
0000
1000
0001
0010
0010
0100
1000
,
0010
0000
0010
0000
0100
0001
0100
0001
0100
0000
0001
0000
0100
0000
0010
0000
,
1000
0001
0100
1000
0100
0010
1000
0001
,
0100
0001
0010
1000
0010
0100
1000
0010
,
1000
0001
0010
1000
0010
0100
1000
0001
,
0100
0010
0100
1000
0200
0000
0000
0000
,
0000
0000
0001
0320
0000
0000
0000
0000
,
0000
0000
0100
2030
0000
0000
0000
0000
,
0000
0000
0010
3002
0000
0000
0000
0000
,
0000
0000
0013
1001
0000
0000
0000
0000
;

//--------------- dance-double - XO FS ----------------
#NOTES:
     dance-double:
     XO FS:
     Hard:
     13:
     0,0,0,0,0:
00000000
00000000
00000000
00000000
,
00000000
00000000
00000000
00000000
,
00000000
00000000
00000000
00000000
,
00000000
00000000
00000000
00000000
,
00011000
00000000
00001000
00000000
01000000
01000000
00000000
00100000
,
10000000
01000000
00010000
01000000
00100000
00010000
00100000
00002000
,
00000000
00000000
00000000
00000000
00003000
00000000
00010000
00000100
,
00000010
00000000
00000001
00001000
00000010
00000000
00010000
00000000
,
00011000
00000000
00001000
00000000
01000000
01000000
00000000
00100000
,
10000000
00100000
00010000
00100000
10000000
00100000
01000000
00002000
,
00000000
00000000
00000000
00000000
00003000
00000000
00010000
00000100
,
00000010
00000000
00000001
00001000
00000010
00000000
00000100
00000000
,
00001001
00000001
00000010
00000100
00010000
00000100
00010000
00001000
,
00011000
00010000
00001000
01000000
00100000
10000000
00010000
01000000
,
02200000
00000000
00000000
00000000
03300000
00000000
01000000
00010000
,
00200000
00001000
00301000
00000000
00010000
00000000
00000010
00000000
,
00001001
00000000
00000001
00000000
00000100
00000100
00000000
00000001
,
00000100
00001000
00000100
00000010
00001000
00000100
00010000
00000200
,
00000000
00000000
00000000
00000000
00000300
00000000
00010000
00001000
,
00100000
00000000
00010000
10000000
00100000
00000000
10000000
00000000
,
00010000
00000000
01000000
00M00000
01000000
00000000
10000000
00000000
00100000
00000000
01000000
00000000
00010000
00000000
00100000
0M000000
,
00100000
01000000
00001000
00010000
00000010
00001000
00000002
00000000
,
00001003
00000100
00000010
00000100
00001000
00000100
00010000
00001000
,
01000000
01010000
00110000
00011000
,
00001000
00000000
00010000
00M00000
00010000
00000000
00100000
00000000
00010000
00000000
01000000
00000000
00001000
00000000
00010000
00M00000
,
00010000
00100000
00001000
00010000
00000010
00001000
00000002
00000000
,
00001003
00000000
00000010
00000M00
00000010
00000000
00000001
00000000
00001000
00000000
00000010
00000000
00001000
00000000
00000001
00000000
,
00000010
00000011
00001001
00001100
,
00000100
00001000
00010000
00001000
00000100
00100000
00010000
10000000
,
01000000
00010000
00001000
00000010
00000002
00000000
00000103
00000010
,
00000001
00000010
00001000
00000100
00000010
00000001
00001000
00000001
,
00000100
00001000
00010000
00100000
20000000
00000000
30010000
00100000
,
00010000
00001000
00010000
00100000
00010000
01000000
00100000
10000000
,
01000000
00010000
00001000
00000010
00000002
00000000
00001003
00000000
,
00000010
00010000
00001000
00100000
00001000
01000000
00100000
10000000
,
10010000
00011000
MMMM1001
00000110
,
00001000
00000000
00000010
00000010
00000000
00001000
00010000
00001000
,
00000010
00000100
00000001
00001000
00000100
00020000
00000000
00000000
,
00000000
00000000
00030000
00000000
00001000
01000000
00100000
00000000
,
10000000
00010000
00100000
00000000
00010000
00000000
00110000
00000000
,
00010000
00000000
10000000
10000000
00000000
01000000
00100000
00010000
,
00001000
00010000
00100000
00010000
10000000
00200000
00000000
00000000
,
00000000
00000000
00300000
00000000
01000000
00001000
00100000
00000000
,
00001000
00010000
00000010
00000000
00001000
00000000
00002001
00000000
,
00000010
00000010
00003010
00021000
,
00000100
00000000
00000100
00000000
00030100
00010000
00002000
00000000
,
01000000
00000000
00013000
00000000
00001000
01000000
00000000
00100000
,
01000000
00001000
01000000
10010000
,
00010000
00000000
10000000
10000000
00000000
00100000
01000000
10000000
,
01000000
00100000
10000000
00010000
00100000
00002000
00000000
00000000
,
00000000
00000000
00003000
00000000
00010000
00000100
00000010
00000000
,
00000001
00000000
00001000
00000000
00000010
00000000
00001000
00000000
00000100
00001000
00000100
00000000
00001000
00000000
00000100
000000M0
,
00000100
00000000
00000001
00000000
00001000
00000000
00000010
00000000
00001000
00000000
00000100
000000M0
00000100
00000000
00000010
00000000
,
00010000
00000000
00001000
00000000
01000000
00000000
00100000
00000000
20000000
00000000
00000000
00000000
30010000
00000000
00100000
000M0000
,
00100000
01000000
00010000
01000000
00001000
00010000
00000100
00001000
,
00000001
00000010
00000100
00001000
00010000
00100000
00010000
10000000
,
10010000
00000000
00010000
00000000
01010000
01000000
00001000
00000000
,
00011000
00000000
00010000
00000010
00000100
00000001
00000010
00000100
,
00001100
00000000
00001000
00000000
00010100
00010000
00001000
00010000
,
00001000
01000000
00100000
01000000
00001000
01000000
00010000
01000000
,
10000000
01000000
00100000
01000000
00010000
10000000
00100000
00010000
,
00001000
00000100
00000002
00000000
00000103
00000010
00000001
00000010
,
00001000
00000010
00010000
00000100
00001000
00000001
00000010
00001000
,
00010000
01000000
20000000
00000000
30010000
00100000
00120000
00000000
,
00000000
00000000
00030000
00202000
,
00000000
00000000
00000000
00000000
00303000
00000000
00100000
00001000
,
00010000
00000100
00001000
00000001
00001000
00000010
00001000
00000000
,
00000100
00000000
0M010000
00000000
00011000
00001000
01000000
00100000
,
01000000
01000000
00001000
00010000
00100000
00010000
00001000
00010000
,
00001000
00000100
00001000
00010000
00000100
00001000
00000010
00001000
,
00000100
00001000
00000001
00001000
00000010
00010000
00001000
01000000
,
00100000
10000000
00010000
00000000
10010000
10000000
00100000
01000000
,
00010000
00010000
00100000
00010000
01000000
10000000
01000000
00100000
,
01000000
00010000
00100000
00001000
00010000
00000100
00010000
00000100
,
00001000
00000010
00001000
00000001
00000010
00000100
00010000
00001000
,
00100000
00000000
00010000
00000000
00100000
00001000
00100000
00001000
00010000
00000000
01000000
00000000
10000000
00000000
01000000
00000000
,
00100000
01000000
00001000
00010000
00001000
00010000
00000010
00000100
,
00001000
00000100
00000010
00001000
00000010
00000000
00001010
00000000
,
00001000
00000000
00001001
00001000
00000000
00000010
00001010
00000000
,
00001000
00000000
00010100
00000000
00010000
00001000
01000000
00100000
,
01000000
01000000
00010000
10000000
01000000
00010000
00001000
00000100
,
00001000
00000100
00010000
00001000
00010000
00000010
00000100
00000010
,
00000100
00000001
00001000
00000001
00000010
00000100
00000010
00000001
,
00000010
00000000
00000001
00000000
00001000
00000010
00001000
00000010
00001000
00000000
00000100
00000000
00000010
00000000
00000001
00000000
,
00001000
00001000
00000001
00000100
00001000
00010000
00001000
01000000
,
00010000
00010000
10000000
00100000
00010000
00001000
00010000
00000100
,
00001000
00001000
00000001
00000100
00001000
00010000
00001000
01000000
,
00100000
10000000
00001000
00010000
00002000
00000000
00000000
00000000
,
00000000
00000000
01000000
02003000
00000000
00000000
00000000
00000000
,
00000000
00000000
03000100
00000200
00000000
00000000
00000000
00000000
,
00000000
00000000
00010000
00020300
00000000
00000000
00000000
00000000
,
00000000
00030010
00000000
00000000
;
