#VERSION:0.83;
#TITLE:Canned Heat;
#SUBTITLE:;
#ARTIST:Jamiroquai;
#TITLETRANSLIT:;
#SUBTITLETRANSLIT:;
#ARTISTTRANSLIT:;
#GENRE:;
#CREDIT:;
#MUSIC:Canned Heat.ogg;
#BANNER:Canned Heat.png;
#BACKGROUND:Canned Heat-bg.png;
#CDTITLE:;
#SAMPLESTART:56.533;
#SAMPLELENGTH:15.000;
#SELECTABLE:YES;
#OFFSET:-0.311;
#BPMS:0.000=128.248
,17.000=128.205
,32.000=127.886
,48.000=127.773
,64.000=128.228
,80.000=127.943
,112.000=127.886
,128.000=128.571
,144.000=127.660
,152.000=128.285
,184.000=127.716
,216.000=127.962
;
#STOPS:;
#DISPLAYBPM:128.000;
#BGCHANGES:0.000=Canned Heat.avi=1.000=0=0=0=StretchNoLoop====,
99999.000=-nosongbg-=1.000=0=0=0=StretchNoLoop====
;
#FGCHANGES:;

//--------------- dance-single - TonyAkita + Evergreen ----------------
#NOTEDATA:;
#STEPSTYPE:dance-single;
#DESCRIPTION:TonyAkita + Evergreen;
#DIFFICULTY:Medium;
#METER:11;
#RADARVALUES:0.366325,0.410284,0.199443,0.284919,0.085476,270,249,21,30,0,0,0.366325,0.410284,0.199443,0.284919,0.085476,270,249,21,30,0,0;
#NOTES:
0000
0000
0000
0000
,
0000
0000
0000
0000
,
0000
0000
0000
0000
,
0000
0000
0000
0000
0001
0010
0100
0110
,
0000
0000
0010
0000
0001
0000
1000
0001
,
0100
0000
0001
0000
1000
0100
0010
0002
,
0000
0000
1003
0000
0010
0000
0100
0001
0000
0000
0000
0000
0000
0000
0020
0000
,
0000
0000
0100
0000
1030
0000
0001
1000
0000
0000
0001
0000
1000
0000
0002
0000
,
0000
0000
1003
0000
0010
0000
0100
0001
0000
0000
0000
0000
0000
0000
0020
0000
,
0000
0000
0130
0000
1000
0000
0001
1000
0000
0000
0001
0000
1000
0000
0000
0000
,
1001
0000
0000
0011
0000
0000
2000
0000
,
3200
0000
0302
0000
0023
0000
1030
0001
,
1000
0000
0000
0000
0001
0000
0000
0100
0000
0000
0001
0000
0010
0000
0000
0100
,
0000
0000
1000
0000
0010
0000
0000
0100
0000
0000
0001
0000
1000
0000
0000
0000
,
0010
0000
1000
0000
0001
0100
1000
0100
,
0001
0000
0000
0000
0010
0000
0000
0000
0100
0000
0000
0100
0000
0000
0100
0000
,
1000
0000
0100
0000
1000
0100
0010
0001
,
1000
0000
0000
0000
0001
0000
0000
0000
0100
0000
0000
0100
0000
0000
0100
0000
,
0001
0000
0100
0000
0001
1000
0010
1000
,
0001
0000
0000
0000
0010
0000
0000
0000
0100
0000
0000
0100
0000
0000
0100
0000
,
1000
0000
0010
0000
0100
0001
1000
0001
,
0011
1001
1010
1001
,
0001
0000
0100
0000
0010
1000
0001
0010
,
0001
0000
0000
0000
1000
0000
0000
0000
0200
0000
0000
0010
0000
0000
1300
0000
,
0000
0000
0001
0000
0100
0010
0100
0001
,
0010
0000
0000
0000
0100
0000
0000
0000
2000
0000
0000
3002
0000
0000
1003
0000
,
0000
0000
0100
0000
0010
0001
1000
0100
,
1000
0000
0000
0000
0001
0000
0000
0000
0200
0000
0000
0010
0000
0000
0301
0000
,
0000
1000
0100
0010
0100
1000
0100
0010
,
0200
0300
0200
0300
0200
0300
0100
0000
,
2002
0000
3003
0000
0000
1000
0100
0010
,
0001
0100
0001
0010
0001
1000
0100
0000
,
0220
0000
0330
0000
0000
0010
0001
0100
,
0020
0000
0000
1030
0000
0000
0000
0000
0002
0000
0000
0013
0000
0000
0000
0000
,
0011
0000
1000
0001
,
1000
0100
1000
0010
1000
0100
0010
0001
,
0000
1001
0000
1010
0000
0100
0001
0100
,
1000
0100
0002
0000
0013
1000
0010
0001
,
0012
0000
0000
1003
0000
0000
1000
0000
,
0100
0001
0010
1000
,
2010
0000
0000
3001
0000
0000
0001
0010
,
0001
0100
1000
0010
,
0002
0000
0000
1003
0000
0000
0000
0001
,
1000
0000
0000
1000
0001
0100
0010
1000
,
0100
0010
0100
1000
,
0001
0100
0010
0000
1010
0000
1001
0000
,
0022
0000
0000
0000
0033
0000
0000
0000
0001
1000
0000
0000
0000
0000
0001
0000
,
0100
1000
0100
0001
0100
1000
0100
0010
,
2020
0000
3030
0000
1000
0000
0001
1000
,
0100
0001
0100
1000
0100
0001
0100
0010
,
0011
0000
0001
0100
,
0010
1000
0100
0010
0100
1000
0001
0100
,
0010
1000
0100
0001
,
0200
0010
1000
0310
,
0110
0000
0000
0000
;

//--------------- dance-single - TonyAkita + Evergreen ----------------
#NOTEDATA:;
#STEPSTYPE:dance-single;
#DESCRIPTION:TonyAkita + Evergreen;
#DIFFICULTY:Hard;
#METER:14;
#RADARVALUES:0.553557,0.615426,0.24693,0.74079,0.3514,408,382,26,78,9,0,0.553557,0.615426,0.24693,0.74079,0.3514,408,382,26,78,9,0;
#NOTES:
0000
0000
0000
0000
,
0000
0000
0000
0000
,
0000
0000
0000
0000
,
0000
0000
0000
0000
0000
0000
1000
0100
0010
0000
0001
0000
1000
0000
1001
0000
,
0000
0000
0001
0000
1000
0000
0010
0000
1000
0001
0010
0000
0001
1000
0010
0100
,
0000
0000
0100
0000
0001
0000
1000
0000
0001
0100
0001
0000
1000
0100
0020
0000
,
0000
0000
0001
0000
0130
0000
1000
0010
0000
0000
0100
0000
0010
0000
2000
0000
,
0000
0000
0010
0000
3001
0000
0010
0001
0000
0000
1000
0000
0001
0100
0020
0000
,
0000
0000
1000
0000
0130
0000
0001
0010
0000
0000
0100
0000
0010
0000
0002
0000
,
0000
0000
0010
0000
1003
0000
0010
1000
0000
0000
0001
0000
1000
0001
0000
0000
,
0011
0020
0000
0130
0000
0000
1000
0100
,
2000
0000
3020
0000
0032
0000
0103
1000
,
0000
0000
0200
0000
0000
1300
0010
0100
0001
0000
0200
0000
0000
0301
0010
0100
,
1000
0000
0200
0000
0000
1300
0001
0010
0001
0000
1000
0000
0010
1000
0010
0000
,
1000
0000
0100
0000
0001
0000
0100
0000
1000
0000
0010
0000
0100
0000
0001
0020
,
0030
002M
0030
0000
0000
0000
1000
0000
0020
0000
0000
0230
0000
0000
0301
0000
,
0000
1000
0010
1000
0010
0000
1000
0000
0001
0000
1000
0000
0100
0001
0000
0200
,
0000
0010
0000
1300
0000
0000
0001
0000
0010
0000
0000
0100
0000
0000
1000
0000
,
0001
0000
0100
0000
1000
0000
0100
0000
0001
0000
0010
0000
0100
0000
1000
0020
,
0030
M020
0030
0000
0001
0000
0100
0001
0200
0000
0000
0320
0000
0000
1030
0000
,
0000
0001
0010
0001
0010
0000
0100
0000
1000
0000
0010
0000
1000
0000
0001
0000
,
0011
1001
1010
1001
,
0001
0000
0100
0000
1000
0000
0100
0000
0001
0000
0100
0000
0010
0000
1000
0002
,
0003
0002
0003
0000
1000
0000
0010
0000
1010
0000
0000
0110
0000
0000
0101
0000
,
0001
0000
0000
0000
0000
0000
1000
0000
0000
0100
0000
0000
1000
0000
0000
0010
0000
0000
0000
0000
0000
0100
0000
0000
0000
0000
0000
0001
0000
0000
0100
0000
0000
0000
0000
0000
0001
0000
0000
0000
0010
0000
0000
0000
0100
0000
0000
0000
,
1000
0000
0001
0000
1000
0000
0010
0000
1010
0000
0000
0110
0000
0000
0101
0000
,
0001
0000
0010
0000
1000
0000
0010
0000
0001
0000
0100
0000
0010
0000
1000
0001
,
0000
0001
0000
0000
1000
0000
0100
0000
1100
0000
0000
1001
0000
0000
0101
0000
,
0001
1000
0010
0001
0010
1000
0001
1000
,
0200
0000
0301
0000
0200
0000
0310
0000
0200
0000
1300
0000
0100
1000
0001
0000
,
2002
0000
0000
0000
3003
0000
0000
0000
0000
0000
1000
0010
0100
0000
0001
0010
,
0100
0001
0000
0100
0000
1000
0000
0010
0000
0000
0100
0001
0000
0000
1100
0000
,
0022
0000
0000
0000
0033
0000
0000
0000
0000
0000
0010
0001
0100
0000
0010
1000
,
0200
0000
0000
0001
0000
0000
0301
0000
0200
0000
0000
1000
0000
0000
1300
0000
,
0110
0000
0000
0000
0000
0000
0001
0100
0001
0000
1000
0100
1000
0000
0001
0000
,
0020
1030
0020
0031
0020
0130
1000
0010
,
0000
0000
0100
0000
0001
0000
0010
0000
0000
0000
0100
1000
0010
0000
0100
0000
,
0002
0103
0020
0130
2000
3100
0020
0130
,
0002
0000
0010
0013
0000
00MM
1000
0000
,
0200
0302
0023
2030
,
3100
1000
0010
1000
0000
M0M0
0001
0100
,
0002
0203
2300
3020
,
0031
0000
1000
0000
0001
0000
0100
0000
0000
0000
0M0M
0000
0000
0000
1000
0010
,
1000
0000
0001
0000
0100
0000
0001
0010
0001
0000
1000
0000
0100
0000
1000
0000
,
0020
1030
0200
0301
0200
1300
0002
0103
,
2000
3100
0002
0013
0011
1000
1010
0001
,
1001
0000
1000
0000
0010
0000
0100
0001
1000
0001
0010
0000
0100
0000
1000
0000
,
0002
0203
2300
3002
0023
2030
3001
1000
,
1001
0000
2000
0000
0010
0000
3002
0000
0010
0000
1003
0010
1000
0000
0001
0000
,
2000
3200
0302
2003
3020
0032
1003
0001
,
1001
0000
0002
0000
0100
0000
2003
0000
0100
0000
3001
0100
0001
0000
2000
0000
,
3200
0320
0032
2003
3020
0230
0301
1000
,
1001
1000
0010
0100
0000
0001
0010
0100
,
1000
0000
0000
0000
0000
0000
0000
0000
0000
0000
0000
0000
0000
0000
0000
0000
0000
0000
0000
0000
0000
0000
0000
0000
0001
0000
0000
0000
0000
0000
0000
0000
0000
0000
0000
0000
0100
0000
0000
0000
0000
0000
0000
0000
0000
0000
0000
0000
0020
0000
0000
0000
0000
0000
0000
0000
0000
0000
0000
0000
0000
0000
0000
0000
0000
0000
0000
0000
0000
0000
0000
0000
1000
0000
0000
0000
0000
0000
0000
0000
0000
0000
0000
0000
0100
0000
0000
0000
0000
0000
0000
0000
0000
0000
0000
0030
0020
0000
0000
0000
0000
0000
0000
0000
0000
0000
0000
0000
0000
0000
0000
0000
0000
0000
0000
0000
0000
0000
0000
0000
0001
0000
0000
0000
0000
0000
0000
0000
0000
0000
0000
0000
0100
0000
0000
0000
0000
0000
0000
0000
0000
0000
0000
0030
0010
0000
0000
0000
0000
0000
0000
0000
0000
0000
0000
0000
0000
0000
0000
0000
0000
0000
0000
0000
0000
0000
0000
0000
1000
0000
0000
0000
0000
0000
0000
0000
0000
0000
0000
0000
0000
0000
0000
0000
0000
0000
0000
0000
0000
0000
0000
0000
,
1001
0000
0000
0000
;

//--------------- dance-single - EverSpeen + TonyAkita (HS+, SP+) ----------------
#NOTEDATA:;
#STEPSTYPE:dance-single;
#DESCRIPTION:EverSpeen + TonyAkita (HS+, SP+);
#DIFFICULTY:Edit;
#METER:16;
#RADARVALUES:0,0,0,0,0;
#NOTES:
0000
0000
0000
0000
,
0000
0000
0000
0000
,
0000
0000
0000
0000
,
0000
0000
0000
0000
0000
0000
0001
0100
0010
0000
1000
0000
0001
0000
1001
0000
,
1000
0000
0100
0000
0010
0000
0001
0100
0020
0000
1000
0100
0030
0001
1000
0010
,
0000
0000
M010
0000
0001
0000
0000
0000
1000
0000
0000
0000
0001
0000
0010
0000
0200
0000
0000
0000
1000
0000
0010
0000
0000
0300
0001
0000
0020
0000
0000
0000
,
0000
0000
0000
0000
0130
0000
0000
0000
1000
0000
0000
0000
0001
0000
0200
0000
0000
0000
0000
0000
0001
0000
1000
0000
0000
0300
0010
0000
0002
0000
0000
0000
,
0000
0000
0013
0000
001M
0000
1000
0020
0000
0000
0130
0000
0001
1000
0020
0000
,
0000
0000
0000
0000
0130
0000
0000
0000
0001
0000
0000
0000
1000
0000
0200
0000
0000
0000
0000
0000
1000
0000
0001
0000
0000
0300
0010
0000
2000
0000
0000
0000
,
0000
0000
3010
0000
M010
0000
0001
0020
0000
0000
0130
0000
1000
0001
0000
0000
,
1001
1000
0100
0001
0100
1000
0001
0100
,
2000
0000
3020
0000
0032
0000
0203
0301
,
0100
0000
0001
1000
0001
0000
1000
0010
1000
0000
0001
0010
0001
0000
1000
0100
,
0100
0000
0001
0100
0100
0000
1000
0010
0010
0000
0001
0010
0010
1000
0010
0000
,
1010
0000
1000
0010
2000
0000
0010
0000
3001
0000
0010
0000
0001
0000
1000
0010
,
0000
M010
0001
0000
1000
0000
0001
0010
0002
0000
0000
0023
0000
0000
0230
0000
,
1300
0001
0010
0010
1000
0000
0001
0000
1000
0000
0010
0000
0100
0001
0000
0200
,
0000
1000
0000
0010
0300
0001
1000
0100
0020
0000
0000
0230
0000
0000
2300
0000
,
3001
0000
0100
0001
0100
0000
0001
0000
0010
0000
0100
0000
1000
0000
0001
0100
,
0000
010M
1000
0000
0010
0000
1000
0010
2000
0000
0000
3200
0000
0000
0320
0000
,
0031
0000
1000
0100
1000
0000
0001
0000
0010
0000
1000
0000
0100
0000
0001
0000
,
1000
0000
0001
0100
0020
0000
1000
0100
0000
0000
0031
0010
0200
0000
1000
0010
,
0000
0000
0301
0010
0002
0000
0010
0000
1003
0000
0010
0000
1000
0000
0001
0010
,
0000
001M
1000
0000
0001
0000
1000
0010
2010
0000
3000
1002
0000
0003
0201
0000
,
0301
0000
0000
0000
0000
0000
0000
0000
0000
0000
0000
0000
0000
0000
0000
0000
0000
0000
0000
0000
0000
0000
0000
0000
0010
0000
0000
0000
0000
0000
0000
0000
0000
0000
0000
0000
0100
0000
0000
0000
0000
0000
0000
0000
0000
0000
0000
0000
1000
0000
0000
0000
0000
0000
0000
0000
0000
0000
0000
0000
0000
0000
0010
0000
0000
0000
0000
0000
0000
0000
0000
0000
0000
0000
0000
0000
0000
0000
0100
0000
0000
0000
0000
0000
0000
0000
0000
0000
0000
0000
0000
0000
0000
0000
0000
0000
0000
0000
0000
0000
0000
0000
0000
0000
0000
0000
0000
0001
0000
0000
0000
0000
0000
0000
0000
0000
0000
0000
0000
0000
0000
0000
0010
0000
0000
0000
0000
0000
0000
0000
0000
0000
0000
0000
0000
0000
0000
0000
0000
1000
0000
0000
0000
0000
0000
0000
0000
0000
0010
0000
0000
0000
0000
0000
0000
0000
0000
0000
0000
0000
0000
0000
0000
0000
0000
0000
0000
0001
0000
0000
0000
0000
0000
0000
0000
0000
0000
0000
0000
0000
0000
0000
0000
0000
0000
0000
0000
0000
0000
0000
0000
1000
,
0000
0000
0000
0000
0000
0000
0000
0001
0000
0000
0000
0000
0000
0000
0000
0000
0000
0000
0000
0000
0000
0000
0000
0000
0010
0000
0000
0000
0000
0000
0000
0000
0000
0000
0000
0000
0001
0000
0000
0000
0000
0000
0000
0000
0000
0000
0000
0000
0012
0000
0000
0000
0000
0000
0000
0000
0000
0000
0000
0000
0003
0000
0000
0000
0000
0000
2001
0000
0000
0000
0000
0000
0000
0000
0000
0000
0000
0000
3000
0000
0000
0000
0000
0000
1200
0000
0000
0000
0000
0000
0000
0000
0000
0000
0000
0000
,
1300
0000
0010
0100
0001
0000
0010
0100
1000
0000
0001
0100
1000
0000
0001
0010
,
1000
0001
0000
0010
0001
0000
1000
0100
2100
0000
3000
1002
0000
0003
0021
0000
,
0031
0010
1000
0100
0001
1000
0001
1000
,
0100
0000
0100
0100
0100
0000
0100
0100
0100
0000
0100
0100
0100
0001
1000
0000
,
1001
0000
0000
0000
MMMM
0000
0020
0000
1030
0000
0100
0001
0100
0000
1000
0000
,
0010
0100
0000
0010
0000
0001
0000
0010
0000
0000
1000
0001
0100
0100
1000
0000
,
1001
0000
0000
0000
MMMM
0000
0001
0000
0010
1000
0010
0000
0001
0000
1000
0000
,
0200
0000
0000
0302
0000
0000
2003
0000
3200
0000
0000
0302
0000
0000
1003
0000
,
1001
0000
0001
0000
1000
0000
0001
0100
1000
0000
1000
0100
0001
0000
0010
0001
,
0020
2030
3200
0302
0023
1000
0130
0010
,
0000
0000
1000
0000
0100
0000
0010
0000
0000
0000
0001
0100
0001
0000
1000
0000
,
0200
2300
3020
0032
0203
2300
3020
2030
,
3001
0000
0010
0001
0100
0000
0010
1000
0100
0000
0010
0100
1000
0000
0001
0100
,
0020
0032
0203
2300
,
3001
0000
0010
0100
1000
0000
0010
0100
0001
0000
0010
0001
0100
0000
0010
0000
,
2000
3200
0302
0023
,
1030
0000
0001
0100
0001
0000
1000
0100
1000
0000
0001
0010
0001
0000
1000
0010
,
1000
0000
0010
0010
0001
0000
0010
0001
0010
0000
0001
1000
0100
0100
0001
1000
,
0200
0302
0023
2030
3200
0302
0023
2030
,
3002
0000
2003
0000
3002
0000
1003
0001
1001
0000
0110
0000
1001
0000
0110
0000
,
1001
0000
1000
0000
0010
0000
0100
0001
0010
0010
1000
0000
0100
0000
1000
0000
,
0002
0203
2300
3020
0032
0100
1003
0001
,
1001
0000
2000
0000
3020
0000
0032
0000
0203
0000
1300
0001
1000
0000
0001
0000
,
2000
3200
0302
0023
2030
0100
3001
1000
,
1001
0000
0002
0000
0023
0000
2030
0000
3200
0000
0301
1000
0001
0000
1000
0000
,
0002
0203
2300
3020
0032
0100
1003
0001
,
1001
0000
2000
0000
3200
0000
0302
0000
0023
0000
1030
0001
1000
0000
0010
1000
,
0200
0000
1300
0010
0002
0000
1003
0100
0020
0000
0032
0000
0203
0000
2300
0000
,
3001
0000
0000
0000
;
