#VERSION:0.83;
#TITLE:CUE CUE RESCUE;
#SUBTITLE:;
#ARTIST:TORIENA;
#TITLETRANSLIT:;
#SUBTITLETRANSLIT:;
#ARTISTTRANSLIT:;
#GENRE:Emergency core;
#CREDIT:tikal.;
#MUSIC:CUE CUE RESCUE.ogg;
#BANNER:CUE CUE RESCUE.png;
#BACKGROUND:CUE CUE RESCUE-bg.png;
#CDTITLE:cdtitle.png;
#SAMPLESTART:67.500;
#SAMPLELENGTH:24.000;
#SELECTABLE:YES;
#OFFSET:0.000;
#BPMS:0.000=160.000;
#STOPS:;
#WARPS:115.000=4.000;
#SPEEDS:0.000=1.000=0.000=0,
36.000=0.750=2.000=0,
38.000=1.000=2.000=0,
40.000=0.750=2.000=0,
42.000=1.000=2.000=0,
44.000=0.750=2.000=0,
46.000=1.000=2.000=0,
48.000=0.750=2.000=0,
50.000=1.000=1.000=0
;
#SCROLLS:0.000=1.000,
67.000=1.333,
67.500=0.667,
68.000=1.000,
82.000=0.500,
82.500=1.000,
82.750=2.000,
83.000=0.000,
83.250=2.000,
83.500=0.000,
83.750=2.000,
84.000=1.000,
115.000=4.000,
117.000=256.000,
118.000=1.000,
119.000=-1.000,
119.021=-0.958,
119.042=-0.917,
119.063=-0.875,
119.083=-0.833,
119.104=-0.792,
119.125=-0.750,
119.146=-0.708,
119.167=-0.667,
119.188=-0.625,
119.208=-0.583,
119.229=-0.542,
119.250=-0.500,
119.271=-0.458,
119.292=-0.417,
119.313=-0.375,
119.333=-0.333,
119.354=-0.292,
119.375=-0.250,
119.396=-0.208,
119.417=-0.167,
119.438=-0.125,
119.458=-0.083,
119.479=-0.042,
119.500=0.042,
119.521=0.083,
119.542=0.125,
119.563=0.167,
119.583=0.208,
119.604=0.250,
119.625=0.292,
119.646=0.333,
119.667=0.375,
119.688=0.417,
119.708=0.458,
119.729=0.500,
119.750=0.542,
119.771=0.583,
119.792=0.625,
119.813=0.667,
119.833=0.708,
119.854=0.750,
119.875=0.792,
119.896=0.833,
119.917=0.875,
119.938=0.917,
119.958=0.958,
119.979=1.000,
139.000=2.000,
139.167=0.500,
139.500=2.000,
139.667=0.500,
140.000=1.000,
152.000=2.000,
152.250=1.000,
152.500=0.500,
153.000=2.000,
153.250=1.000,
153.500=0.500,
154.000=2.000,
154.250=1.000,
154.500=0.500,
155.000=2.000,
155.250=1.000,
155.500=0.500,
156.000=1.000,
160.000=2.000,
160.250=1.000,
160.500=0.500,
161.000=2.000,
161.250=1.000,
161.500=0.500,
162.000=2.000,
162.250=1.000,
162.500=0.500,
163.000=2.000,
163.250=1.000,
163.500=0.500,
164.000=1.000,
168.000=2.000,
168.250=1.000,
168.500=0.500,
169.000=2.000,
169.250=1.000,
169.500=0.500,
170.000=2.000,
170.250=1.000,
170.500=0.500,
171.000=2.000,
171.250=1.000,
171.500=0.500,
172.000=1.000,
176.000=2.000,
176.250=1.000,
176.500=0.500,
177.000=2.000,
177.250=1.000,
177.500=0.500,
178.000=2.000,
178.250=1.000,
178.500=0.500,
179.000=2.000,
179.250=1.000,
179.500=0.500,
180.000=1.000,
182.000=0.500,
182.500=1.000,
182.750=2.000,
183.250=1.000,
183.500=0.500,
184.000=1.000,
248.000=2.000,
248.125=1.000,
248.250=0.500,
248.500=1.000,
249.000=2.000,
249.125=1.000,
249.250=0.500,
249.500=1.000,
250.000=2.000,
250.125=1.000,
250.250=0.500,
250.500=1.000,
251.000=2.000,
251.125=1.000,
251.250=0.500,
251.500=1.000,
256.000=2.000,
256.125=1.000,
256.250=0.500,
256.500=1.000,
257.000=2.000,
257.125=1.000,
257.250=0.500,
257.500=1.000,
258.000=2.000,
258.125=1.000,
258.250=0.500,
258.500=1.000,
259.000=2.000,
259.125=1.000,
259.250=0.500,
259.500=1.000,
264.000=2.000,
264.125=1.000,
264.250=0.500,
264.500=1.000,
265.000=2.000,
265.125=1.000,
265.250=0.500,
265.500=1.000,
266.000=2.000,
266.125=1.000,
266.250=0.500,
266.500=1.000,
267.000=2.000,
267.125=1.000,
267.250=0.500,
267.500=1.000,
272.000=2.000,
272.125=1.000,
272.250=0.500,
272.500=1.000,
273.000=2.000,
273.125=1.000,
273.250=0.500,
273.500=1.000,
274.000=2.000,
274.125=1.000,
274.250=0.500,
274.500=1.000,
275.000=2.000,
275.125=1.000,
275.250=0.500,
275.500=1.000
;
#TIMESIGNATURES:0.000=4=4;
#FAKES:114.750=0.208;
#ORIGIN:;
#PREVIEWVID:;
#JACKET:CUE CUE RESCUE-jacket.png;
#CDIMAGE:;
#DISCIMAGE:;
#LASTSECONDHINT:0.000000;
#BGCHANGES:;
#FGCHANGES:;

//--------------- dance-single - tikal. ----------------
#NOTEDATA:;
#STEPSTYPE:dance-single;
#DESCRIPTION:tikal.;
#DIFFICULTY:Medium;
#METER:12;
#RADARVALUES:0,0,0,0,0;
#NOTES:
0000
0000
0000
0000
,
0000
0000
0000
0000
,
0000
0000
0000
0000
,
0000
0000
0000
0000
,
0000
0000
0000
0000
,
1000
1000
1000
1000
,
0001
0001
0001
0001
,
0100
0100
0010
0010
,
0010
0000
0120
0000
0130
0001
1000
0100
,
0020
0000
0230
0000
,
2300
0000
3002
0000
,
0203
0000
0320
0000
,
0032
2003
3200
0310
,
1001
1000
0000
1000
,
MMMM
0000
0100
0000
0100
0010
1000
0001
,
MMMM
0001
0000
0001
,
MMMM
0000
0100
0000
0100
0010
0001
0000
,
MMMM
0010
1000
0100
0000
0100
1000
0000
,
MMMM
0100
0001
0010
0000
0010
0001
0000
,
0100
0100
0010
0010
,
1000
0001
1000
0001
0020
0000
0130
0100
,
MMMM
0001
0010
0001
MMMM
0100
1000
0100
,
MMMM
0001
0010
0001
0100
0100
0010
0010
,
MMMM
0001
0100
0001
MMMM
0010
1000
0010
,
MMMM
0000
0001
0000
0100
0000
0001
0000
0010
0000
0010
0000
0100
1000
0000
0000
,
MMMM
1000
0010
1000
MMMM
0100
0001
0100
,
MMMM
1000
0010
1000
0100
0100
0010
0010
,
MMMM
1000
0100
1000
MMMM
0010
0001
0010
,
0220
0000
0000
0000
0000
0000
0000
0000
0330
0000
0000
0000
0000
0000
0000
0000
1000
0000
0000
0000
0001
0000
0000
0000
1111
0M00
M000
0M00
1111
00M0
M000
00M0
,
1111
00M0
000M
00M0
0M00
0M00
000M
M000
0000
0000
0000
0000
0000
0000
0000
0000
0000
0000
0000
0000
0000
0000
0000
0000
0000
0000
0000
0000
0000
0000
0000
0000
,
MMMM
0100
1000
0100
MMMM
0010
1000
0010
,
MMMM
0010
0001
0010
0100
0100
0001
1000
,
MMMM
0100
0001
0100
MMMM
0010
0001
0010
,
MMMM
0000
0010
0000
1000
0000
0010
0000
0100
0000
0100
0000
0010
0001
0000
0000
,
1001
0000
0000
0000
0001
0000
1000
0010
0000
1000
0001
0000
0100
0000
0100
0000
,
MMMM
0100
1000
0100
0001
1000
0100
0100
,
MMMM
0010
1000
0010
MMMM
0100
1000
0100
,
MMMM
0100
0001
0100
1000
0001
0100
0100
,
0201
0001
0001
0001
,
0310
1000
0010
1000
0010
0001
0010
1000
,
1200
1000
1000
1000
,
0310
0000
0001
0000
0010
0000
0001
0000
0010
0000
1000
0010
0000
0001
1000
0000
,
1020
1000
1000
1000
,
0130
0001
0100
0001
0100
1000
0100
0001
,
0021
0001
0001
0001
,
0130
0000
0000
0000
1000
0000
0000
0000
0010
0000
0000
0100
0000
0000
0010
0000
0200
0000
0000
0000
0000
0000
0000
0000
0310
0000
0000
0000
0000
0000
0000
0000
,
1000
MMMM
0010
0000
0001
MMMM
0010
0000
,
1000
MMMM
0100
0000
0001
MMMM
0100
0000
,
1000
MMMM
0010
MMMM
1000
MMMM
0100
MMMM
,
1000
MMMM
0010
MMMM
0001
1000
0010
0000
,
0001
MMMM
0010
0000
1000
MMMM
0010
0000
,
0001
MMMM
0100
0000
1000
MMMM
0100
0000
,
0001
MMMM
0001
MMMM
0100
MMMM
0100
MMMM
,
1000
0001
0100
1000
0010
0000
0110
0000
,
0001
MMMM
0010
MMMM
1000
MMMM
0010
MMMM
,
0001
MMMM
0100
MMMM
1000
MMMM
0100
MMMM
,
0001
MMMM
0010
MMMM
0001
MMMM
1000
MMMM
,
0001
MMMM
0100
MMMM
1000
0010
0001
0000
,
1000
MMMM
0010
MMMM
0001
MMMM
0010
MMMM
,
1000
MMMM
0100
MMMM
0001
MMMM
0100
MMMM
,
1000
MMMM
1000
MMMM
0100
MMMM
0100
MMMM
,
0001
1000
0100
0001
0010
0000
0110
0000
,
0021
MM0M
0001
MM0M
0001
MM0M
0001
MM0M
,
0130
1000
0100
1000
0100
0001
0100
1000
,
1020
MM0M
1000
MM0M
1000
MM0M
1000
MM0M
,
0130
0000
0001
0000
0100
0000
0001
0000
0100
0000
1000
0100
0000
0001
1000
0000
,
1200
M0MM
1000
M0MM
1000
M0MM
1000
M0MM
,
0310
0001
0010
0001
0010
1000
0010
0001
,
0021
MM0M
0001
MM0M
0001
MM0M
0001
MM0M
,
0130
1000
1001
0000
0001
0100
0110
0010
,
1001
0000
0000
0000
;

//--------------- dance-single - tikal. ----------------
#NOTEDATA:;
#STEPSTYPE:dance-single;
#DESCRIPTION:tikal.;
#DIFFICULTY:Hard;
#METER:15;
#RADARVALUES:0,0,0,0,0;
#NOTES:
0000
0000
0000
0000
,
0000
0000
0000
0000
,
0000
0000
0000
0000
,
0000
0000
0000
0000
,
0000
0000
0000
0000
,
1000
1000
0100
0100
,
0001
0001
0100
0100
,
1000
0001
0010
0010
,
0010
0000
0000
0000
0110
0000
0100
0000
1000
0000
0001
0100
0010
1000
0001
0000
,
0020
1000
0000
0130
2000
0001
0000
3010
,
0200
1000
0000
0310
2000
0000
3001
0020
,
0000
0130
0002
0000
0103
1000
0002
0000
,
0013
1000
0001
0100
0010
0000
1001
0000
,
0001
0000
0000
0000
0100
0000
0001
0000
0010
0000
0000
0010
0000
0000
0100
0000
,
0000
0000
0000
0000
1000
0000
0100
0000
0010
0000
0001
1000
0001
0000
0100
0000
,
0000
0000
0000
0000
0010
0000
1000
0000
0100
0000
0000
0100
0000
0000
0010
0000
,
0000
0000
0000
0000
0001
0000
0010
0000
0100
0000
1000
0001
2000
0000
3000
0000
,
0010
0000
0100
0000
0010
0000
0100
0000
0001
0000
1000
0100
1000
0000
0001
0000
,
0010
0000
0100
0000
0010
0000
0100
0000
1000
0000
0001
0100
0001
0000
1000
0000
,
0100
0100
0010
0010
,
0001
0000
1000
0000
0010
0100
0010
0100
0020
0000
0000
0000
0130
0000
0100
0000
,
0001
0000
0010
0001
0100
0000
0110
0000
0000
0000
0100
0001
0010
0000
0110
0000
,
0000
0000
0100
0010
0001
0000
0101
0000
0100
0000
0110
0000
1010
0000
1000
0000
,
0000
0000
0010
1000
0100
0000
0110
0000
0000
0000
0100
1000
0010
0000
0110
0000
,
0000
0000
0100
0010
1000
0000
1100
0000
0100
0000
0110
0000
0001
1000
0000
0000
,
0000
0000
0100
1000
0010
0000
0110
0000
0000
0000
0010
1000
0100
0000
0110
0000
,
0000
0000
0010
0100
1000
0000
1010
0000
0010
0000
0110
0000
0101
0000
0001
0000
,
0000
0000
0100
0001
0010
0000
0110
0000
0000
0000
0010
0001
0100
0000
0110
0000
,
1001
0000
0000
0000
0000
0000
0000
0000
0000
0000
0000
0000
1000
0000
0000
0000
0100
0000
0000
0000
0000
0000
0000
0000
0010
0000
0000
0000
0000
0000
0000
0000
0001
0000
0000
0000
0000
0000
0000
0000
1000
0000
0000
0000
0000
0000
0000
0000
00M0
0M00
0000
00M0
0M00
0000
000M
0M00
0000
000M
0M00
0000
00M0
0000
M000
0000
,
0M00
00M0
0000
0M00
M000
0000
MM00
0000
M000
0000
M00M
0000
00MM
0000
000M
0000
0000
0000
0000
0000
0000
0000
0000
0000
0000
0000
0000
0000
0000
0000
0000
0000
0000
0000
0000
0000
0000
0000
0000
0000
0000
0000
0000
0000
0000
0000
0000
0000
0000
0000
0000
0000
0000
0000
0000
0000
0000
0000
0000
0000
0000
0000
0000
0000
,
0010
0100
0000
0010
0100
0000
0001
0100
0000
0001
0100
0000
0010
0000
1000
0000
,
0100
0010
0000
0100
1000
0000
1100
0000
1000
0000
1001
0000
0011
0000
0001
0000
,
0100
0010
0000
0100
0010
0000
1000
0010
0000
1000
0010
0000
0100
0000
0001
0000
,
0010
0100
0000
0010
0001
0000
0011
0000
0001
0000
1001
0000
1000
0100
0000
0000
,
0110
0000
0000
0001
1000
0000
0010
0100
0000
0100
0010
0000
2000
3000
0002
0003
,
0010
0100
0000
0010
0001
0000
0011
0000
0001
0000
1001
0000
1100
0000
1000
0000
,
0010
0100
0000
0010
0100
0000
0001
0100
0000
0001
0100
0000
0010
0000
1000
0000
,
0100
0010
0000
0100
1000
0000
1100
0000
1000
0000
1001
0000
0001
0000
0001
0000
,
0201
1000
0001
1000
,
0310
0000
1000
0000
0100
0000
1000
0000
0010
0000
1000
0100
0010
0000
0001
0000
,
0021
1000
0001
1000
,
0130
0000
1000
0000
0010
0000
1000
0000
0100
0000
0010
0001
0000
1000
0010
0000
,
1020
0001
1000
0001
,
0130
0000
0001
0000
0010
0000
0001
0000
0100
0000
0001
0010
0100
0000
1000
0000
,
1200
0001
1000
0001
,
0310
0000
0000
0000
0001
0000
0000
0000
1000
0000
0000
0010
0000
0000
1000
0000
0020
0000
0000
0000
0000
0000
0000
0000
0130
0000
0000
0000
0000
0000
0000
0000
,
0001
0100
0010
0100
0001
0100
1000
0100
,
0010
1000
0100
1000
0010
1000
0001
1000
,
0100
0001
1000
0001
0100
1000
0001
1000
,
0010
0001
1000
0001
0010
0100
0002
0000
,
1003
0100
0010
0100
1000
0100
0001
0100
,
0010
0001
0100
0001
0010
0001
1000
0001
,
0100
1000
0100
1000
0100
0001
0100
0001
,
1000
0000
0010
1000
0100
0010
0001
0100
0020
0000
0000
0000
0130
0000
0000
0000
,
0001
0000
0100
0010
0000
1000
0000
0100
0000
1000
0000
0010
0100
0000
0001
0000
,
1000
0000
0100
0010
0000
0001
0000
0100
0000
0001
0010
0000
0100
0000
0010
0001
,
1000
0000
0010
0100
0000
0001
0000
0010
0000
0001
0000
0100
0010
0000
1000
0000
,
0001
0000
0010
0100
0000
1000
0000
0010
0000
1000
0100
0010
0002
0000
0000
0000
,
1003
0000
0001
0100
0000
0010
0000
0001
0000
0010
0100
0000
0001
0000
0010
0000
,
1000
0000
0010
0100
0000
1000
0000
0010
0000
0100
0001
0000
1000
0000
0100
1000
,
0001
0000
1000
0100
0000
0010
0000
1000
0000
0010
0100
0000
1000
0000
0010
0000
,
0001
0000
0010
1000
0100
0010
0001
0100
0020
0000
0000
0000
0130
0000
0010
0000
,
2000
0000
3010
1000
0002
0000
0013
0001
2000
0000
3010
1000
0002
0000
0013
0001
,
0100
0000
1000
0000
0100
0000
0001
0000
0100
0000
0010
1000
0100
0000
0010
0000
,
0002
0000
0013
0001
2000
0000
3010
1000
0002
0000
0013
0001
2000
0000
3010
1000
,
0100
0000
0001
0000
0100
0000
1000
0000
0100
0000
0010
0001
0000
0100
0010
1000
,
0200
0000
1300
0001
0200
0000
0301
1000
0200
0000
0310
0001
0200
0000
0310
1000
,
0100
0000
0001
0000
0100
0000
1000
0000
0100
0000
0010
0001
1000
0000
0010
0000
,
0200
0000
0301
1000
0200
0000
1300
0001
0200
0000
0310
1000
0200
0000
0310
0001
,
0100
0000
1000
0000
0001
0000
0010
0000
0100
0000
0001
1000
0100
0000
0010
0000
,
1001
0000
0000
0000
;

//--------------- dance-single - tikal. ----------------
#NOTEDATA:;
#STEPSTYPE:dance-single;
#DESCRIPTION:tikal.;
#DIFFICULTY:Challenge;
#METER:17;
#RADARVALUES:0,0,0,0,0;
#BPMS:0.000=160.000;
#WARPS:115.000=4.000;
#SPEEDS:0.000=1.000=0.000=0,
36.000=0.750=2.000=0,
38.000=1.000=2.000=0,
40.000=0.750=2.000=0,
42.000=1.000=2.000=0,
44.000=0.750=2.000=0,
46.000=1.000=2.000=0,
48.000=0.750=2.000=0,
50.000=1.000=1.000=0
;
#SCROLLS:0.000=1.000,
67.000=1.333,
67.500=0.667,
68.000=1.000,
82.000=0.500,
82.500=1.000,
82.750=2.000,
83.000=0.000,
83.250=2.000,
83.500=0.000,
83.750=2.000,
84.000=1.000,
115.000=4.000,
117.000=256.000,
118.000=1.000,
119.000=-1.000,
119.021=-0.958,
119.042=-0.917,
119.063=-0.875,
119.083=-0.833,
119.104=-0.792,
119.125=-0.750,
119.146=-0.708,
119.167=-0.667,
119.188=-0.625,
119.208=-0.583,
119.229=-0.542,
119.250=-0.500,
119.271=-0.458,
119.292=-0.417,
119.313=-0.375,
119.333=-0.333,
119.354=-0.292,
119.375=-0.250,
119.396=-0.208,
119.417=-0.167,
119.438=-0.125,
119.458=-0.083,
119.479=-0.042,
119.500=0.042,
119.521=0.083,
119.542=0.125,
119.563=0.167,
119.583=0.208,
119.604=0.250,
119.625=0.292,
119.646=0.333,
119.667=0.375,
119.688=0.417,
119.708=0.458,
119.729=0.500,
119.750=0.542,
119.771=0.583,
119.792=0.625,
119.813=0.667,
119.833=0.708,
119.854=0.750,
119.875=0.792,
119.896=0.833,
119.917=0.875,
119.938=0.917,
119.958=0.958,
119.979=1.000,
139.000=2.000,
139.167=0.500,
139.500=2.000,
139.667=0.500,
140.000=1.000,
152.000=2.000,
152.125=1.000,
152.250=0.500,
152.500=2.000,
152.625=0.000,
152.750=2.000,
152.875=0.000,
153.000=2.000,
153.125=1.000,
153.250=0.500,
153.500=2.000,
153.625=0.000,
153.750=2.000,
153.875=0.000,
154.000=2.000,
154.125=1.000,
154.250=0.500,
154.500=2.000,
154.625=0.000,
154.750=2.000,
154.875=0.000,
155.000=2.000,
155.125=1.000,
155.250=0.500,
155.500=2.000,
155.625=0.000,
155.750=2.000,
155.875=0.000,
156.000=1.000,
160.000=2.000,
160.125=1.000,
160.250=0.500,
160.500=2.000,
160.625=0.000,
160.750=2.000,
160.875=0.000,
161.000=2.000,
161.125=1.000,
161.250=0.500,
161.500=2.000,
161.625=0.000,
161.750=2.000,
161.875=0.000,
162.000=2.000,
162.125=1.000,
162.250=0.500,
162.500=2.000,
162.625=0.000,
162.750=2.000,
162.875=0.000,
163.000=2.000,
163.125=1.000,
163.250=0.500,
163.500=2.000,
163.625=0.000,
163.750=2.000,
163.875=0.000,
164.000=1.000,
168.000=2.000,
168.125=1.000,
168.250=0.500,
168.500=2.000,
168.625=0.000,
168.750=2.000,
168.875=0.000,
169.000=2.000,
169.125=1.000,
169.250=0.500,
169.500=2.000,
169.625=0.000,
169.750=2.000,
169.875=0.000,
170.000=2.000,
170.125=1.000,
170.250=0.500,
170.500=2.000,
170.625=0.000,
170.750=2.000,
170.875=0.000,
171.000=2.000,
171.125=1.000,
171.250=0.500,
171.500=2.000,
171.625=0.000,
171.750=2.000,
171.875=0.000,
172.000=1.000,
176.000=2.000,
176.125=1.000,
176.250=0.500,
176.500=2.000,
176.625=0.000,
176.750=2.000,
176.875=0.000,
177.000=2.000,
177.125=1.000,
177.250=0.500,
177.500=2.000,
177.625=0.000,
177.750=2.000,
177.875=0.000,
178.000=2.000,
178.125=1.000,
178.250=0.500,
178.500=2.000,
178.625=0.000,
178.750=2.000,
178.875=0.000,
179.000=2.000,
179.125=1.000,
179.250=0.500,
179.500=2.000,
179.625=0.000,
179.750=2.000,
179.875=0.000,
180.000=1.000,
182.000=0.500,
182.500=1.000,
182.750=2.000,
183.250=1.000,
183.500=0.500,
184.000=1.000,
248.000=2.000,
248.125=1.000,
248.250=0.500,
248.500=2.000,
248.625=0.000,
248.750=2.000,
248.875=0.000,
249.000=2.000,
249.125=1.000,
249.250=0.500,
249.500=2.000,
249.625=0.000,
249.750=2.000,
249.875=0.000,
250.000=2.000,
250.125=1.000,
250.250=0.500,
250.500=2.000,
250.625=0.000,
250.750=2.000,
250.875=0.000,
251.000=2.000,
251.125=1.000,
251.250=0.500,
251.500=2.000,
251.625=0.000,
251.750=2.000,
251.875=0.000,
252.000=1.000,
256.000=2.000,
256.125=1.000,
256.250=0.500,
256.500=2.000,
256.625=0.000,
256.750=2.000,
256.875=0.000,
257.000=2.000,
257.125=1.000,
257.250=0.500,
257.500=2.000,
257.625=0.000,
257.750=2.000,
257.875=0.000,
258.000=2.000,
258.125=1.000,
258.250=0.500,
258.500=2.000,
258.625=0.000,
258.750=2.000,
258.875=0.000,
259.000=2.000,
259.125=1.000,
259.250=0.500,
259.500=2.000,
259.625=0.000,
259.750=2.000,
259.875=0.000,
260.000=1.000,
264.000=2.000,
264.125=1.000,
264.250=0.500,
264.500=2.000,
264.625=0.000,
264.750=2.000,
264.875=0.000,
265.000=2.000,
265.125=1.000,
265.250=0.500,
265.500=2.000,
265.625=0.000,
265.750=2.000,
265.875=0.000,
266.000=2.000,
266.125=1.000,
266.250=0.500,
266.500=2.000,
266.625=0.000,
266.750=2.000,
266.875=0.000,
267.000=2.000,
267.125=1.000,
267.250=0.500,
267.500=2.000,
267.625=0.000,
267.750=2.000,
267.875=0.000,
268.000=1.000,
272.000=2.000,
272.125=1.000,
272.250=0.500,
272.500=2.000,
272.625=0.000,
272.750=2.000,
272.875=0.000,
273.000=2.000,
273.125=1.000,
273.250=0.500,
273.500=2.000,
273.625=0.000,
273.750=2.000,
273.875=0.000,
274.000=2.000,
274.125=1.000,
274.250=0.500,
274.500=2.000,
274.625=0.000,
274.750=2.000,
274.875=0.000,
275.000=2.000,
275.125=1.000,
275.250=0.500,
275.500=2.000,
275.625=0.000,
275.750=2.000,
275.875=0.000,
276.000=1.000
;
#FAKES:114.750=0.208;
#DISPLAYBPM:160.000;
#CHARTNAME:;
#CHARTSTYLE:;
#CREDIT:;
#NOTES:
0000
0000
0000
0000
,
0000
0000
0000
0000
,
0000
0000
0000
0000
,
0000
0000
0000
0000
,
0000
0000
0000
0000
,
1000
0100
1000
0010
,
0100
0001
0010
0001
,
0100
0010
1000
1000
,
0001
0000
0000
0000
1001
0000
0001
0000
0010
0000
0100
1000
0001
0100
0010
1000
,
0100
0020
0032
0203
2300
3200
0320
2030
,
3002
0023
2030
3020
0230
0000
2300
3002
,
0000
2003
3020
0032
2003
3200
0320
2030
,
3002
0023
2030
3002
0203
0000
0310
0000
,
0001
0000
0000
0000
0010
0000
0100
0000
1000
0000
0010
1000
0000
1000
0100
0000
,
0000
0000
1000
0000
0100
0000
0010
0000
0001
0100
0010
1000
0010
0000
0100
0000
,
0000
0000
0000
0000
0010
0000
0100
0000
0001
0000
0010
0001
0000
0001
0100
0000
,
0000
0000
0001
0000
0100
0000
0010
0000
1000
0100
0010
0001
0200
0000
0300
0000
,
0001
0000
0010
0001
0010
0000
0100
0000
1000
0000
0010
1000
0010
0000
0100
0000
,
0001
0000
0010
0100
0010
0000
0001
0000
1000
0000
0010
0100
0010
0000
1000
0000
,
0002
0100
2003
0100
3002
0010
2003
0010
,
3001
0000
0001
0000
1000
0001
1000
0001
0020
0000
0000
0000
0130
0000
0100
0000
,
1000
0100
0010
0000
0110
0000
0010
0100
1000
0010
0100
0000
0110
0000
0010
1000
,
0100
0010
0100
0000
1100
0000
1000
0000
1010
0000
1100
0000
0110
0000
0100
1000
,
0001
0010
0100
0000
0110
0000
0100
0010
0001
0100
0010
0000
0110
0000
0100
0001
,
0010
0100
0010
0000
0011
0000
0001
0000
0101
0000
0110
0000
0010
0100
0000
0100
,
0001
1000
0100
0000
1100
0000
0100
0001
0100
1000
0001
0000
0101
0000
0100
0001
,
1000
0100
0001
0000
0101
0000
0100
0000
1100
0000
0101
0000
1001
0000
1000
0100
,
1000
0001
0010
0000
0011
0000
0010
1000
0010
0001
1000
0000
1010
0000
0010
0000
,
1001
0000
0000
0000
0000
0000
0000
0000
0000
0000
0000
0000
0001
0000
0000
0000
0100
0000
0000
0000
00M0
0000
0000
0000
0100
0000
0000
0000
0000
0000
0000
0000
1000
0000
0000
0000
0000
0000
0000
0000
0001
0000
0000
0000
0000
0000
0000
0000
00M0
000M
0000
0M00
000M
0000
00M0
000M
0000
0M00
00M0
0000
M000
0000
0M00
M000
,
00M0
0M00
0000
00M0
M000
0000
0M00
0000
MM00
0000
M00M
0000
00MM
0000
000M
M000
0000
0000
0000
0000
0000
0000
0000
0000
0000
0000
0000
0000
0000
0000
0000
0000
0000
0000
0000
0000
0000
0000
0000
0000
0000
0000
0000
0000
0000
0000
0000
0000
0000
0000
0000
0000
0000
0000
0000
0000
0000
0000
0000
0000
0000
0000
0000
0000
,
0010
0001
0000
0100
0001
0000
0010
0001
0000
0100
0010
0000
1000
0000
0100
1000
,
0010
0100
0000
0010
1000
0000
0100
0000
1100
0000
1001
0000
0011
0000
0001
1000
,
0010
1000
0000
0100
1000
0000
0010
1000
0000
0100
0010
0000
0001
0000
0100
0001
,
0010
0100
0000
0010
0001
0000
0100
0000
0101
0000
1001
0000
1000
0010
0000
0000
,
0110
0000
0000
0000
0000
0000
1000
0000
0001
0000
0000
0000
0010
0000
0100
0000
0000
0000
0100
0000
0010
0000
0000
0000
2000
0000
3000
0M00
2000
0000
3000
0000
,
0100
0010
0000
0001
0100
0000
0010
0000
1010
0000
1001
0000
0101
0000
0001
1000
,
0100
1000
0000
0010
1000
0000
0100
1000
0000
0010
0100
0000
0001
0000
0010
0001
,
0100
0010
0000
0100
0001
0000
0010
0000
0001
0000
1000
0000
0100
0000
0100
0000
,
1200
0000
1000
0001
0000
0000
0001
1000
0000
0000
1000
0001
0000
0000
0001
1300
,
0010
0000
0101
0000
0001
0000
0101
0000
0100
0000
0010
1000
0100
0000
0010
0000
,
0021
0000
0001
1000
0000
0000
1000
0001
0000
0000
0001
1000
0000
0000
1000
0031
,
0100
0000
1010
0000
1000
0000
1010
0000
0010
0000
0100
0001
1000
0100
01M0
0000
,
0201
0000
0001
1000
0000
0000
1000
0001
0000
0000
0001
1000
0000
0000
1000
0301
,
0010
0000
1100
0000
1000
0000
1100
0000
0100
0000
0010
0001
0100
0000
0010
0000
,
1020
0000
1000
0001
0000
0000
0001
1000
0000
0000
1000
0001
0000
0000
0001
1030
,
0400
0000
0000
0000
0320
0000
0000
0000
0031
0000
0000
1000
0000
0000
0001
0000
0200
0000
0000
0000
0000
0000
0000
0000
0310
0000
0000
0000
0000
0000
0000
0000
,
1000
0000
0001
0010
0000
0100
0000
0001
0000
0100
0010
0000
0001
0000
0100
0000
,
1000
0000
0100
0010
0000
1000
0000
0100
0000
0010
0001
0000
1000
0010
0000
1000
,
0001
0000
1000
0010
0000
0100
0000
1000
0000
0100
0010
0000
1000
0000
0100
0000
,
0001
0000
0100
0010
0000
0001
0000
0100
0000
0010
1000
0001
0020
0000
0000
0000
,
0031
0000
1000
0100
0000
0010
0000
1000
0000
0010
0100
0000
1000
0000
0010
0000
,
0001
0000
0010
0100
0000
0001
0000
0010
0000
0100
1000
0000
0010
0100
0000
0001
,
1000
0000
0001
0100
0000
0010
0000
0001
0000
0010
0100
0000
0001
0000
0010
0000
,
0100
0000
0010
0001
0100
0010
1000
0100
0020
0000
0000
0000
0130
0000
0000
0000
,
2000
0000
3001
1000
0020
0000
0130
0010
0002
0000
1003
0001
0020
0000
0130
0010
,
2000
0000
3001
1000
0200
0000
0310
0100
0002
0000
1003
0001
0200
0000
0310
0100
,
2000
0000
3001
0010
0200
0000
0310
0001
2000
0000
3001
0100
0020
0000
0130
0010
,
0002
0000
1003
0001
0020
0000
0130
0010
2000
3010
0100
0001
0020
0000
0000
0000
,
0032
0000
1003
0001
0020
0000
0130
0010
2000
0000
3001
1000
0020
0000
0130
0010
,
0002
0000
1003
0001
0200
0000
0310
0100
2000
0000
3001
1000
0200
0000
0310
0100
,
0002
0000
0013
0100
0002
0000
0103
0010
2000
0000
3010
0100
2000
0000
3010
1000
,
0200
0000
0310
0001
0100
0010
1000
0100
0020
0000
0000
0000
0130
0000
0010
0000
,
0021
0000
0100
1000
0000
0000
0100
0001
0000
0000
0100
1000
0000
0000
0100
0031
,
0010
0000
1100
0000
0001
0000
1100
0000
0100
0000
0010
0001
0100
0000
0101
0000
,
1020
0000
0100
0001
0000
0000
0100
1000
0000
0000
0100
0001
0000
0000
0100
1030
,
0010
0000
0101
0000
1000
0000
0101
0000
0100
0000
0010
1000
0001
0100
01M0
0100
,
0002
0000
0010
0100
0000
0000
0100
0010
0000
0000
0100
0010
0000
0000
0010
1003
,
0001
0000
1010
0000
1000
0000
1010
0000
0010
0000
0100
0001
0010
0000
0011
0000
,
2010
0000
0010
0100
0000
0000
0100
0010
0000
0000
0100
0010
0000
0000
0010
3001
,
1000
0000
0010
1000
0001
0010
0100
0000
0020
0000
0130
1000
0001
0000
0100
0000
,
0110
0000
0000
0000
;

//--------------- dance-single - tikal. ----------------
#NOTEDATA:;
#STEPSTYPE:dance-single;
#DESCRIPTION:tikal.;
#DIFFICULTY:Edit;
#METER:18;
#RADARVALUES:0,0,0,0,0;
#BPMS:0.000=160.000;
#WARPS:115.000=4.000;
#SPEEDS:0.000=1.000=0.000=0,
36.000=0.750=2.000=0,
38.000=1.000=2.000=0,
40.000=0.750=2.000=0,
42.000=1.000=2.000=0,
44.000=0.750=2.000=0,
46.000=1.000=2.000=0,
48.000=0.750=2.000=0,
50.000=1.000=1.000=0
;
#SCROLLS:0.000=1.000,
67.000=1.333,
67.500=0.667,
68.000=1.000,
82.000=0.500,
82.500=1.000,
82.750=2.000,
83.000=0.000,
83.250=2.000,
83.500=0.000,
83.750=2.000,
84.000=1.000,
115.000=4.000,
117.000=256.000,
118.000=1.000,
119.000=-1.000,
119.021=-0.958,
119.042=-0.917,
119.063=-0.875,
119.083=-0.833,
119.104=-0.792,
119.125=-0.750,
119.146=-0.708,
119.167=-0.667,
119.188=-0.625,
119.208=-0.583,
119.229=-0.542,
119.250=-0.500,
119.271=-0.458,
119.292=-0.417,
119.313=-0.375,
119.333=-0.333,
119.354=-0.292,
119.375=-0.250,
119.396=-0.208,
119.417=-0.167,
119.438=-0.125,
119.458=-0.083,
119.479=-0.042,
119.500=0.042,
119.521=0.083,
119.542=0.125,
119.563=0.167,
119.583=0.208,
119.604=0.250,
119.625=0.292,
119.646=0.333,
119.667=0.375,
119.688=0.417,
119.708=0.458,
119.729=0.500,
119.750=0.542,
119.771=0.583,
119.792=0.625,
119.813=0.667,
119.833=0.708,
119.854=0.750,
119.875=0.792,
119.896=0.833,
119.917=0.875,
119.938=0.917,
119.958=0.958,
119.979=1.000,
139.000=2.000,
139.167=0.500,
139.500=2.000,
139.667=0.500,
140.000=1.000,
152.000=2.000,
152.125=1.000,
152.250=0.500,
152.500=2.000,
152.625=0.000,
152.750=2.000,
152.875=0.000,
153.000=2.000,
153.125=1.000,
153.250=0.500,
153.500=2.000,
153.625=0.000,
153.750=2.000,
153.875=0.000,
154.000=2.000,
154.125=1.000,
154.250=0.500,
154.500=2.000,
154.625=0.000,
154.750=2.000,
154.875=0.000,
155.000=2.000,
155.125=1.000,
155.250=0.500,
155.500=2.000,
155.625=0.000,
155.750=2.000,
155.875=0.000,
156.000=1.000,
160.000=2.000,
160.125=1.000,
160.250=0.500,
160.500=2.000,
160.625=0.000,
160.750=2.000,
160.875=0.000,
161.000=2.000,
161.125=1.000,
161.250=0.500,
161.500=2.000,
161.625=0.000,
161.750=2.000,
161.875=0.000,
162.000=2.000,
162.125=1.000,
162.250=0.500,
162.500=2.000,
162.625=0.000,
162.750=2.000,
162.875=0.000,
163.000=2.000,
163.125=1.000,
163.250=0.500,
163.500=2.000,
163.625=0.000,
163.750=2.000,
163.875=0.000,
164.000=1.000,
168.000=2.000,
168.125=1.000,
168.250=0.500,
168.500=2.000,
168.625=0.000,
168.750=2.000,
168.875=0.000,
169.000=2.000,
169.125=1.000,
169.250=0.500,
169.500=2.000,
169.625=0.000,
169.750=2.000,
169.875=0.000,
170.000=2.000,
170.125=1.000,
170.250=0.500,
170.500=2.000,
170.625=0.000,
170.750=2.000,
170.875=0.000,
171.000=2.000,
171.125=1.000,
171.250=0.500,
171.500=2.000,
171.625=0.000,
171.750=2.000,
171.875=0.000,
172.000=1.000,
176.000=2.000,
176.125=1.000,
176.250=0.500,
176.500=2.000,
176.625=0.000,
176.750=2.000,
176.875=0.000,
177.000=2.000,
177.125=1.000,
177.250=0.500,
177.500=2.000,
177.625=0.000,
177.750=2.000,
177.875=0.000,
178.000=2.000,
178.125=1.000,
178.250=0.500,
178.500=2.000,
178.625=0.000,
178.750=2.000,
178.875=0.000,
179.000=2.000,
179.125=1.000,
179.250=0.500,
179.500=2.000,
179.625=0.000,
179.750=2.000,
179.875=0.000,
180.000=1.000,
182.000=0.500,
182.500=1.000,
182.750=2.000,
183.250=1.000,
183.500=0.500,
184.000=1.000,
248.000=2.000,
248.125=1.000,
248.250=0.500,
248.500=2.000,
248.625=0.000,
248.750=2.000,
248.875=0.000,
249.000=2.000,
249.125=1.000,
249.250=0.500,
249.500=2.000,
249.625=0.000,
249.750=2.000,
249.875=0.000,
250.000=2.000,
250.125=1.000,
250.250=0.500,
250.500=2.000,
250.625=0.000,
250.750=2.000,
250.875=0.000,
251.000=2.000,
251.125=1.000,
251.250=0.500,
251.500=2.000,
251.625=0.000,
251.750=2.000,
251.875=0.000,
252.000=1.000,
256.000=2.000,
256.125=1.000,
256.250=0.500,
256.500=2.000,
256.625=0.000,
256.750=2.000,
256.875=0.000,
257.000=2.000,
257.125=1.000,
257.250=0.500,
257.500=2.000,
257.625=0.000,
257.750=2.000,
257.875=0.000,
258.000=2.000,
258.125=1.000,
258.250=0.500,
258.500=2.000,
258.625=0.000,
258.750=2.000,
258.875=0.000,
259.000=2.000,
259.125=1.000,
259.250=0.500,
259.500=2.000,
259.625=0.000,
259.750=2.000,
259.875=0.000,
260.000=1.000,
264.000=2.000,
264.125=1.000,
264.250=0.500,
264.500=2.000,
264.625=0.000,
264.750=2.000,
264.875=0.000,
265.000=2.000,
265.125=1.000,
265.250=0.500,
265.500=2.000,
265.625=0.000,
265.750=2.000,
265.875=0.000,
266.000=2.000,
266.125=1.000,
266.250=0.500,
266.500=2.000,
266.625=0.000,
266.750=2.000,
266.875=0.000,
267.000=2.000,
267.125=1.000,
267.250=0.500,
267.500=2.000,
267.625=0.000,
267.750=2.000,
267.875=0.000,
268.000=1.000,
272.000=2.000,
272.125=1.000,
272.250=0.500,
272.500=2.000,
272.625=0.000,
272.750=2.000,
272.875=0.000,
273.000=2.000,
273.125=1.000,
273.250=0.500,
273.500=2.000,
273.625=0.000,
273.750=2.000,
273.875=0.000,
274.000=2.000,
274.125=1.000,
274.250=0.500,
274.500=2.000,
274.625=0.000,
274.750=2.000,
274.875=0.000,
275.000=2.000,
275.125=1.000,
275.250=0.500,
275.500=2.000,
275.625=0.000,
275.750=2.000,
275.875=0.000,
276.000=1.000
;
#FAKES:114.750=0.208;
#NOTES:
0000
0000
0000
0000
,
0000
0000
0000
0000
,
0000
0000
0000
0000
,
0000
0000
0000
0000
,
0000
0000
0000
0000
,
1000
0100
1000
0010
,
0100
0001
0010
0001
,
0100
0010
1000
1000
,
0001
0000
0000
0000
1001
0000
0001
0000
0010
0000
0100
1000
0001
0100
0010
1000
,
0100
0020
0032
0203
2300
3200
0320
2030
,
3002
0023
2030
3020
0230
0000
2300
3002
,
0000
2003
3020
0032
2003
3200
0320
2030
,
3002
0023
2030
3002
0203
0000
0310
0000
,
0001
0000
0000
0000
0010
0000
0100
0000
1000
0000
0010
1000
0000
1000
0100
0000
,
0000
0000
1000
0000
0100
0000
0010
0000
0001
0100
0010
1000
0010
0000
0100
0000
,
0000
0000
0000
0000
0010
0000
0100
0000
0001
0000
0010
0001
0000
0001
0100
0000
,
0000
0000
0001
0000
0100
0000
0010
0000
1000
0100
0010
0001
0200
0000
0300
0000
,
0001
0010
0001
0010
0001
0100
0001
0100
0010
1000
0010
1000
0100
1000
0100
1000
,
0001
0100
0010
1000
0001
0100
0010
1000
0001
0010
0100
1000
0001
0010
0100
1000
,
0002
0100
2003
0100
3002
0010
2003
0010
,
3001
0000
0001
0000
1000
0001
1000
0001
0020
0000
0000
0000
0130
0000
0100
0000
,
1000
0100
0010
0000
0110
0000
0010
0100
1000
0010
0100
0000
0110
0000
0010
1000
,
0100
0010
0100
0000
1100
0000
1000
0000
1010
0000
1100
0000
0110
0000
0100
1000
,
0001
0010
0100
0000
0110
0000
0100
0010
0001
0100
0010
0000
0110
0000
0100
0001
,
0010
0100
0010
0000
0011
0000
0001
0000
0101
0000
0110
0000
0010
0100
0000
0100
,
0001
1000
0100
0000
1100
0000
0100
0001
0100
1000
0001
0000
0101
0000
0100
0001
,
1000
0100
0001
0000
0101
0000
0100
0000
1100
0000
0101
0000
1001
0000
1000
0100
,
1000
0001
0010
0000
0011
0000
0010
1000
0010
0001
1000
0000
1010
0000
0010
0000
,
1001
0000
0000
0000
0000
0000
0000
0000
0000
0000
0000
0000
0001
0000
0000
0000
0100
0000
0000
0000
00M0
0000
0000
0000
0100
0000
0000
0000
0000
0000
0000
0000
1000
0000
0000
0000
0000
0000
0000
0000
0001
0000
0000
0000
0000
0000
0000
0000
00M0
000M
0000
0M00
000M
0000
00M0
000M
0000
0M00
00M0
0000
M000
0000
0M00
M000
,
00M0
0M00
0000
00M0
M000
0000
0M00
0000
MM00
0000
M00M
0000
00MM
0000
000M
M000
0000
0000
0000
0000
0000
0000
0000
0000
0000
0000
0000
0000
0000
0000
0000
0000
0000
0000
0000
0000
0000
0000
0000
0000
0000
0000
0000
0000
0000
0000
0000
0000
0000
0000
0000
0000
0000
0000
0000
0000
0000
0000
0000
0000
0000
0000
0000
0000
,
0010
0001
0000
0100
0001
0000
0010
0001
0000
0100
0010
0000
1000
0000
0100
1000
,
0010
0100
0000
0010
1000
0000
0100
0000
1100
0000
1001
0000
0011
0000
0001
1000
,
0010
1000
0000
0100
1000
0000
0010
1000
0000
0100
0010
0000
0001
0000
0100
0001
,
0010
0100
0000
0010
0001
0000
0100
0000
0101
0000
1001
0000
1000
0010
0000
0000
,
0110
0000
0000
0000
0000
0000
1000
0000
0001
0000
0000
0000
0010
0000
0100
0000
0000
0000
0100
0000
0010
0000
0000
0000
2000
0000
3000
0M00
2000
0000
3000
0000
,
0100
0010
0000
0001
0100
0000
0010
0000
1010
0000
1001
0000
0101
0000
0001
1000
,
0100
1000
0000
0010
1000
0000
0100
1000
0000
0010
0100
0000
0001
0000
0010
0001
,
0100
0010
0000
0100
0001
0000
0010
0000
0001
0000
1000
0000
0100
0000
0100
0000
,
1200
0000
1000
0001
1000
0000
0001
1000
0001
0000
1000
0001
1000
0000
0001
1300
,
0010
0000
0101
0000
0001
0000
0101
0000
0100
0000
0010
1000
0100
0000
0010
0000
,
0021
0000
0001
1000
0001
0000
1000
0001
1000
0000
0001
1000
0001
0000
1000
0031
,
0100
0000
1010
0000
1000
0000
1010
0000
0010
0000
0100
0001
1000
0100
01M0
0000
,
0201
0000
0001
1000
0001
0000
1000
0001
1000
0000
0001
1000
0001
0000
1000
0301
,
0010
0000
1100
0000
1000
0000
1100
0000
0100
0000
0010
0001
0100
0000
0010
0000
,
1020
0000
1000
0001
1000
0000
0001
1000
0001
0000
1000
0001
1000
0000
0001
1030
,
0400
0000
0000
0000
0320
0000
0000
0000
0031
0000
0000
1000
0000
0000
0001
0000
0200
0000
0000
0000
0000
0000
0000
0000
0310
0000
0000
0000
0000
0000
0000
0000
,
1000
0010
1000
0010
1000
0100
1000
0100
0010
0001
0010
0001
0100
0001
0100
0001
,
1000
0100
1000
0100
1000
0010
1000
0010
0100
0001
0100
0001
0010
0001
0010
0001
,
0100
0010
0100
0010
1000
0001
1000
0001
0010
0100
0010
0100
1000
0001
1000
0001
,
0010
0001
0010
0001
0100
0010
0100
0010
1000
0100
0010
0001
0200
0000
0000
0000
,
0301
0010
0001
0010
0001
0100
0001
0100
0010
1000
0010
1000
0100
1000
0100
1000
,
0001
0100
0001
0100
0001
0010
0001
0010
0100
1000
0100
1000
0010
1000
0010
1000
,
0100
0010
0100
0010
0001
1000
0001
1000
0010
0100
0010
0100
0001
1000
0001
1000
,
0010
1000
0010
1000
0100
0010
0001
0100
0020
0000
0000
0000
0130
0000
0000
0000
,
0001
0100
0001
0010
0100
1000
0001
0100
0010
0100
0001
1000
0010
1000
0100
0010
,
0001
1000
0100
1000
0001
0100
0010
1000
0001
0010
0001
1000
0100
1000
0001
0100
,
0010
0100
0001
1000
0100
0010
0100
1000
0001
0100
0010
0001
0010
0100
0001
1000
,
0100
0010
1000
0010
0100
1000
0001
0100
0001
1000
0100
0010
0002
0000
0000
0000
,
1003
0100
1000
0010
0100
0001
1000
0100
0010
0100
1000
0001
0010
0001
0100
0010
,
1000
0001
0100
0001
1000
0100
0010
0001
1000
0010
1000
0001
0100
0001
1000
0100
,
0001
0100
0010
0100
1000
0100
0010
0001
0100
0010
0100
1000
0100
0001
1000
0100
,
1000
0001
0010
0001
0100
0010
1000
0100
0020
0000
0000
0000
0130
0000
0010
0000
,
0021
0000
0100
1000
0001
0000
0100
0001
1000
0000
0100
1000
0001
0000
0100
0031
,
0010
0000
1100
0000
0001
0000
1100
0000
0100
0000
0010
0001
0100
0000
0101
0000
,
1020
0000
0100
0001
1000
0000
0100
1000
0001
0000
0100
0001
1000
0000
0100
1030
,
0010
0000
0101
0000
1000
0000
0101
0000
0100
0000
0010
1000
0001
0100
01M0
0100
,
0002
0000
0010
0100
0010
0000
0100
0010
0100
0000
0100
0010
0100
0000
0010
1003
,
0001
0000
1010
0000
1000
0000
1010
0000
0010
0000
0100
0001
0010
0000
0011
0000
,
2010
0000
0010
0100
0010
0000
0100
0010
0100
0000
0100
0010
0100
0000
0010
3001
,
1000
0000
0010
1000
0001
0010
0100
0000
0020
0000
0130
1000
0001
0000
0100
0000
,
0110
0000
0000
0000
;
