#VERSION:0.83;
#TITLE:CO5M1C R4ILR0AD;
#SUBTITLE:;
#ARTIST:kanone;
#TITLETRANSLIT:;
#SUBTITLETRANSLIT:;
#ARTISTTRANSLIT:;
#GENRE:;
#ORIGIN:;
#CREDIT:;
#BANNER:sc2024-banner.png;
#BACKGROUND:sc2024-background.png;
#PREVIEWVID:;
#JACKET:CO5M1C R4ILR0AD-jacket.png;
#CDIMAGE:;
#DISCIMAGE:;
#LYRICSPATH:;
#CDTITLE:collab-cdtitle.png;
#MUSIC:CO5M1C R4ILR0AD.ogg;
#OFFSET:-0.006000;
#SAMPLESTART:77.425003;
#SAMPLELENGTH:12.387000;
#SELECTABLE:YES;
#BPMS:0.000=155.000;
#STOPS:;
#DELAYS:;
#WARPS:;
#TIMESIGNATURES:0.000=4=4;
#TICKCOUNTS:0.000=4;
#COMBOS:0.000=1;
#SPEEDS:0.000=0.000=0.000=0,
4.000=1.000=8.000=0,
16.000=0.250=0.000=0,
16.021=1.000=3.500=0,
137.000=0.500=2.000=0,
155.000=0.750=1.000=0,
170.000=1.000=2.000=0,
332.000=1.000=0.500=0,
332.500=0.999=0.500=0,
333.000=0.997=0.500=0,
333.500=0.992=0.500=0,
334.000=0.985=0.500=0,
334.500=0.974=0.500=0,
335.000=0.958=0.500=0,
335.500=0.938=0.500=0,
336.000=0.911=0.500=0,
336.500=0.878=0.500=0,
337.000=0.838=0.500=0,
337.500=0.789=0.500=0,
338.000=0.732=0.500=0,
338.500=0.665=0.500=0,
339.000=0.588=0.500=0,
339.500=0.500=0.500=0,
340.000=0.412=0.500=0,
340.500=0.335=0.500=0,
341.000=0.268=0.500=0,
341.500=0.211=0.500=0,
342.000=0.162=0.500=0,
342.500=0.122=0.500=0,
343.000=0.089=0.500=0,
343.500=0.062=0.500=0,
344.000=0.042=0.500=0,
344.500=0.026=0.500=0,
345.000=0.015=0.500=0,
345.500=0.008=0.500=0,
346.000=0.003=0.500=0,
346.500=0.001=0.500=0,
347.000=0.000=0.500=0;
#SCROLLS:0.000=0.500,
12.000=1.000,
24.000=1.250,
24.250=1.000,
24.500=0.750,
24.750=1.000,
25.000=1.250,
25.250=1.000,
25.500=0.750,
25.750=1.000,
26.000=1.250,
26.250=1.000,
26.500=0.750,
26.750=1.000,
27.000=1.250,
27.250=1.000,
27.500=0.750,
27.750=1.000,
72.000=0.750,
76.000=1.000,
129.750=0.300,
130.000=1.700,
130.250=0.300,
130.500=1.700,
130.750=0.300,
131.000=1.700,
131.250=0.300,
131.500=1.700,
131.750=1.000,
228.000=0.750,
234.000=0.800,
234.500=0.850,
235.000=0.900,
235.500=0.950,
236.000=1.000,
260.000=0.750,
266.000=0.800,
266.500=0.850,
267.000=0.900,
267.500=0.950,
268.000=1.000,
316.000=0.750,
324.000=1.000;
#FAKES:;
#LABELS:0.000=Song Start;
#BGCHANGES:;
#FGCHANGES:0.000=lua=0.000=0=0=1=====,
;
#KEYSOUNDS:;
#ATTACKS:
;

//---------------dance-single - [XMOD] XO----------------
#NOTEDATA:;
#CHARTNAME:did you buy a ticket?;
#STEPSTYPE:dance-single;
#DESCRIPTION:[XMOD] XO;
#CHARTSTYLE:;
#DIFFICULTY:Medium;
#METER:13;
#RADARVALUES:0.566255,0.644578,0.125952,0.192633,0.225973,535.000000,518.000000,17.000000,26.000000,0.000000,0.000000,0.000000,0.000000,0.000000,0.566255,0.644578,0.125952,0.192633,0.225973,535.000000,518.000000,17.000000,26.000000,0.000000,0.000000,0.000000,0.000000,0.000000;
#CREDIT:TaroNuke vs. Scrypts;
#NOTES:
0000
0000
0000
0000
,
0000
0000
0000
0000
,
0000
0000
0000
0000
,
1100
0000
0000
1100
0000
0000
0000
0000
0000
0000
0000
0000
0000
0000
0000
0000
,
0000
0000
0000
0000
,
0101
0000
0000
0101
0000
0000
0000
0000
0000
0000
0000
0000
0000
0000
0000
0000
,
0000
0000
0000
0000
,
1000
0100
0010
0001
1000
0100
0010
0000
,
0001
0100
0010
1000
0001
0100
0010
0000
,
2002
0000
0000
0000
,
3003
0000
0000
0000
,
1000
0000
0100
0000
0010
0000
0001
0000
0100
0010
0100
0010
0100
0000
0000
0000
,
0001
0000
1000
0000
0010
0000
1000
0000
0001
0010
0100
0000
1000
0000
0000
0000
,
1001
0000
0000
0000
0101
0000
0000
1100
0000
0000
0000
0000
1000
0000
0001
0000
,
1000
0000
0100
0010
0001
0000
1000
0010
0100
0000
0001
0000
2000
0000
0000
0000
,
3001
0100
0010
0100
1000
0100
0010
0100
,
0001
1000
0001
1000
0001
1000
0200
0000
,
0310
0000
0001
0000
1000
0010
2000
0000
,
3001
0000
0000
0000
0000
0000
0100
0010
0100
0000
0001
0000
1000
0000
0000
0000
,
0001
0000
0100
0000
0010
0000
1000
0000
0100
0010
0100
0010
0100
0000
0000
0000
,
1000
0000
0001
0000
0010
0000
0001
0000
1000
0010
0100
0000
0001
0000
0000
0000
,
1001
0000
0000
0000
1100
0000
0000
0101
0000
0000
0000
0000
1000
0000
0001
0000
,
1000
0000
0100
0010
0001
0000
1000
0010
0200
0000
0302
0000
0203
0000
0320
0000
,
1030
0100
0010
0100
0001
0100
0010
0100
,
1000
0001
1000
0001
1000
0001
0200
0000
,
0310
0000
1000
0000
0001
0010
0002
2003
,
3020
0000
0000
0030
,
1000
0000
0100
0000
0001
0000
0100
0000
2000
0000
0000
0010
0000
0000
0100
0000
,
3001
0000
0100
0000
1000
0000
0100
0000
0002
0000
0000
0010
0000
0000
0100
0000
,
1003
0000
0010
0000
0001
0000
0010
0000
2000
0000
0000
0001
0000
0000
0100
0000
,
3001
0010
1000
0010
0200
0000
1000
1000
,
1300
0010
0001
0010
1000
0010
0001
0010
,
1000
0000
0100
0000
0010
0000
0001
0100
0000
0010
0000
0100
0000
0010
0000
0100
,
0002
0000
0000
0000
,
0003
0000
0000
0000
1010
0000
0000
0110
0000
0000
0101
0000
0000
0000
0000
0000
,
0001
0000
0010
0000
,
0100
0000
0100
0000
,
1000
0000
0010
0000
,
0100
0000
0100
0002
,
0013
0100
1000
0001
0000
1000
0010
0100
,
0000
0001
0010
0100
0000
0100
1000
0001
,
0100
0010
1000
0001
0000
0001
1000
0100
,
0000
0110
0000
0010
0001
0000
1001
0000
,
1000
0100
1000
0001
0100
0000
0100
0000
,
0001
0100
0001
1000
0100
0000
0100
0000
,
1000
0001
0100
0001
0010
0000
0010
0000
,
0001
1000
0100
1000
0010
0100
0010
1000
,
0001
0010
0001
0000
1000
0010
1000
0000
,
0001
0100
0001
0000
1000
0100
1000
0000
,
0001
0100
0000
0000
0010
1000
0000
0000
0100
0010
0100
0010
0100
0000
0000
0000
,
1001
0000
0000
0000
,
1000
0100
1000
0001
1000
0010
1000
0001
,
1000
0000
0100
0000
1000
0000
0001
0000
0010
0000
0100
0000
1000
0001
1000
0000
,
0001
0100
0001
1000
0001
0010
0001
1000
,
0001
0000
0100
0000
0001
0000
1000
0000
0010
0000
0100
0000
0001
1000
0001
0000
,
0010
0100
0010
0001
1000
0010
1000
0001
,
0010
0000
0100
0000
0010
0000
0001
0000
1000
0000
0010
0000
0100
0001
0100
0000
,
0020
0000
0000
0000
0000
0000
1030
0000
0001
0000
0000
1000
0000
0000
0100
0000
,
0020
0000
0000
0000
0031
0100
0010
1000
,
0001
0010
0001
1000
0001
0100
0001
1000
,
0001
0000
0010
0000
0001
0000
1000
0000
0100
0000
0010
0000
0001
1000
0001
0000
,
1000
0010
1000
0001
1000
0100
1000
0001
,
1000
0000
0010
0000
1000
0000
0001
0000
0100
0000
0010
0000
1000
0001
1000
0000
,
0100
0010
0100
1000
0001
0100
0001
1000
,
0100
0000
0010
0000
0100
0000
1000
0000
0001
0000
0100
0000
0010
1000
0010
0000
,
0200
0000
0000
0000
0000
0000
0000
0000
0000
0301
0000
0000
1000
0000
0000
0000
0000
0000
0100
0000
0010
0000
0001
0000
,
0200
0000
0000
0000
0000
0000
0310
1000
0001
0010
0000
0000
,
0001
0100
0001
1000
0001
0010
0001
1000
,
0010
0000
0100
0000
1000
0000
0100
0000
0010
0000
0100
0000
0001
1000
0001
0000
,
1000
0100
1000
0001
1000
0010
1000
0001
,
0010
0000
0100
0000
0001
0000
0100
0000
0010
0001
0010
0001
1000
0000
0010
0000
,
1000
0100
0001
0100
1000
0001
0100
0001
,
1000
0010
0001
0010
1000
0001
0010
0100
,
1000
0000
0001
0100
0000
0100
0010
0000
1000
0000
0001
0000
0010
0000
0100
1000
,
0000
0000
0000
0001
0000
0000
0100
0000
0000
0010
0000
0000
1000
0000
0100
0000
0010
0000
0001
0000
0010
0000
0100
0000
,
2000
0000
3100
0010
1000
0010
0100
1000
,
0001
0100
1000
0100
0010
0100
0001
1000
,
0100
0001
0100
0010
0001
1000
0010
0001
,
0010
0000
0100
0000
0001
0000
0010
0000
0100
1000
0100
1000
0001
0000
0100
0000
,
0020
0000
0000
0000
0000
0000
1030
0000
0001
0000
0000
1000
0000
0000
0100
0000
,
0010
0000
0000
0001
0000
0000
1000
0000
0001
0000
0100
0010
0100
0000
0000
0000
,
0001
0000
1000
0100
0000
0100
0010
0000
0001
0000
1000
0000
0010
0000
0100
0001
,
0000
0000
0000
1000
0000
0000
0100
0000
0000
0010
0000
0000
0001
0000
0100
0000
0010
0000
1000
0000
0010
0000
0100
0000
,
0002
0000
0000
0000
,
0000
0000
0000
0000
,
0000
0000
0000
0000
,
0000
0000
0000
0000
,
0003
0000
0000
0000
;

//---------------dance-single - [XMOD] FS, DS-, XO-----------------
#NOTEDATA:;
#CHARTNAME:get down!;
#STEPSTYPE:dance-single;
#DESCRIPTION:[XMOD] FS, DS-, XO-;
#CHARTSTYLE:;
#DIFFICULTY:Hard;
#METER:16;
#RADARVALUES:0.845678,0.934638,0.162997,0.414901,0.952049,799.000000,777.000000,22.000000,56.000000,11.000000,0.000000,0.000000,0.000000,0.000000,0.845678,0.934638,0.162997,0.414901,0.952049,799.000000,777.000000,22.000000,56.000000,11.000000,0.000000,0.000000,0.000000,0.000000;
#CREDIT:TaroNuke vs. Scrypts;
#NOTES:
0000
0000
0000
0000
,
0000
0000
0000
0000
,
0000
0000
0000
0000
,
1100
0000
0000
1001
0000
0000
0000
0000
0000
0000
0000
0000
0000
0000
0000
0000
,
2000
0000
0000
0000
0000
0000
0000
3001
,
0011
0000
0000
1001
0000
0000
0000
0000
0000
0000
0000
0000
0000
0000
0000
0000
,
0002
0000
2003
0000
,
3001
0000
0010
0000
0100
0000
1000
0001
1000
0100
0000
0010
0000
0000
0001
0000
,
0100
0000
0010
1000
0000
0010
0100
0000
0001
1000
0000
0100
0000
0000
0010
0000
,
0001
0000
0100
0010
1000
0000
0001
0010
0100
0000
1000
0010
0100
0001
0100
0010
,
1000
0000
0000
0000
0100
0000
0000
0000
0010
0000
0001
1000
0020
0000
0000
1030
,
0200
0000
0000
0000
0310
0000
0001
0000
1000
0010
0100
0010
1000
0000
0100
0000
,
0010
0000
0001
0000
0100
0000
0010
0000
1000
0010
0100
0001
1000
0100
0010
0001
,
0100
0000
0000
0000
0101
0000
0000
1100
0000
0000
0100
1000
0001
0000
1000
0000
,
0010
0000
0010
0100
0001
0000
0001
1000
0100
0010
0001
0010
0200
0000
1300
0000
,
1001
0000
0001
0100
0010
0000
1000
0010
0200
0000
0302
0000
0023
0000
0031
1000
,
0100
0000
0010
0001
0100
0000
0010
1000
0100
0000
0010
0001
2000
0000
0000
0000
,
3001
0010
0001
0000
1000
0010
1000
0000
0001
0100
0001
1000
0200
0000
0000
0000
,
0310
0000
0001
0000
1000
0000
0010
1000
0001
0000
0010
0000
0100
0000
1000
0000
,
0001
0000
0001
0000
1000
0000
0100
1000
0001
0100
0010
0100
0001
0000
0010
0000
,
0100
0000
1000
0000
0100
0000
0010
0000
0001
0010
0100
1000
0001
0100
0010
1000
,
0100
0000
0000
0000
1100
0000
0000
0101
0000
0000
0100
0001
1000
0000
0001
0000
,
0010
0000
0010
0100
1000
0000
1000
0001
0200
0000
0320
0000
2030
0000
3001
0000
,
0011
0000
0001
0100
0020
0000
2030
0000
3002
0000
0023
0000
0032
0000
1003
0001
,
0100
0000
0010
1000
0100
0000
0010
0001
0100
0000
0010
1000
0002
0000
0013
0100
,
1000
0000
1100
0000
1001
1001
0000
0001
,
0200
0000
0010
0000
0302
0003
1001
0000
,
1000
0000
0100
0000
0001
0000
0100
0000
1000
0000
0001
0100
00M0
0100
1000
0000
,
0001
0000
0100
0000
1000
0000
0100
0000
0001
0000
1000
0100
00M0
0100
0001
0000
,
1000
0000
0010
0000
0001
0000
0010
0000
1000
0000
0001
0010
0M00
0010
1000
0000
,
0001
0000
0010
0000
1000
0000
0010
0100
1000
0000
0000
0000
0001
1000
0001
1000
,
0010
0000
1000
0001
1000
0100
0000
0010
0000
0001
1000
0000
0010
0000
0100
0001
,
0000
0100
0010
1000
0001
0000
0010
0100
0000
1000
0000
0100
0000
1000
0000
0100
,
0020
0000
0000
0000
0000
0000
0031
0100
0010
1000
0100
0010
,
0000
0000
0001
1000
0010
0000
0000
1010
0000
0000
0101
0000
1000
0000
0000
0000
,
0001
0010
0100
1000
0000
0100
0010
0001
,
0000
1000
0010
0100
0000
0001
1000
0100
,
0000
1000
0001
0010
0000
0001
1000
0100
,
0000
1000
0010
0100
0000
0001
2000
3200
,
1300
0001
0010
0100
0000
1000
0001
0100
,
0000
0001
0010
0100
0000
1000
0100
1000
,
0001
0100
0010
1000
0100
0010
0001
1000
,
0010
1000
0010
0000
0000
0000
0100
0001
1000
0000
0100
0000
0011
0000
0000
0000
,
0001
0000
1000
0000
0100
00M0
0100
0000
0001
0000
0000
0000
0100
0000
0001
0000
,
1000
0000
0001
0000
0100
00M0
0100
0000
1000
0000
0000
0000
0100
0000
1000
0000
,
0001
0000
1000
0000
0010
0M00
0010
0000
0001
0000
0000
0000
0010
0000
0001
0000
,
1000
0000
0001
0000
0010
0M00
0010
0000
1000
0000
0100
0010
0001
0000
0001
0000
,
1000
0000
0001
0010
0001
0000
1000
0000
0001
0000
1000
0010
1000
0000
0001
0000
,
1000
0000
0001
0100
0001
0000
1000
0000
0001
0000
1000
0100
1000
0000
0001
0000
,
0100
0010
0000
0000
1000
0001
0000
0000
0010
0100
1000
0010
0100
0001
1000
0100
,
1000
0000
0000
0000
0100
0000
0000
0000
0010
0001
1000
0001
0100
0000
0000
0000
,
0001
0010
0100
1000
0001
0100
0010
0200
0000
0000
1300
0000
0100
0010
0100
0002
,
0000
0000
0013
0100
1000
0000
0001
1000
0001
0010
0100
1000
0001
0100
0010
1000
,
0001
0010
0100
1000
0001
0100
0010
0200
0000
0000
1300
0100
0010
0000
0100
0001
,
1000
0100
1000
0020
0000
0000
0031
0010
1000
0000
0001
1000
0020
0000
0130
0001
,
1000
0100
0010
0001
1000
0100
0010
0200
0000
0000
0301
0000
0100
0010
0100
2000
,
0000
0000
3010
0100
0010
0000
1000
0001
1000
0010
0100
0001
1000
0100
0010
0001
,
2000
0000
0000
0000
0000
0000
3001
0000
1001
0000
0000
1000
0010
0000
0110
0000
,
0100
0000
0000
0000
0000
0000
0001
0000
0000
1000
0000
0000
0100
0000
0000
0000
0000
0000
0020
0000
0000
0000
0000
0000
0031
0000
0000
0000
0100
0000
0000
0000
0010
0000
0000
0000
1000
0000
0000
0100
0000
0000
0010
0000
0000
0001
0000
0000
,
1000
0010
0100
0001
1000
0100
0010
0200
0000
0000
0301
0000
0100
0010
0100
2000
,
0000
0000
3010
0100
0010
0000
1000
0001
1000
0010
0100
0001
1000
0100
0010
0001
,
1000
0010
0100
0001
1000
0100
0010
0200
0000
0000
0301
0100
0010
0000
0100
1000
,
0001
0100
0001
0020
0000
0000
1030
0010
0001
0000
1000
0001
0020
0000
0130
1000
,
0001
0100
0010
1000
0001
0100
0010
0200
0000
0000
1300
0000
0100
0010
0100
0002
,
0000
0000
0013
0100
0010
0000
0001
1000
0001
0010
0100
1000
0001
0100
0010
1000
,
0002
0000
0000
0000
0000
0000
0000
0000
0000
1003
0000
0000
1001
0000
0000
0000
0000
0000
0001
0000
0010
0000
0100
0000
,
1000
0000
0000
0000
0000
0000
0010
0000
0000
0100
0000
0000
0001
0000
0000
0000
0000
0000
2000
0000
0000
0000
0000
0000
3001
0000
0000
0000
0100
0000
0000
0000
0010
0000
0000
0000
1000
0000
0000
0100
0000
0000
0010
0000
0000
0001
0000
0000
,
1000
0010
1000
0000
0001
0010
0001
0000
1000
0100
1000
0000
0001
0100
0001
0010
,
0000
0100
1000
0100
00M0
0100
0001
0100
0010
0000
1000
0001
0020
0000
0230
0000
,
1300
0001
1000
0000
0001
0100
0001
0000
1000
0010
1000
0000
0001
0010
0100
2000
,
0000
0000
3010
0000
0100
0000
0001
0000
1000
0100
0010
0002
0100
0000
1003
0000
,
0001
0010
0001
0000
1000
0010
1000
0000
0001
0100
0001
0000
1000
0100
1000
0010
,
0000
0100
0001
0100
00M0
0100
1000
0100
0010
0000
0001
1000
0020
0000
0230
0000
,
0301
0000
0010
0100
0000
0100
1000
0001
0100
0000
0010
0000
1000
0100
0010
0001
,
0000
0000
0000
0010
0000
0000
0100
0000
0000
1000
0000
0000
0001
0000
0100
0000
0010
0000
1000
0000
0100
0000
0010
0000
,
0001
0100
0001
0000
1000
0010
1000
0000
0001
0010
0001
0000
1000
0010
1000
0100
,
0000
0010
0001
0010
0M00
0010
1000
0010
0100
0001
1000
0100
0020
0000
0230
0000
,
1300
0001
1000
0000
0010
0100
0010
0000
1000
0001
1000
0000
0100
0010
0001
2000
,
0000
0000
3010
0000
0100
0000
0100
0000
0001
0010
0100
2000
0100
0000
3001
0000
,
1002
0000
0000
0000
0000
0000
0013
0000
0110
0000
0000
0100
1000
0000
0001
0100
,
0000
0010
1000
0010
0M00
0010
0001
0010
0100
0000
1000
0100
0010
0000
0001
1000
,
0020
0000
0000
0130
0000
0100
0001
1000
0001
0000
0010
0000
0100
0010
0001
1000
,
0000
0000
0000
1000
0000
0000
0010
0000
0000
0000
0000
0000
0100
0000
0000
0000
0000
0000
0001
0000
0000
0000
0000
0000
1000
0000
0000
0000
0100
0000
0000
0000
0010
0000
0000
0000
0001
0000
0000
0000
0100
0000
0000
0000
0010
0000
0000
0000
,
2000
0001
0000
0001
0000
0001
0000
0001
,
0000
0001
0000
0001
0000
0001
0000
0001
,
0000
0001
0000
0001
0000
0001
0000
0001
,
0000
0001
0000
0001
0000
0001
0000
0001
,
3000
0000
0000
0000
;

//---------------dance-single - [XMOD] FS+, HS, XO----------------
#NOTEDATA:;
#CHARTNAME:this is not long train runnin;
#STEPSTYPE:dance-single;
#DESCRIPTION:[XMOD] FS+, HS, XO;
#CHARTSTYLE:;
#DIFFICULTY:Challenge;
#METER:18;
#RADARVALUES:0.921884,1.063554,0.222268,0.281540,1.189136,871.000000,841.000000,30.000000,38.000000,27.000000,0.000000,1.000000,0.000000,0.000000,0.921884,1.063554,0.222268,0.281540,1.189136,871.000000,841.000000,30.000000,38.000000,27.000000,0.000000,1.000000,0.000000,0.000000;
#CREDIT:TaroNuke vs. Scrypts;
#NOTES:
// measure 0
0000
0000
0000
0000
,  // measure 1
0000
0000
0000
0000
,  // measure 2
0000
0000
0000
0000
,  // measure 3
1100
0000
0000
1001
0000
0000
0000
0000
0000
0000
0000
0000
0000
0000
0000
0000
,  // measure 4
2000
0000
0000
0000
0000
0000
0000
3001
,  // measure 5
0011
0000
0000
1001
0000
0000
0000
0000
0000
0000
0000
0000
0000
0000
0000
0000
,  // measure 6
0002
0000
0203
0000
,  // measure 7
0301
0000
0010
0000
0100
0000
1000
0001
1000
0100
0000
0010
0000
0010
0001
0000
,  // measure 8
1000
0000
0010
0100
0000
0100
0001
0000
0010
0100
0000
2000
0000
0000
3001
0000
,  // measure 9
1000
0100
0010
0001
0100
0010
1000
0001
0010
0100
1000
0001
0100
0001
0010
0100
,  // measure 10
1000
0000
0000
0000
0100
0000
0000
0000
0010
0000
0001
1000
0020
0000
0130
0001
,  // measure 11
1000
0000
0100
0000
0010
0000
0001
1000
0100
1000
0010
1000
0100
0000
0010
0000
,  // measure 12
0001
0100
0010
0000
1000
0010
0100
0000
1000
0100
0010
1000
0001
0000
1000
0100
,  // measure 13
0010
0000
0000
0000
0011
0000
0000
1010
0000
0010
0000
0100
0001
0000
1000
0000
,  // measure 14
0100
00M0
0100
0001
0010
0M00
0010
1000
0100
0010
0001
0010
0200
0000
1000
0000
,  // measure 15
1300
0000
0001
0100
0010
1000
0010
0100
0001
0010
0100
1000
0010
0100
0001
1000
,  // measure 16
0200
0000
0010
0001
0000
0000
0010
1000
0000
0000
0310
0001
2000
0000
0000
0000
,  // measure 17
3010
1000
0001
1000
0100
1000
0001
0100
0001
1000
0001
0010
0200
0000
0000
0000
,  // measure 18
1300
0000
0001
0000
0010
0000
0100
1000
0002
0000
0100
0000
2003
0000
0010
0000
,  // measure 19
3001
0000
1000
0000
0010
0000
1000
0001
0100
0001
0010
0001
0100
0000
0010
0000
,  // measure 20
1000
0100
0010
0000
0001
0010
0100
0000
0001
0100
0010
0001
1000
0000
0001
0100
,  // measure 21
0010
0000
0000
0000
1010
0000
0000
0011
0000
0010
0000
0100
1000
0000
0001
0000
,  // measure 22
0100
00M0
0100
1000
0010
0M00
0010
0001
0200
0000
0320
0000
2030
0000
3200
0000
,  // measure 23
1300
0000
0001
0010
0200
0000
1300
0001
1000
0010
0100
0001
1000
0001
0010
0001
,  // measure 24
0200
0000
0010
1000
0000
0000
0010
0001
0000
0000
0310
1000
0002
0000
0000
0000
,  // measure 25
1003
0000
1001
0000
0101
0101
0000
0010
,  // measure 26
2000
0100
0001
3010
,  // measure 27
1001
0000
0001
1000
0100
1000
0100
1000
0001
0000
0010
0100
M000
0100
0001
0000
,  // measure 28
1001
0000
1000
0001
0100
0001
0100
0001
1000
0000
0010
0100
000M
0100
1000
0000
,  // measure 29
1001
0000
1000
0100
0010
0100
0010
0100
1000
0000
0001
0100
00M0
0100
1000
0000
,  // measure 30
1001
0000
0001
0010
0100
1000
0100
0010
0002
0000
0000
0000
0103
0010
0100
0010
,  // measure 31
1000
0000
0100
0010
0100
0010
0000
0001
0000
0100
0010
0000
1000
0000
0100
0010
,  // measure 32
0000
0100
0010
0001
1000
0000
0001
0100
0000
0010
0000
0100
0000
0010
0000
0100
,  // measure 33
0001
0000
0000
0010
0000
0000
0100
0000
0000
1000
0000
0000
0001
0000
0000
0010
0000
0000
0100
0000
0000
1000
0000
0000
0001
0000
0000
0000
1000
0000
0000
0000
0001
0000
0000
0000
1000
0000
0000
0000
0001
0000
0000
0000
1000
0000
0000
0000
,  // measure 34
0000
0000
0000
0000
1010
0000
0000
0110
0000
0000
0202
0000
0303
0000
0000
0000
,  // measure 35
1000
0001
0010
0100
M000
0100
0001
0100
,  // measure 36
M000
0100
0010
0001
0000
0100
0010
1000
,  // measure 37
0001
1000
0100
0010
000M
0010
1000
0010
,  // measure 38
000M
0010
0100
1000
0001
1000
0040
0000
,  // measure 39
0130
0001
1000
0100
00M0
0100
0001
0100
,  // measure 40
00M0
0100
1000
0001
0000
0001
0100
0010
,  // measure 41
1000
0100
0010
0001
0000
0001
1000
0010
,  // measure 42
0000
1010
0000
1000
1001
0000
0110
0000
,  // measure 43
1000
0100
0010
0001
0100
0000
0101
0100
,  // measure 44
0001
0100
0010
1000
0100
0000
1100
0100
,  // measure 45
1000
0001
0010
0100
1000
0000
1010
1000
,  // measure 46
0001
0000
1000
0000
0010
0000
0100
0000
0001
0000
1000
0100
0020
0000
0100
0000
,  // measure 47
0031
0100
0001
0100
0010
1000
0010
1000
,  // measure 48
0001
0010
0001
0010
0100
1000
0100
1000
,  // measure 49
0001
0100
0000
0000
0010
1000
0000
0000
0001
0010
0100
1000
0100
0010
0001
1000
,  // measure 50
0001
0000
0100
0000
0010
1000
1001
0000
,  // measure 51
1000
0100
0010
0100
1000
0010
1000
0100
00M0
0100
0001
0100
0010
0100
0001
0100
,  // measure 52
00M0
0100
1000
0100
0010
0100
1000
0001
0100
0001
1000
0100
0010
0001
0100
0001
,  // measure 53
1000
0100
0010
0100
1000
0010
1000
0100
00M0
0100
0001
0100
0010
1000
0010
0100
,  // measure 54
0001
0010
0100
0002
0000
0000
0103
0010
0001
1000
0010
1000
0200
0000
2300
0000
,  // measure 55
3001
0100
0010
0100
0001
0010
0001
0100
00M0
0100
1000
0100
0010
0100
1000
0100
,  // measure 56
00M0
0100
0001
0100
0010
0100
0001
1000
0100
1000
0001
0100
0010
1000
0100
1000
,  // measure 57
0002
0000
0000
0000
0000
0000
1003
0000
1001
0000
0000
0001
0010
0000
0110
0000
,  // measure 58
0100
0000
0000
0000
0000
0000
1000
0000
0000
0001
0000
0000
0100
0000
0000
0000
0000
0000
0001
0000
1000
0000
0001
0000
1000
0000
0000
0000
0100
0000
0000
0000
0010
0000
0000
0000
0001
0000
0000
0010
0000
0000
0100
0000
0000
1000
0000
0000
,  // measure 59
0001
0100
0010
0100
0001
0010
0001
0100
00M0
0100
1000
0100
0010
0100
1000
0100
,  // measure 60
00M0
0100
0001
0100
0010
0100
0001
1000
0100
1000
0001
0100
0010
1000
0100
1000
,  // measure 61
0001
0100
0010
0100
0001
0010
0001
0100
00M0
0100
1000
0100
0010
0001
0010
0100
,  // measure 62
1000
0010
0100
2000
0000
0000
3100
0010
1000
0001
0010
0001
0200
0000
0302
0000
,  // measure 63
1003
0100
0010
0100
1000
0010
1000
0100
00M0
0100
0001
0100
0010
0100
0001
0100
,  // measure 64
00M0
0100
1000
0100
0010
0100
1000
0001
0100
0001
1000
0100
0010
0001
0100
0001
,  // measure 65
2000
0000
0000
0000
0000
0000
0000
0000
0000
3001
0000
0000
1001
0000
0000
0000
0000
0000
0001
0000
0100
0000
0010
0000
,  // measure 66
1000
0000
0000
0000
0000
0000
0001
0000
0000
0010
0000
0000
0100
0000
0000
0000
0000
0000
0010
0000
0000
0001
0000
0000
1000
0000
0000
0000
0010
0000
0000
0000
0100
0000
0000
0000
0001
0000
0000
0010
0000
0000
0100
0000
0000
1000
0000
0000
,  // measure 67
0001
1000
0010
0100
0001
0100
0010
1000
0001
0010
0100
1000
0001
1000
0100
0010
,  // measure 68
0001
0100
0010
1000
0100
1000
0010
0100
0001
0010
0100
1000
0020
0000
0130
0001
,  // measure 69
1000
0100
0010
0001
1000
0001
0010
0100
1000
0001
0100
0010
1000
0010
0100
0002
,  // measure 70
0000
0000
1003
0000
0100
0000
0010
0000
1000
0010
0100
0010
0001
0000
1001
0000
,  // measure 71
1000
0100
0010
0001
1000
0001
0010
0100
1000
0010
0100
0001
1000
0001
0100
0010
,  // measure 72
1000
0100
0010
0001
0100
0001
0010
0100
1000
0010
0100
0001
2000
0000
3200
0000
,  // measure 73
0310
0000
0010
0001
0000
0100
0010
1000
0001
0000
0010
0000
0100
0000
1000
0001
,  // measure 74
0000
0000
0000
0100
0000
0000
0010
0000
0000
1000
0000
0000
0001
0000
0010
0000
0100
0000
1000
0000
0010
0000
0100
0000
,  // measure 75
0001
0100
0010
0100
1000
0100
0010
0100
0001
1000
0100
1000
0001
0010
0100
0010
,  // measure 76
000M
0010
1000
0010
000M
0010
0100
0010
0001
1000
0010
1000
0001
0010
0100
0000
,  // measure 77
1000
0100
0010
0100
0001
0100
0010
0100
1000
0001
0100
0001
1000
0010
0100
0002
,  // measure 78
0000
0000
1003
0000
0010
0000
0100
0000
1000
0100
0010
0100
0001
0000
1000
0000
,  // measure 79
1001
0000
1000
0000
0010
0000
0100
0001
0020
0000
0000
0100
0000
0000
0031
0000
,  // measure 80
0000
0100
0001
0100
00M0
0100
1000
0100
0010
0001
0010
0100
1000
0000
0010
0000
,  // measure 81
0100
0000
0001
0100
00M0
0100
1000
0001
0100
0000
0010
0000
1000
0001
0010
0100
,  // measure 82
0000
0000
0000
0010
0000
0000
0001
0000
0000
1000
0000
0000
0001
0000
0100
0000
0100
0000
1000
0000
0010
0000
0010
0000
,  // measure 83
0002
1000
0000
0100
0000
1000
0000
0100
,  // measure 84
0000
1000
0000
0100
0000
1000
0000
0100
,  // measure 85
0000
1000
0000
0100
0000
1000
0000
0100
,  // measure 86
0000
1000
0000
0100
0000
1000
0000
0100
,  // measure 87
0003
0000
0000
0000
;
