#TITLE:CANDY POP;
#SUBTITLE:feat. SOUL'd OUT;
#ARTIST:Heartsdales;
#TITLETRANSLIT:;
#SUBTITLETRANSLIT:;
#ARTISTTRANSLIT:;
#GENRE:;
#CREDIT:azureHaights;
#BANNER:CANDY POP feat. SOUL'd OUT-banner.png;
#BACKGROUND:CANDY POP feat. SOUL'd OUT-bg.png;
#LYRICSPATH:CANDY POP feat. SOUL'd OUT.lrc;
#CDTITLE:CANDY POP feat. SOUL'd OUT-cdtitle.png;
#MUSIC:CANDY POP feat. SOUL'd OUT.ogg;
#OFFSET:0.000000;
#SAMPLESTART:70.837006;
#SAMPLELENGTH:18.285999;
#SELECTABLE:YES;
#BPMS:0.000000=105.000000
;
#STOPS:
;
#BGCHANGES:0.000=CANDY POP feat. SOUL'd OUT.avi=1.000=0=0=1=====,
199.500=CANDY POP feat. SOUL'd OUT-bg.png=1.000=0=0=1=====,
99999=-nosongbg-=1.000=0=0=0 // don't automatically add -songbackground-
;
#KEYSOUNDS:;
#ATTACKS:;

//---------------dance-single - FS- SS- XO- RH SJ----------------
#NOTES:
     dance-single:
     :
     Hard:
     13:
     0.497278,0.555901,0.274360,0.120033,0.257213,406.000000,374.000000,32.000000,14.000000,2.000000,0.000000,0.497278,0.555901,0.274360,0.120033,0.257213,406.000000,374.000000,32.000000,14.000000,2.000000,0.000000:
// measure 0
0000
0000
0000
0000
,  // measure 1
0000
0000
0000
0000
,  // measure 2
0000
0000
0000
0000
,  // measure 3
0000
0000
0000
0000
,  // measure 4
0010
0001
1000
0100
0000
1000
0001
0100
,  // measure 5
0010
1000
0100
0000
1000
0010
1010
1001
,  // measure 6
0001
0100
0001
1000
0000
0001
0010
0000
,  // measure 7
0100
1000
0001
1000
0000
0010
0100
0000
,  // measure 8
0010
0100
0010
1000
0000
0100
0010
0100
,  // measure 9
0001
0100
1000
0000
1000
0010
1010
1001
,  // measure 10
0001
0100
0001
0010
0000
0100
0100
0000
,  // measure 11
1000
0100
1000
0010
0000
0100
0100
0000
,  // measure 12
0001
0000
0000
0000
0000
1000
0100
0000
0000
0000
0000
1000
0001
0000
0000
0000
0000
0010
0001
0000
0000
0000
0000
1000
,  // measure 13
0001
0000
0000
0100
0000
0000
0010
0000
0000
1000
0000
0000
0010
0000
0100
0001
0000
0100
0001
0000
0100
0001
0000
0000
,  // measure 14
0200
0000
0000
0000
0000
0000
0000
0000
0000
0000
0000
0000
0000
0000
0000
0300
0000
0000
0010
0000
0000
0100
0000
0001
,  // measure 15
1000
0000
0000
0100
0000
0000
0010
0000
0000
0100
0000
0000
1000
0000
0100
0010
0000
0000
0001
0000
0000
0010
0000
0000
,  // measure 16
0001
0100
0010
1000
0100
000M
0100
0001
,  // measure 17
M000
0000
0000
0001
0000
0000
0100
0000
0000
1000
0000
0100
1000
0000
0000
0001
0000
0000
1000
0000
0000
1000
0000
0000
,  // measure 18
0100
0000
0000
1000
0000
0000
0010
0000
1000
0010
0000
0000
0100
0000
0000
0001
0000
0001
0010
0000
0000
0010
0000
0000
,  // measure 19
0100
0000
0000
1000
0000
0000
0001
0000
0000
0010
0000
0001
0000
0000
1000
0010
0000
0000
0100
0000
0000
0100
0000
0000
,  // measure 20
0001
0000
0000
0010
0000
0000
0001
0000
0000
0100
0000
0000
0010
0000
1000
0010
0000
0000
1000
0000
0000
0100
0000
0000
,  // measure 21
1000
0100
0010
0100
1100
0000
0101
0000
,  // measure 22
0001
0000
0100
0000
0000
0010
0100
0000
0000
0001
0000
0000
0100
0000
0000
0010
0000
1000
0000
0000
0000
0100
0000
0000
,  // measure 23
1000
0000
0000
1000
0000
0000
0001
0000
0100
0001
0000
0000
1000
0000
0010
1000
0000
0000
0010
0000
0000
0100
0000
0000
,  // measure 24
0001
0000
0000
1000
0000
0000
0100
0000
0000
0100
0000
0010
0100
0000
0000
0100
0000
0000
1000
0000
0000
0001
0000
0000
,  // measure 25
0100
0000
0010
0100
0000
0000
0001
0000
0100
0001
0000
0000
0100
0000
0010
0100
0000
0000
0010
0000
1000
0010
0000
0000
,  // measure 26
1000
0000
0000
0100
0000
0000
0010
0000
0000
0100
0000
0000
1000
0000
0000
0010
0000
0000
0100
0000
0000
0010
0000
0010
,  // measure 27
1000
0000
0000
0100
0000
0000
0001
0000
0000
0100
0000
0000
1000
0000
0000
0001
0000
0100
0001
0000
0000
0100
0000
0000
,  // measure 28
0010
0000
0000
1000
0000
0000
0100
0000
0000
0010
0000
0001
0100
0000
0000
0010
0000
0000
1000
0000
0000
0010
0000
0000
,  // measure 29
0100
0000
0010
1000
0000
0000
1010
0000
0000
1010
0000
0000
1000
0000
0100
0010
0000
0000
0001
0000
0000
0100
0000
0000
,  // measure 30
0100
0000
0000
0101
0000
0000
0101
0000
0000
0001
0000
0100
0001
0000
0000
1000
0000
0000
0001
0000
0000
1000
0000
0000
,  // measure 31
0100
1100
0100
0110
0010
0011
0001
1001
,  // measure 32
1000
0000
0000
0000
0000
0100
0010
0000
0000
0100
0000
1000
0000
0000
0100
0010
0000
0000
0001
0000
0000
0100
0000
0010
,  // measure 33
0100
0000
0000
0001
0000
0000
1000
0000
0100
0000
0000
0010
0001
0000
0000
0011
0000
0000
1001
0000
0000
1100
0000
0000
,  // measure 34
1001
0001
0100
0010
0100
0001
1000
0100
,  // measure 35
2200
0000
0000
3300
0000
0000
0202
0000
0000
0303
0000
0000
0100
0000
0000
0001
0000
0100
0000
0000
0000
0010
0000
0000
,  // measure 36
1000
0000
0000
0010
0000
0100
0000
0000
0001
0100
0000
0000
0001
0000
0000
0010
0000
0000
0010
0000
0000
0001
0000
0000
,  // measure 37
0100
0010
1000
0100
1000
1100
1001
0011
,  // measure 38
1001
0000
0000
1000
0000
0001
1000
0000
0000
0010
0000
0100
0010
0000
0000
0100
0000
0000
0001
0000
0000
0010
0000
0000
,  // measure 39
0002
0000
0000
0000
0000
0000
2003
0000
0000
0000
0000
0000
3010
0000
0000
0100
0000
0010
0000
0000
0000
0100
0000
0000
,  // measure 40
0002
0000
0000
0000
0000
0000
0013
0000
0000
0100
0000
1000
0000
0000
0000
0100
0000
0000
1000
0000
0000
0001
0000
0000
,  // measure 41
0100
0010
0100
0001
1000
1001
1010
1001
,  // measure 42
0101
0000
0000
0001
0000
0000
0100
0000
0000
0100
0000
0000
0010
0000
0000
0010
0000
1000
0001
0000
0000
0001
0000
0000
,  // measure 43
0020
0000
0000
0030
0000
0000
0200
0000
0000
0300
0000
0000
1000
0000
0000
0100
0000
1000
0000
0000
0000
0100
0000
0000
,  // measure 44
0010
0000
0000
0001
0000
0100
0000
0000
0001
0000
0000
0000
0010
0000
0000
0000
0000
0000
0100
0000
0000
0100
0000
0000
,  // measure 45
0010
0000
0001
1000
0000
0010
0100
0000
0001
1000
0000
0100
0010
0000
0000
0110
0000
0000
0011
0000
0000
0101
0000
0000
,  // measure 46
0110
0000
0000
0010
0000
0000
1000
0000
0000
0100
0000
1000
0100
0000
0000
1000
0000
0000
0001
0000
0000
0100
0000
0000
,  // measure 47
0002
0003
0200
0300
0020
0030
0200
0300
,  // measure 48
0001
0000
0000
0000
0000
1000
0001
0000
0000
0000
0000
1000
0100
0000
0000
0000
0000
1000
0001
0000
0000
0000
0000
0100
,  // measure 49
0001
0000
0000
1000
0000
0000
0100
0000
0000
1000
0000
0000
0010
0000
0100
0001
0000
1000
0100
0000
0010
0001
0000
0000
;

//---------------dance-single - XO- RH DR BR----------------
#NOTES:
     dance-single:
     :
     Challenge:
     15:
     0.618535,0.663912,0.385819,0.017148,0.595876,505.000000,460.000000,45.000000,2.000000,4.000000,0.000000,0.618535,0.663912,0.385819,0.017148,0.595876,505.000000,460.000000,45.000000,2.000000,4.000000,0.000000:
// measure 0
0000
0000
0000
0000
,  // measure 1
0000
0000
0000
0000
,  // measure 2
0000
0000
0000
0000
,  // measure 3
0000
0000
0000
0000
,  // measure 4
0010
0001
1000
0010
0010
1000
0001
0010
,  // measure 5
0100
1000
0001
0100
0010
1010
1001
0101
,  // measure 6
0001
0000
0100
0000
0010
0000
0100
0000
0001
0000
1000
0000
0100
0000
0100
1000
,  // measure 7
0100
0000
1000
0000
0001
0100
0001
0100
0001
1000
0001
0100
0001
0000
1000
0010
,  // measure 8
1000
0100
0010
1000
0010
0001
0100
0001
,  // measure 9
1000
0100
0001
0100
1000
1100
1001
0011
,  // measure 10
1001
0000
1000
0000
0001
0010
0001
0010
0100
0010
0100
1000
0100
0000
0100
1000
,  // measure 11
0100
1000
0100
0010
0001
0000
0100
0001
0100
0010
1000
0000
1000
0000
0100
0000
,  // measure 12
1000
0000
0000
0000
0000
0001
0010
0000
0000
0000
0000
0100
1000
0000
0000
0000
0000
0010
1000
0000
0000
0000
0000
0001
,  // measure 13
1000
0000
0000
1000
0000
0000
0100
0000
0000
1000
0000
0000
0100
1000
0100
1000
0100
1000
0001
0100
0001
0100
0001
0100
,  // measure 14
0002
0000
0000
0000
0000
0000
0000
0000
0000
0000
0000
0000
0003
0000
0000
0000
0000
0000
0100
0000
0000
0100
0000
0001
,  // measure 15
1000
0000
0000
0100
0000
0000
0010
0000
0100
1000
0000
0001
0010
0000
0000
0010
0000
0000
0001
0000
0000
0100
0000
0000
,  // measure 16
0001
0000
1000
0010
0000
0000
1000
0000
0100
1000
0000
0000
1000
0000
0001
0000
0000
0000
0100
0000
0000
0001
0000
1000
,  // measure 17
0000
0000
0000
0001
0000
0010
0100
0000
0000
1000
0000
0100
0000
0000
1000
0001
0000
0000
0010
0000
0000
0001
0000
0000
,  // measure 18
1000
0000
0000
0010
0000
0000
1000
0000
0000
0010
0000
0100
0000
0000
0000
0001
0000
0001
0010
0000
0000
0010
0000
0100
,  // measure 19
0000
0000
0000
1000
0000
0000
0001
0000
0000
0010
0000
0001
0000
0000
1000
0010
0000
0000
0100
0000
0000
0100
0000
0000
,  // measure 20
0001
0000
0000
0010
0000
0010
0001
0000
0000
0100
0000
0000
0010
0000
1000
0010
0000
1000
0100
0000
1000
0001
0000
0100
,  // measure 21
0001
0000
0100
0010
0000
1000
0010
0000
0100
0001
0000
0100
M011
0000
0000
0000
0000
0000
0011
0000
0000
0000
0000
0000
,  // measure 22
0001
0000
1000
0000
0000
0100
0010
0000
0000
0010
0000
0100
1000
0000
0100
1000
0000
0001
0000
0000
0001
0000
0000
0001
,  // measure 23
1000
0000
0000
1000
0000
0000
0001
0000
0100
0001
0000
0000
0100
0000
0001
0100
0000
0000
0010
0000
0000
0100
0000
0000
,  // measure 24
0001
0000
0000
1000
0000
0000
0100
0000
0000
0100
0000
0010
0100
0000
0010
0100
0000
0000
1000
0000
0001
1000
0000
0000
,  // measure 25
0010
0000
1000
0010
0000
1000
0010
0000
1000
0010
0000
0000
0100
0000
0001
0100
0000
0001
0100
0000
0001
0100
0000
0000
,  // measure 26
0001
0000
0000
0010
0000
0100
1000
0000
0000
0010
0000
0100
0001
0000
0000
1000
0000
0000
1000
0000
0000
0100
0000
0010
,  // measure 27
0100
0000
0000
0100
0000
0000
1000
0000
0000
0001
0000
0000
0100
0000
0000
0100
0000
0001
0010
0000
0000
0100
0000
0000
,  // measure 28
1000
0000
0000
1000
0000
0100
1000
0000
0000
0001
0000
0100
0001
0000
0000
1000
0000
0010
1000
0000
0000
0001
0000
0010
,  // measure 29
0001
0000
0010
0001
0000
0000
0011
0000
0000
0011
0000
0000
0001
0000
0100
1000
0000
0000
0100
0000
0000
0010
0000
0000
,  // measure 30
1000
0000
0000
1010
0000
0000
1010
0000
0000
0001
0000
0100
0001
0000
0000
0100
0000
0000
0101
0000
0000
0101
0000
0000
,  // measure 31
0100
M011
0100
101M
0100
M011
0100
0010
,  // measure 32
1000
0000
0000
0000
0000
1000
0100
0000
0000
1000
0000
0010
0000
0000
0100
0010
0000
0000
0100
0000
0000
0001
0000
0010
,  // measure 33
0100
0000
0000
1000
0000
0000
0100
0000
1000
0000
0000
0001
0100
0000
0000
0101
0000
0000
1001
0000
0000
1100
0000
0000
,  // measure 34
1001
0000
0000
0001
0000
0000
0100
0000
0000
0010
0000
0100
0000
0000
0001
1000
0000
0100
0010
0000
0001
0100
0000
0000
,  // measure 35
0101
0000
0000
0000
0000
0000
1100
0000
0000
0000
0000
0000
0101
0000
0000
0001
0000
0100
0000
0000
0000
0010
0000
0000
,  // measure 36
1000
0000
0000
0010
0000
0100
0000
0000
0001
1000
0000
0000
0100
0000
0000
0010
0000
0000
0001
0000
0010
0001
0000
0000
,  // measure 37
0100
0000
0010
1000
0000
0000
0100
0000
1000
0100
0000
1000
0100
0000
0000
1100
0000
0000
1001
0000
0000
0101
0000
0000
,  // measure 38
1001
0000
0000
0001
0000
1000
0001
0000
0000
0100
0000
0010
0100
0000
0000
0001
0000
1000
0001
0000
0000
0010
0000
0000
,  // measure 39
0011
0000
0000
0000
0000
0000
1010
0000
0000
0000
0000
0000
0011
0000
0000
0001
0000
0010
0000
0000
0000
0100
0000
0000
,  // measure 40
1000
0000
0000
0000
0000
1000
0010
0000
0000
1000
0000
0100
0000
0000
0100
1000
0000
0000
0001
0000
0000
0001
0000
0100
,  // measure 41
0010
0000
0100
0001
0000
0100
0010
0000
1000
0000
0000
0000
0001
0000
0000
1001
0000
0000
1010
0000
0000
1001
0000
0000
,  // measure 42
0101
0000
0000
0001
0000
0000
0100
0000
0010
0100
0000
0001
0010
0000
0100
0010
0000
0001
1000
0000
0000
0001
0000
0000
,  // measure 43
1001
0000
0000
0000
0000
0000
0210
0000
0000
0301
0000
0000
1001
0000
0000
0001
0000
0100
0000
0000
0000
0100
0000
0000
,  // measure 44
0010
0000
0000
1000
0000
0100
0000
0000
1000
0000
0000
0000
0010
0000
0000
0000
0000
0000
0100
0000
0000
0001
0000
0000
,  // measure 45
0010
0001
1000
0010
1000
0001
0010
0001
1000
0010
1000
0001
0010
0000
0000
0000
0000
0000
0011
0000
0000
0011
0000
0000
,  // measure 46
1001
0000
0000
0001
0000
1000
0100
0000
0000
0100
0000
1000
0100
0000
1000
0010
0000
0000
0100
0000
0000
0001
0000
0000
,  // measure 47
0101
0000
0000
0000
0000
0000
1100
0000
0000
0000
0000
0000
0101
0000
0000
0100
0000
0010
0000
0000
0000
0100
0000
0000
,  // measure 48
0001
0000
0000
0000
0000
1000
0001
0000
0000
0000
0000
1000
0100
0000
0000
0000
0000
1000
0001
0000
0000
0000
0000
0100
,  // measure 49
0001
0000
0000
1000
0000
0000
0100
0000
0000
1000
0000
0000
0010
1000
0010
1000
0010
1000
0010
1000
0010
1000
0010
1000
;

//---------------dance-single - FS- SS- XO- RH SJ----------------
#NOTES:
     dance-single:
     :
     Medium:
     8:
     0.333152,0.342093,0.034295,0.231491,0.000000,272.000000,268.000000,4.000000,27.000000,0.000000,0.000000,0.333152,0.342093,0.034295,0.231491,0.000000,272.000000,268.000000,4.000000,27.000000,0.000000,0.000000:
// measure 0
0000
0000
0000
0000
,  // measure 1
0000
0000
0000
0000
,  // measure 2
0000
0000
0000
0000
,  // measure 3
0000
0000
0000
0000
,  // measure 4
2000
0000
3001
0200
0000
0301
1000
0000
,  // measure 5
0010
0000
0010
0000
0010
0010
1000
0001
,  // measure 6
1001
0000
0001
1000
0000
0000
0100
0000
,  // measure 7
1001
0000
1000
0001
0000
0000
0100
0000
,  // measure 8
0020
0000
1030
0200
0000
1300
0001
0000
,  // measure 9
0010
0000
0010
0000
0100
0100
1000
0001
,  // measure 10
1001
0000
1000
0100
0000
0000
0010
0000
,  // measure 11
0110
0000
0010
0100
0000
0000
1000
0000
,  // measure 12
0001
0100
0010
1000
,  // measure 13
0100
1000
0100
0010
0001
0001
0001
0001
,  // measure 14
0002
0000
0000
0000
0003
0000
0100
0100
,  // measure 15
0001
0100
0010
1000
0010
1000
0100
1000
,  // measure 16
0001
0000
0010
0100
1000
0000
0001
1000
,  // measure 17
0010
0100
0001
1000
1000
0000
0001
0000
,  // measure 18
1000
1000
0010
0100
0000
0001
0010
0100
,  // measure 19
0000
1000
0001
0100
0001
0010
0001
1000
,  // measure 20
0100
1000
0001
0010
0100
0100
0000
0100
,  // measure 21
1000
0100
1000
0100
0020
0000
0032
0000
,  // measure 22
0103
0010
0100
0000
0001
0010
0001
1000
,  // measure 23
0100
0000
1000
0000
0010
1000
0010
0100
,  // measure 24
0001
0000
0010
0000
0001
1000
0001
1000
,  // measure 25
0200
0320
0032
2003
,  // measure 26
3010
0000
0010
0100
0010
1000
0010
0100
,  // measure 27
0001
0001
0100
0010
1000
0000
0100
0000
,  // measure 28
0010
0001
0100
0000
0001
1000
0100
0000
,  // measure 29
1000
0010
0100
0100
0001
1000
0010
0000
,  // measure 30
0100
0001
0001
0000
0010
0001
0010
0010
,  // measure 31
0000
0100
0000
1000
0000
0001
0000
0010
,  // measure 32
0002
0023
0230
2300
,  // measure 33
3001
0001
1000
0010
1000
0010
0010
0100
,  // measure 34
0100
0000
0001
0000
1000
0001
1000
0000
,  // measure 35
0200
0000
0320
0000
0130
0010
0100
0010
,  // measure 36
0001
0100
0001
0000
1000
0001
1000
0000
,  // measure 37
0100
0010
0001
1000
0100
0010
0010
0001
,  // measure 38
0001
0000
1000
0000
0010
1000
0010
0000
,  // measure 39
0200
0000
0320
0000
0130
0010
0100
0010
,  // measure 40
2000
3200
0320
0032
,  // measure 41
1003
0100
1000
0010
1000
0100
0100
0010
,  // measure 42
0010
0000
0001
0000
0001
0100
0001
0000
,  // measure 43
2000
0000
3200
0000
1300
0100
1000
0100
,  // measure 44
0010
0001
0100
0001
0010
0000
0100
0000
,  // measure 45
1000
1000
1000
1000
1000
0100
0100
0010
,  // measure 46
0010
0000
0100
0000
1000
0001
0100
0000
,  // measure 47
0020
0000
2030
0000
3010
0100
0010
0100
,  // measure 48
0001
0100
0010
1000
,  // measure 49
0001
0010
0100
1000
0001
0001
0001
0001
;

//---------------dance-single - ----------------
#NOTES:
     dance-single:
     :
     Easy:
     5:
     0.205770,0.234599,0.051443,0.085738,0.000000,168.000000,162.000000,6.000000,10.000000,0.000000,0.000000,0.205770,0.234599,0.051443,0.085738,0.000000,168.000000,162.000000,6.000000,10.000000,0.000000,0.000000:
// measure 0
0000
0000
0000
0000
,  // measure 1
0000
0000
0000
0000
,  // measure 2
0000
0000
0000
0000
,  // measure 3
0000
0000
0000
0000
,  // measure 4
0001
0000
0010
0000
,  // measure 5
0100
0000
1000
0100
,  // measure 6
1000
0000
0010
0000
,  // measure 7
1000
1000
0001
1000
,  // measure 8
0100
0000
1000
0000
,  // measure 9
0001
0000
0010
0001
,  // measure 10
0100
0000
0010
0000
,  // measure 11
1000
1000
0001
0001
,  // measure 12
0200
0300
0200
0300
,  // measure 13
0100
0100
0100
0100
,  // measure 14
1001
0000
0000
1001
,  // measure 15
0001
0100
0010
1000
,  // measure 16
0001
1000
1000
0001
,  // measure 17
0001
0010
0100
0100
,  // measure 18
1000
0001
1000
0100
,  // measure 19
1000
0010
0100
0100
,  // measure 20
0001
0100
0010
0010
,  // measure 21
1000
0001
1000
1000
,  // measure 22
1000
0100
0010
0001
,  // measure 23
0001
0100
0010
1000
,  // measure 24
0001
0010
0001
0001
,  // measure 25
1000
0010
1000
1000
,  // measure 26
0200
0300
1000
0001
,  // measure 27
0200
0300
0001
1000
,  // measure 28
0010
1000
0100
1000
,  // measure 29
0001
0010
0001
0100
,  // measure 30
0001
0010
0100
0010
,  // measure 31
0100
1000
1000
1000
,  // measure 32
1001
1001
0001
0010
,  // measure 33
0001
1000
0010
1000
,  // measure 34
0100
1000
0100
1000
,  // measure 35
0001
0010
0001
0100
,  // measure 36
0001
0010
0100
0100
,  // measure 37
1000
0010
0100
0100
,  // measure 38
0001
0001
1000
1000
,  // measure 39
0002
0003
2000
3000
,  // measure 40
1001
1001
1000
0010
,  // measure 41
0100
0001
1000
0001
,  // measure 42
0100
0001
0010
0010
,  // measure 43
0001
1000
0010
0010
,  // measure 44
0100
0001
1000
0100
,  // measure 45
1000
1000
1000
0001
,  // measure 46
0100
0001
0010
0001
,  // measure 47
2000
3000
0002
0003
,  // measure 48
0200
0300
0200
0300
,  // measure 49
0100
0100
0010
0010
;
