#VERSION:0.83;
#TITLE:CAN YOU SEE ME?;
#SUBTITLE:;
#ARTIST:Rezz;
#TITLETRANSLIT:;
#SUBTITLETRANSLIT:;
#ARTISTTRANSLIT:;
#GENRE:;
#CREDIT:;
#MUSIC:CAN YOU SEE ME.ogg;
#BANNER:CAN YOU SEE ME-bn.png;
#BACKGROUND:CAN YOU SEE ME-bg.png;
#CDTITLE:;
#SAMPLESTART:30.769;
#SAMPLELENGTH:12.308;
#SELECTABLE:YES;
#OFFSET:0.000;
#BPMS:0.000=156.000;
#STOPS:;
#BGCHANGES:;
#FGCHANGES:;

//--------------- dance-single - EmeraldX ----------------
#NOTEDATA:;
#STEPSTYPE:dance-single;
#DESCRIPTION:EmeraldX;
#DIFFICULTY:Beginner;
#METER:2;
#RADARVALUES:0,0,0,0,0;
#NOTES:
0000
0000
0000
0000
,
0000
0000
0000
0000
,
0000
0000
0000
0000
,
0000
0000
0000
0000
,
1001
0000
0000
0000
,
0100
0000
0000
0000
,
0100
0000
0000
0000
,
0100
0000
0000
0000
,
0000
0000
0010
0000
,
0000
0000
0010
0000
,
0000
0000
0010
0000
,
0000
0000
0010
0000
,
0000
0000
0001
0000
,
0001
0000
0001
0000
,
0000
0000
1000
0000
,
1000
0000
1000
0000
,
0000
0000
0000
0000
,
0000
0000
0000
0000
,
0000
0000
0000
0000
,
0000
0000
0000
0000
,
0010
0000
0010
0000
,
0010
0000
0000
0000
,
0100
0000
0100
0000
,
0100
0000
0000
0000
,
0010
0000
0010
0000
,
0010
0000
0000
0000
,
0100
0000
0100
0000
,
0100
0000
0000
0000
,
0001
0000
0001
0000
,
1000
0000
0000
0000
,
0001
0000
0001
0000
,
1000
0000
0000
0000
,
0001
0000
0001
0000
,
1000
0000
0000
0000
,
0000
0000
0000
0000
,
0000
0000
0000
0000
,
0100
0000
0100
0000
,
0000
0000
0010
0000
,
0000
0000
0100
0000
,
0000
0000
0000
0000
,
0001
0000
0001
0000
,
0000
0000
1000
0000
,
0000
0000
0001
0000
,
0000
0000
0000
0000
,
0100
0000
0000
0000
,
0100
0000
0000
0000
,
0010
0000
0000
0000
,
0010
0000
0000
0000
,
1000
0000
0000
0000
,
1000
0000
0000
0000
,
0001
0000
0000
0000
,
0000
0000
0000
0000
,
0100
0000
0100
0000
,
0100
0000
0100
0000
,
0100
0000
0100
0000
,
0100
0000
0000
0000
,
0010
0000
0010
0000
,
0010
0000
0010
0000
,
0010
0000
0010
0000
,
0010
0000
0000
0000
,
1000
0000
1000
0000
,
1000
0000
1000
0000
,
1000
0000
1000
0000
,
1000
0000
0000
0000
,
0001
0000
0001
0000
,
0001
0000
0001
0000
,
0001
0000
0001
0000
,
0001
0000
0000
0000
,
0100
0000
0000
0000
,
0000
0000
0000
0000
,
0010
0000
0000
0000
,
0000
0000
0000
0000
,
0100
0000
0000
0000
,
0000
0000
0000
0000
,
0010
0000
0000
0000
,
0000
0000
0000
0000
,
1000
0000
1000
0000
,
1000
0000
0000
0000
,
0001
0000
0001
0000
,
0001
0000
0000
0000
,
1000
0000
1000
0000
,
1000
0000
0000
0000
,
0001
0000
0001
0000
,
0001
0000
0000
0000
,
0100
0000
0100
0000
,
0010
0000
0000
0000
,
0100
0000
0100
0000
,
0010
0000
0000
0000
,
0100
0000
0100
0000
,
0010
0000
0000
0000
,
1001
0000
0000
0000
;

//--------------- dance-single - EmeraldX ----------------
#NOTEDATA:;
#STEPSTYPE:dance-single;
#DESCRIPTION:EmeraldX;
#DIFFICULTY:Easy;
#METER:5;
#RADARVALUES:0,0,0,0,0;
#NOTES:
0000
0000
0000
0000
,
0000
0000
0000
0000
,
0000
0000
0000
0000
,
0000
0000
0000
0000
,
0010
0000
0010
0000
,
0010
0000
0100
0000
,
0010
0000
0010
0000
,
0010
0000
0100
0000
,
0001
0000
1000
0000
,
0001
0000
1000
0000
,
0100
0000
1000
0000
,
0100
0000
1000
0000
,
0001
0000
0001
0000
,
1000
0000
0001
0000
,
1000
0000
1000
0000
,
0001
0000
1000
0000
,
1001
0000
0000
0100
,
0000
0000
0000
0000
,
0010
0000
0000
0100
,
0000
0000
0000
0000
,
0001
0000
0010
0000
,
0001
0001
0010
0000
,
0001
0000
0100
0000
,
0001
0001
0100
0000
,
0010
0000
1000
0000
,
0010
1000
0010
0000
,
0100
0000
0001
0000
,
0100
0001
0100
0000
,
0001
0001
0001
0000
,
1000
0001
1000
0000
,
0010
0010
0010
0000
,
0100
0010
0100
0000
,
0001
0100
0001
0000
,
0100
0001
0100
0000
,
0010
0000
0000
0000
,
0000
0000
0000
0000
,
2000
0000
3000
0000
,
0000
0000
0001
0000
,
0200
0000
0300
0000
,
0000
0000
0001
0000
,
0020
0000
0030
0000
,
0000
0000
0001
0000
,
2000
0000
3000
0000
,
0002
0000
0003
0000
,
1000
1000
1000
0000
,
1000
0001
1000
0000
,
0001
0001
0001
0000
,
0001
1000
0001
0000
,
0100
0100
0010
0010
,
0100
0100
0010
0010
,
0100
0000
0000
0000
,
0000
0000
0000
0000
,
0001
0001
0010
0000
,
0001
0001
0100
0000
,
0010
0010
1000
1000
,
0010
1000
0010
0000
,
0100
0100
0001
0000
,
0100
0100
0001
0000
,
1000
0001
1000
0001
,
0010
0001
0010
0000
,
0100
0100
1000
1000
,
0100
0100
1000
1000
,
0001
0001
1000
1000
,
0001
0001
0010
0000
,
0001
0001
0100
0100
,
0001
0001
0010
0010
,
0001
0001
1000
1000
,
0001
1000
0001
0000
,
2000
0000
0000
0000
,
3000
0000
0001
0000
,
0020
0000
0000
0000
,
0030
0000
0001
0000
,
0200
0000
0300
0000
,
0100
0000
0010
0000
,
1000
0000
0000
0000
,
0000
0000
0000
0000
,
0001
0000
0010
0000
,
0001
0010
0001
0000
,
1000
0000
0100
0000
,
1000
0100
1000
0000
,
0001
0000
0100
0000
,
0001
0100
0001
0000
,
1000
0000
0010
0000
,
1000
0010
1000
0000
,
0001
0010
0001
0000
,
1000
0001
1000
0000
,
0010
1000
0010
0000
,
0100
0010
0100
0000
,
0001
0100
0010
0000
,
1000
0100
0010
0000
,
1001
0000
0000
0000
;

//--------------- dance-single - EmeraldX ----------------
#NOTEDATA:;
#STEPSTYPE:dance-single;
#DESCRIPTION:EmeraldX;
#DIFFICULTY:Medium;
#METER:7;
#RADARVALUES:0,0,0,0,0;
#NOTES:
0000
0000
0000
0000
,
0000
0000
0000
0000
,
0000
0000
0000
0000
,
0000
0000
0000
0000
,
0020
0000
1000
0000
,
1000
0000
1030
0000
,
0200
0000
0001
0000
,
0001
0000
0301
0000
,
0002
0000
0013
0000
,
0002
0000
0103
0000
,
0020
0000
1030
0000
,
0020
0000
0130
0000
,
0010
1000
0010
0100
,
0001
1000
0001
0010
,
0001
0100
0010
1000
,
0100
1000
0010
0100
,
0020
0000
0000
0000
,
0000
0000
0030
0000
,
0200
0000
0300
0002
,
0000
0000
0003
0000
,
1000
0100
1000
0010
,
1000
0000
0100
0000
1000
0001
1000
0000
,
0001
0010
0001
0100
,
0001
0000
0010
0000
0001
1000
0001
0000
,
0100
0010
1000
0010
,
0100
0000
0001
0000
0100
0001
0100
0000
,
0010
1000
1000
0100
,
0100
0000
0010
0000
0010
0100
0010
0000
,
0001
0100
0001
0000
1000
0000
0001
0000
,
1000
0000
0100
0000
0010
0100
0010
0000
,
0001
1000
0001
0000
0100
0000
0010
0000
,
1000
0000
0010
0000
0100
0010
0100
0000
,
0001
1000
0001
0000
0010
0000
0100
0000
,
1000
0000
0001
0000
0100
0010
0100
0000
,
0010
0000
0000
0000
,
0000
0000
0000
0000
,
1001
0000
0000
1000
0001
0000
0001
0000
,
1000
0000
0000
0001
0100
0000
0100
0000
,
0001
0000
0000
0010
0100
0000
0100
0000
,
0000
0000
0000
0010
0001
0000
1000
0000
,
1001
0000
0000
0001
0100
0000
0010
0000
,
1000
0000
0000
1000
0100
0000
0010
0000
,
0001
0000
0000
1000
0001
0000
1000
0000
,
0010
0000
0000
0100
0010
0000
0100
0000
,
0001
0001
1000
0001
,
0010
0010
0100
0010
,
0001
0001
1000
1000
,
0010
0010
0100
0100
,
0001
0010
0100
1000
,
0001
1000
0010
0100
,
0001
0000
0000
0000
,
0020
0000
0000
0030
,
0001
1000
0001
0100
0010
0000
1000
0000
,
0100
0010
0011
0001
,
1000
0010
1000
0000
0001
0000
1000
0000
,
0001
0010
0001
0000
0200
0000
0300
0000
,
0010
1000
0001
1000
0001
0000
0010
0000
,
0001
0100
0101
0001
,
1000
0100
1000
0000
0010
0000
0100
0000
,
0001
1000
0001
0000
0110
0000
0100
0000
,
0001
1000
0010
0100
0001
0000
1000
0000
,
0100
1000
1010
0010
,
0100
0001
0100
0000
0010
0000
1000
0000
,
0001
0010
0001
0000
2000
0000
3000
0000
,
0010
1000
0010
0100
0010
0000
1000
0000
,
0001
0100
0101
0001
,
1000
0100
1000
0000
0010
0000
0100
0000
,
0010
0100
0010
0000
2002
0000
3003
0000
,
0002
0000
0010
1003
,
0001
0000
0100
0000
0010
0100
0010
0000
,
2000
0000
0100
3001
,
1000
0000
0001
0000
0010
0001
0010
0000
,
0200
0310
0002
1003
,
0010
0000
0100
0000
0001
1000
0001
0000
,
1000
0000
0000
0000
,
0000
0000
0000
0000
,
0001
0010
1000
0010
,
0001
0000
1000
0000
0001
1000
0001
0000
,
1000
0100
0001
0100
,
1000
0000
0001
0000
1000
0001
1000
0000
,
0010
1000
0010
0001
,
0010
0000
1000
0000
0010
0100
0010
0000
,
0100
0001
0001
1000
,
1000
0000
0010
0000
0100
0010
0100
0000
,
0001
1000
0001
0000
0010
0000
0001
0000
,
1000
0000
0010
0000
1000
0001
1000
0000
,
0010
0100
0010
0000
1000
0000
0001
0000
,
1000
0000
0010
0000
0100
0010
0100
0000
,
0001
1000
0100
0000
1000
0000
0001
0000
,
1000
0000
0010
0000
1000
0001
0010
0000
,
0200
0000
0000
0000
,
0000
0000
0000
0000
,
0300
0000
0000
0000
;

//--------------- dance-single - EmeraldX ----------------
#NOTEDATA:;
#STEPSTYPE:dance-single;
#DESCRIPTION:EmeraldX;
#DIFFICULTY:Hard;
#METER:11;
#RADARVALUES:0,0,0,0,0;
#NOTES:
0000
0000
0000
0000
,
0000
0000
0000
0000
,
0000
0000
0000
0000
,
0000
0000
0000
0000
,
2000
0000
3002
0000
,
2003
0000
3002
0000
,
0023
0000
0230
0000
,
0320
0000
0230
0300
,
2100
0000
0002
3003
,
0102
0000
2000
3003
,
0120
0000
2000
3030
,
1002
0000
0020
0033
,
0100
0000
1000
0100
1000
0000
0001
0000
,
0010
0001
0010
0000
0100
0000
1000
0001
,
1000
0000
0010
0000
0100
0001
0100
0000
,
0001
0010
0100
0010
0100
1000
0001
1000
,
0200
0000
0000
0000
,
0000
0000
0300
0000
,
0020
0000
0000
0000
0030
0000
0001
2000
,
0000
0002
3003
0000
,
1000
0100
1000
0000
0010
1000
0010
0000
,
0100
0001
0100
0001
0020
0000
0031
0000
,
0100
0010
0100
0000
0001
1000
0001
0000
,
0010
0100
0010
0100
2000
0000
3001
0000
,
0010
0001
0010
0000
0100
1000
0100
0000
,
0010
0001
0010
0001
2000
0000
3010
0000
,
0100
0001
0100
0001
1000
0001
1000
0001
,
0010
0001
1000
0001
2000
0000
3002
0000
,
1003
0100
0010
0001
0100
0010
1000
1000
,
0010
0100
0001
1000
0100
0000
0110
0000
,
0010
0001
1000
0001
0100
0001
0010
0010
,
0100
1000
0001
1000
0100
0000
0110
0000
,
0010
0001
0100
0010
1000
0100
1000
1000
,
0010
0100
0001
0010
0100
0000
0110
0000
,
2000
0000
0000
0000
,
0000
0000
0000
3000
,
0002
0000
0010
0103
,
2000
0000
0100
3010
,
0002
0000
0010
1003
,
0000
0000
0000
0100
1000
0000
0001
0000
,
0020
0000
0001
0130
,
0002
0103
2000
3100
,
0002
0000
1000
0103
,
0200
0000
0001
0310
,
0010
0000
1000
0000
0100
1000
0001
0000
,
0010
0000
0001
0000
0100
0001
1000
0000
,
0100
0000
0010
0000
0001
0100
0010
0000
,
0100
0000
0010
0000
1000
0100
0010
0000
,
0001
0000
0100
0001
1000
0000
0001
0000
,
1000
0010
0100
0000
0010
0000
1000
0100
,
0010
0000
0000
0000
,
0200
0000
0000
0300
,
1100
1001
0012
0103
,
0010
1000
0100
0000
0210
0000
1300
0000
,
0001
0010
0001
0000
0201
0000
0310
0000
,
1000
0001
0010
0100
1000
0000
0002
0000
,
1003
1100
2001
3100
,
0001
0100
0010
0000
2010
0000
3100
0000
,
0001
1000
0001
0000
0102
0000
1003
0000
,
0001
0100
0001
0100
0010
1000
0200
0000
,
1300
0001
0010
0001
1000
0001
0100
0010
,
0100
0010
1000
0010
0100
0010
1000
0001
,
0100
0010
1000
0010
0100
0001
0100
0010
,
1000
0001
0010
0100
1000
0000
0020
0000
,
0130
0001
0010
0001
0100
0001
1000
0010
,
1000
0100
1000
0010
0100
0010
1000
0001
,
0010
0100
0010
0001
1000
0001
0100
0010
,
1000
0100
0010
0001
2000
0000
3000
0000
,
0002
0000
0100
0013
,
2000
0000
0010
3100
,
0020
0000
1000
0130
,
0200
0000
0001
0310
,
0010
1000
0010
0000
0100
0000
0001
0000
,
0010
0001
0010
0000
0100
0000
1000
0000
,
0010
0000
0000
0000
,
0000
0000
0000
0200
,
0301
1000
0001
0000
0010
0100
0010
0000
,
0001
0100
0001
0100
0020
0000
1030
0000
,
0100
1000
0100
0000
0010
0001
0010
0000
,
0100
1000
0100
1000
0002
0000
0103
0000
,
0001
1000
0001
0000
1000
0001
1000
0000
,
0100
0010
0100
0010
0002
0000
0103
0000
,
0010
1000
0010
0100
0010
0100
0001
1000
,
0001
0010
0100
1000
0002
0000
2003
0000
,
3001
0010
0001
1000
0010
1000
0001
0001
,
1000
0100
1000
0001
0100
0000
0101
0000
,
0001
0100
0010
1000
0100
0010
0001
0001
,
0100
0010
0100
0001
1000
0000
1100
0000
,
0100
1000
0100
0010
0001
0100
0010
0010
,
1000
0001
0010
0001
1000
0000
1001
0000
,
0002
0000
0000
0000
,
0000
0000
0000
0000
,
0003
0000
0000
0000
;

//--------------- dance-single - EmeraldX ----------------
#NOTEDATA:;
#STEPSTYPE:dance-single;
#DESCRIPTION:EmeraldX;
#DIFFICULTY:Challenge;
#METER:13;
#RADARVALUES:0,0,0,0,0;
#NOTES:
0000
0000
0000
0000
,
0000
0000
0000
0000
,
0000
0000
0000
0000
,
0000
0000
0000
0000
,
2100
0000
0020
3000
,
0200
0030
0002
0300
,
0020
0003
2000
0030
,
0020
3000
0002
0033
,
2001
0000
0020
3000
,
0200
0030
2000
0300
,
0200
3000
0002
0300
,
0020
0003
0200
0330
,
1000
0000
0001
0010
0001
0100
0001
0000
,
1000
0010
1000
0100
1000
0000
0010
0100
,
0010
1000
0010
0000
0100
0001
1000
0001
,
1000
1000
0001
0001
0010
0010
0100
0010
,
0002
0000
0000
0000
0000
0000
1000
2000
,
0003
0020
3030
0000
,
0200
0000
0000
0000
0000
0000
0001
0002
,
0300
2000
3003
0200
,
1300
0100
1000
0001
0010
0001
0010
0100
,
1000
0001
0010
0001
1000
0010
0200
0000
,
0310
1000
0010
0100
0001
1000
0001
0010
,
0001
0100
0001
1000
0010
1000
0002
0000
,
1003
0100
1000
0001
0010
0100
0010
0001
,
1000
0010
1000
0001
0100
0010
2000
0000
,
3100
0010
0001
0001
1000
1000
0010
0010
,
1000
0100
0001
0100
1000
0001
2000
0000
,
3001
0000
0010
0000
0100
0000
0010
0000
1000
0000
0010
0000
0100
0010
0100
0000
,
1000
0001
0010
0001
0100
0001
0200
0000
,
0310
1000
0010
0001
0010
1000
0001
0001
,
1000
0001
0010
1000
0010
0001
2000
0000
,
3001
0000
0100
0000
0010
0000
0100
0000
1000
0000
0100
0000
0010
0100
0010
0000
,
1000
0010
1000
0001
0010
0001
0020
0000
,
0200
0000
0000
0000
,
0000
0000
0330
2000
,
3020
0000
0000
0031
0020
0000
1030
0000
,
0200
0000
0000
0301
0200
0000
1300
0000
,
0002
0000
0000
1003
0020
0000
1030
0000
,
0000
0000
0000
0001
2000
0000
3001
0000
,
0200
0000
0000
1300
0200
0000
0301
0000
,
0020
0000
0000
1030
0020
0000
0031
0000
,
2000
0000
0000
3001
0200
0000
0310
0000
,
2000
0000
0000
3100
0002
0000
0103
0000
,
1000
1100
0001
0101
,
1000
1010
0001
0011
,
2100
3001
0020
0031
,
0101
1000
0020
0130
,
0001
1000
0001
0010
0001
0010
0100
1000
,
0100
1000
0001
1000
0100
0010
0100
0010
,
0001
0000
0000
0000
,
2000
0000
0000
0000
,
3010
0100
0000
0000
0001
0000
0010
0000
0011
0000
0001
0000
1000
0000
0001
0000
,
0100
2000
3100
0002
0103
0020
1030
0002
,
0013
0100
1000
0001
1001
1000
0001
0010
,
0001
0200
0310
2000
3200
0000
0302
0000
,
0103
1000
0010
1000
1010
0010
0100
0001
,
0010
0002
0103
2000
3100
0002
0013
2000
,
3010
0001
0100
0001
1001
1000
0010
1000
,
0100
0010
0100
1000
0001
0100
2000
0000
,
3100
0001
0100
1000
0100
0001
0010
1000
,
0010
0001
0100
0001
0010
0100
1000
0010
,
1000
0001
0010
1000
0010
0001
0100
1000
,
0100
0001
1000
0100
0020
0000
2030
0000
,
3010
0001
0100
1000
0100
0001
1000
0100
,
0001
0100
1000
0010
0001
0010
0100
0010
,
1000
0100
0010
1000
0010
0001
0100
0010
,
0100
1000
0100
0001
0020
0000
0030
0000
,
0002
0000
0000
1003
0020
0000
1030
0000
,
0200
0000
0000
1300
0200
0000
0310
0000
,
0002
0000
0000
0103
2000
0000
3100
0000
,
0020
0000
0000
1030
0002
0000
1003
0000
,
2000
0000
0000
3001
0020
0000
1030
0000
,
0020
0000
0000
0031
2000
0000
3001
0000
,
0100
0000
0000
0000
,
0000
0000
0000
0002
,
1003
0000
0001
0000
0010
0000
0001
0000
1000
0000
0010
0000
1000
0001
1000
0000
,
0010
0100
0010
1000
0001
0010
0200
0000
,
1300
0010
1000
0010
0100
0001
0010
0010
,
0001
1000
0010
1000
0001
0010
0002
0000
,
0103
0000
0010
0000
1000
0000
0010
0000
0100
0000
0010
0000
0100
0001
0100
0000
,
0010
1000
0001
0010
0100
1000
0020
0000
,
1030
0001
0010
0010
0100
0100
1000
1000
,
0001
0100
1000
0100
0001
1000
0002
0000
,
1003
0000
0100
0000
1000
0000
0010
0000
0001
0000
0010
0000
1000
0010
1000
0000
,
0100
0001
0100
1000
0001
0010
0002
0000
,
0103
1000
0100
0001
1000
0001
0010
0010
,
0100
1000
0010
0001
0010
1000
0020
0000
,
0130
0000
0001
0000
0010
0000
1000
0000
0010
0000
0001
0000
1000
0001
1000
0000
,
0001
0100
1000
0100
0001
1000
0200
0000
,
0020
0000
0000
0000
,
0000
0000
0000
0000
,
0330
0000
0000
0000
;
