#TITLE:Bulletproof;
#SUBTITLE:;
#ARTIST:La Roux;
#TITLETRANSLIT:;
#SUBTITLETRANSLIT:;
#ARTISTTRANSLIT:;
#GENRE:;
#CREDIT:;
#MUSIC:Bulletproof.ogg;
#BANNER:Bulletproof-bg.png;
#BACKGROUND:Bulletproof.png;
#CDTITLE:;
#SAMPLESTART:48.476;
#SAMPLELENGTH:15.915;
#SELECTABLE:YES;
#OFFSET:0.000;
#BPMS:0.000=123.000;
#STOPS:;
#BGCHANGES:;
#FGCHANGES:;

//--------------- dance-single - ----------------
#NOTES:
     dance-single:
     :
     Hard:
     11:
     0,0,0,0,0:
0000
0000
0000
0000
,
0000
0000
0000
0000
,
0000
0000
0000
0000
,
0000
0000
0000
0000
,
0001
0000
0100
0000
0001
0000
0100
0000
1000
0000
0000
1000
0000
0000
0100
0000
,
0001
0000
0010
0000
0001
0000
0010
0000
1000
0000
0000
0010
0000
0000
0001
0000
,
1000
0000
0100
0000
1000
0000
0100
0000
0001
0000
0000
0001
0000
0000
0100
0000
,
1000
0000
0000
0000
0010
0000
0000
0100
0000
0000
0020
0000
0000
0000
0030
0000
,
1000
1000
0100
1000
0001
0010
0000
0001
,
0100
0000
0000
0100
0000
0000
0010
0000
1000
0000
0000
0001
0000
0000
1000
0000
,
0100
0100
0010
0000
0001
0100
1000
0010
,
0001
0101
1000
0101
,
0001
0000
0001
0000
0010
0000
0001
0000
1000
0000
0000
0100
0000
0000
1000
0000
,
0010
0000
0000
0010
0000
0000
0100
0000
0001
0000
0000
1000
0000
0000
0001
0000
,
0010
0010
0100
0000
1000
0100
0001
0010
,
1000
1100
0001
1100
,
0001
0000
0010
0000
0001
0000
0010
0000
1000
0000
0000
0010
0000
0000
0001
0000
,
1000
0000
0000
1000
0000
0000
0001
0000
0100
0000
0000
0010
0000
0000
0100
0000
,
0001
0000
1000
0000
0001
0000
1000
0001
0000
0000
0010
0000
0100
0010
0000
0000
,
0011
0101
1000
0101
,
1000
0000
0010
0000
1000
0000
0010
0000
0001
0000
0000
0010
0000
0000
1000
0000
,
0001
1000
0000
0000
0001
0000
0000
0000
0010
0000
0100
0010
0100
0000
0000
0000
,
0010
0000
0001
0000
0001
0000
0010
0000
0100
0000
1000
0001
0000
0001
0000
0000
,
1000
0100
0001
0100
0000
0100
0001
0100
,
0000
1000
0002
0000
0000
0013
0000
0000
,
0001
1000
0000
0000
0100
0000
0001
0000
0100
0000
1000
0000
0100
0000
0000
0000
,
1000
0001
0000
0000
0010
0000
1000
0000
0010
0000
0001
0000
0010
0000
0000
0000
,
0100
1000
0000
0000
0010
0000
0100
0001
0000
0000
0010
0000
1001
0000
0000
0000
,
0100
0001
0000
0000
0010
0000
0100
1000
0000
0000
0010
0000
1001
0000
0000
0000
,
1000
0001
0000
0000
0100
0000
1000
0000
0100
0000
0001
0000
0100
0000
0000
0000
,
0001
1000
0000
0000
0010
0000
0001
0000
0010
0000
1000
0000
0010
0000
0000
0000
,
0100
0001
0000
0000
0010
0000
0100
1000
0000
0000
0010
0000
1001
0000
0000
0000
,
0100
1000
0000
0000
0010
0000
0100
0001
0000
0000
0010
0000
1001
0000
0000
0000
,
2000
0000
0000
0000
0100
0000
0100
0000
3100
0000
0000
0001
0010
0000
0000
0000
,
0002
0000
0000
0000
0100
0000
0100
0000
0103
0000
0000
1000
0010
0000
0000
0000
,
0200
0000
0000
0000
0001
0000
0001
0000
0301
0000
0000
0010
1000
0000
0000
0000
,
0200
1000
2000
3300
,
0002
0000
0000
0000
0010
0000
0010
0000
0013
0000
0000
1000
0100
0000
0000
0000
,
2000
0000
0000
0000
0010
0000
0010
0000
3010
0000
0000
0001
0100
0000
0000
0000
,
0020
0000
0000
0000
1000
0000
1000
0000
1030
0000
0000
0000
0001
1000
0000
0000
,
0200
0010
0020
0330
,
0001
1000
0010
0000
0100
0000
0001
0000
0010
0000
0001
0000
1000
0000
0000
0000
,
0001
1000
0100
0000
0010
0000
0001
0000
0100
0000
0001
0000
1000
0000
0000
0000
,
0100
0010
0100
0000
1000
0000
0100
0010
0001
0000
0000
1000
0010
0000
0000
0000
,
0100
0010
0100
0000
0001
0000
0100
0010
1000
0000
0000
0000
0011
0000
0000
0000
,
1000
0001
0010
0000
0100
0000
1000
0000
0010
0000
1000
0000
0001
0000
0000
0000
,
1000
0001
0100
0000
0010
0000
1000
0000
0100
0000
1000
0000
0001
0000
0000
0000
,
0100
0010
0100
0000
0001
0000
0100
0010
1000
0000
0000
0001
0010
0000
0000
0000
,
0100
0010
0100
0000
1000
0000
0100
0010
0001
0000
0000
1000
0010
0000
0100
0000
,
0000
0102
0000
0010
0010
0013
0000
0110
,
0000
2100
0000
0010
0010
3010
0000
1000
,
0001
0100
0001
0000
0010
0000
0001
0100
0010
0000
0000
1000
0001
0000
0000
0000
,
1000
0100
1000
0000
0010
0000
1000
0100
0010
0000
0000
0001
1000
0000
0010
0000
,
0000
0210
0000
0001
0001
0301
0000
0011
,
0000
0210
0000
1000
1000
1300
0000
0001
,
1000
0010
1000
0000
0100
0000
0010
0001
0100
0000
0000
0001
1000
0000
0000
0000
,
0001
0010
0001
0000
0100
0000
0010
1000
0100
0000
0000
1000
0001
0000
0001
0000
;
