#VERSION:0.83;
#TITLE:バグ;
#SUBTITLE:;
#ARTIST:かいりきベア ft. 25時、ナイトコードで。;
#TITLETRANSLIT:Bug;
#SUBTITLETRANSLIT:;
#ARTISTTRANSLIT:Kairiki Bear ft. 25-ji, Nightcord de.;
#GENRE:;
#CREDIT:;
#MUSIC:Bug.ogg;
#BANNER:bn.png;
#BACKGROUND:bg.png;
#JACKET:jk.png;
#CDTITLE:cdtitle-sorae.png;
#SAMPLESTART:46.461;
#SAMPLELENGTH:10.323;
#SELECTABLE:YES;
#OFFSET:-0.009;
#BPMS:0.000=186.000;
#STOPS:;
#SPEEDS:0.000=1.000=0.000=0;
#SCROLLS:0.000=1.000,
264.000=1000.000,
264.021=0.100,
267.500=1.000
;
#JACKET:;
#DISCIMAGE:;
#CDIMAGE:;
#BGCHANGES:;
#FGCHANGES:;

//--------------- dance-single - DS ----------------
#NOTEDATA:;
#STEPSTYPE:dance-single;
#DESCRIPTION:DS;
#DIFFICULTY:Medium;
#METER:12;
#RADARVALUES:0,0,0,0,0;
#CREDIT:sorae;
#NOTES:
0000
0000
0000
0000
,
0000
0000
0000
0000
,
0000
0000
0000
0000
,
0001
0000
0100
0000
0010
1000
0000
0001
,
0000
0010
0100
0000
0100
0000
0100
0000
,
1000
0000
0100
0000
0010
0001
0000
1000
,
0000
0010
0100
0000
0100
0000
0100
0000
,
0001
0000
0010
0000
0100
1000
0000
0001
,
0000
0100
0010
0000
0010
0000
0010
0000
,
1000
0000
0010
0000
0100
0001
0000
1000
,
0000
0100
0010
0000
0010
0000
0010
0000
,
0001
0000
0100
0000
0001
0000
0100
0010
,
0000
1000
0001
0000
0010
0000
0100
0000
,
1000
0000
1000
0000
1000
0001
0000
1001
,
0000
1000
0001
0000
0100
0000
0010
0000
,
1000
0000
0100
0000
1000
0000
0100
0010
,
0000
0001
1000
0000
0010
0000
0100
0000
,
0001
0000
0000
0000
0000
0000
0000
1001
,
0000
1000
0001
0000
0010
0000
0100
0000
,
1000
0000
0010
0000
1000
0000
0010
0100
,
0000
0001
1000
0000
0100
0000
0010
0000
,
0001
0000
0001
0000
0001
1000
0000
1001
,
0000
0001
1000
0000
0010
0000
0100
0000
,
0001
0000
0010
0000
0001
0000
0010
0100
,
0000
1000
0001
0000
0100
0000
0010
0000
,
1000
0000
1000
0000
1000
0001
0000
1001
,
0000
1000
0001
0000
0010
0000
0001
0000
,
0100
0000
0100
0000
0100
0001
0000
0101
,
0000
0100
0001
0100
0001
0000
1000
0000
,
0100
0000
0100
0000
0100
1000
0000
1100
,
0000
0100
1000
0100
1000
0000
0001
0000
,
0100
0000
0100
0000
0100
0001
0000
0101
,
0000
0100
0001
0100
0001
0000
1000
0000
,
0001
0010
0100
1000
,
0002
0100
1003
1001
,
2000
0100
3001
0000
,
0101
0100
0010
1000
,
0100
0010
0001
0000
0100
0000
0010
0000
,
1000
0100
1000
0000
0001
0100
0001
0000
,
0010
0100
0010
0100
0000
0000
1000
0000
,
1100
0100
0010
0001
,
0100
0010
1000
0000
0100
0000
0010
0000
,
0001
0000
0100
0000
0001
1000
0000
0001
,
0020
0100
0031
1001
,
1000
0000
1000
0000
1000
0001
0000
0101
,
0000
0100
0010
0000
1000
0000
0001
0000
,
0010
0000
0100
0000
1000
0001
0000
0100
,
0020
0100
1030
1001
,
0001
0000
0001
0000
0001
1000
0000
1100
,
0000
0100
0010
0000
0001
0000
1000
0000
,
0010
0000
0100
0000
0001
1000
0000
0100
,
0020
0100
0031
2001
,
3020
0100
1030
0000
,
0001
0000
0010
0000
0100
1000
0000
0001
,
0000
0100
0010
0000
0010
0000
0010
0000
,
1000
0000
0010
0000
0100
0001
0000
1000
,
0000
0100
0010
0000
0010
0000
0010
0000
,
0001
0000
2000
0000
,
3001
0000
1001
0000
1000
0010
0000
0100
,
0000
0010
1000
0000
0100
0000
0100
0000
,
0010
0000
0001
0000
0100
0010
0000
0100
,
0000
0001
1000
0000
1000
0000
1000
0000
,
0001
0000
1001
0000
0001
0010
0000
0100
,
0000
0010
0001
0000
0100
0000
0100
0000
,
0010
0000
1000
0000
0100
0010
0000
0100
,
0000
1000
0001
0000
0001
0000
0001
0000
,
0000
0000
0000
0000
0000
0000
0000
1001
,
0000
0000
0000
0000
,
1010
0000
0011
0000
,
0010
0010
0010
0000
,
0000
0000
0000
0000
,
0001
1000
0001
1000
0000
0010
0100
0000
,
0001
1000
0100
0010
,
0100
1000
0001
0000
0100
0000
0010
0000
,
1010
0000
0011
0000
,
0002
0010
1003
1001
,
2000
0010
3001
1000
,
1100
0100
0010
0001
,
0100
0010
1000
0000
0100
0000
0010
0000
,
0001
0100
0001
0000
1000
0100
1000
0000
,
0010
0100
0010
0100
0000
0000
0001
0000
,
0101
0100
0010
1000
,
0100
0010
0001
0000
0100
0000
0010
0000
,
1000
0000
0100
0000
1000
0001
0000
1000
,
0020
0100
1030
1001
,
0001
0000
0001
0000
0001
1000
0000
1100
,
0000
0100
0010
0000
0001
0000
1000
0000
,
0010
0000
0100
0000
0001
1000
0000
0100
,
0020
0100
0031
1001
,
1000
0000
1000
0000
1000
0001
0000
0101
,
0000
0100
0010
0000
1000
0000
0001
0000
,
0010
0000
0100
0000
1000
0001
0000
0100
,
0020
0100
1030
1002
,
0023
0100
0031
0000
,
1000
1000
0001
0001
,
2000
0010
3002
0010
,
1003
0010
0100
0000
;

//--------------- dance-single - XO ----------------
#NOTEDATA:;
#STEPSTYPE:dance-single;
#DESCRIPTION:XO;
#DIFFICULTY:Hard;
#METER:14;
#RADARVALUES:0,0,0,0,0;
#CREDIT:sorae;
#NOTES:
0000
0000
0000
0000
,
0000
0000
0000
0000
,
0000
0000
0000
0000
,
0001
0000
0010
0000
0100
1000
0001
0100
,
0000
0010
1000
0010
1000
0010
1000
0100
,
0010
0000
0001
0000
0100
0010
1000
0001
,
0000
0010
0100
0010
0100
0010
0100
1000
,
0001
0000
0100
0000
0010
1000
0001
0010
,
0000
0100
1000
0100
1000
0100
1000
0010
,
0100
0000
0001
0000
0010
0100
1000
0001
,
0000
0100
0010
0100
0010
0100
0010
1000
,
0002
0000
0013
0000
0002
0000
0013
0100
,
0000
1000
0001
1000
0010
0000
0110
0000
,
1000
0000
1000
0000
1000
0001
0000
1010
,
0000
1000
0001
1000
0100
0000
0010
0001
,
2000
0000
3010
0000
2000
0000
3010
0100
,
0000
0001
1000
0001
0010
0000
0110
0000
,
0001
0000
0001
0000
0001
1000
0000
0011
,
0000
0001
1000
0001
0100
0000
0001
0010
,
0002
0000
0103
0000
0002
0000
0103
0010
,
0000
1000
0001
1000
0100
0000
0110
0000
,
1000
0000
1000
0000
1000
0001
0000
1100
,
0000
1000
0001
1000
0010
0000
0100
0001
,
2000
0000
3100
0000
2000
0000
3100
0010
,
0000
0001
1000
0001
0100
0000
0110
0000
,
0001
0000
0001
0000
0001
1000
0000
0101
,
0000
0001
1000
0001
0010
0000
0100
1000
,
0010
0000
0010
0000
0010
1000
0000
2001
,
0000
3010
0100
0010
0100
0000
0001
0000
,
0010
0000
0010
0000
0010
0001
0000
1002
,
0000
0013
0100
0010
0100
0000
1000
0000
,
0010
0000
0010
0000
0010
1000
0000
2001
,
0000
3010
0100
0010
0100
0000
0001
0000
,
1000
0000
0100
0010
0001
0000
1000
0001
,
0102
0003
2100
3000
0102
0003
1000
0000
,
2010
3000
0012
0003
2010
3000
0000
0000
,
2001
0000
3010
0100
0010
1000
0001
0000
,
1000
0100
0010
0100
0002
0000
0103
0010
,
0001
1000
0010
0000
1000
0001
0010
0000
,
0100
1000
0100
1000
0000
0001
0100
0000
,
1002
0000
0013
0100
0010
0001
1000
0000
,
0001
0100
0010
0100
2000
0000
3100
0010
,
1000
0001
1000
0001
0010
0100
0000
1000
,
2100
3000
0102
0003
2100
3000
0001
0000
,
0100
0000
0100
0000
0100
0010
1000
1002
,
0000
0103
0010
0100
0010
0000
1000
0000
,
0001
1000
0001
1000
0100
0010
0000
0001
,
0012
0003
2010
3000
0012
0003
1000
0000
,
0100
0000
0100
0000
0100
0010
0001
2001
,
0000
3100
0010
0100
0010
0000
0001
0000
,
1000
0001
1000
0001
0100
0010
0000
1000
,
2010
3000
0012
0003
2010
3000
0001
0000
,
0102
0003
2100
3000
0102
0003
0000
0000
,
1000
0000
0010
0000
0100
0001
1000
0100
,
0000
0010
0001
0010
0001
0010
0001
0100
,
0010
0000
1000
0000
0100
0010
0001
1000
,
0000
0010
0100
0010
0100
0010
0100
0001
,
1000
0000
0000
0001
0010
0200
0000
0000
,
1300
0000
1001
0000
0001
0100
0000
0010
,
0000
0100
0001
1000
0100
0010
0100
0010
,
0001
0000
1000
0010
0100
0010
0000
1000
,
0000
0001
0010
0001
0010
0001
0010
0100
,
1000
0000
1001
0000
1000
0100
0000
0010
,
0000
0100
1000
0001
0100
0010
0100
0010
,
1000
0000
0001
0010
0100
0010
0000
0001
,
0000
1000
0010
1000
0010
1000
0010
0100
,
0000
0000
0000
0000
0000
0000
0000
1001
,
0000
0000
0000
0000
,
0002
0010
2003
0010
,
3001
0001
0001
0000
,
0000
0000
0000
0000
,
1000
0001
1000
0001
0000
0010
0100
0000
,
2100
0000
3001
0100
0010
1000
0001
0000
,
1000
0100
0010
0100
0002
0000
0103
0010
,
0001
0000
1001
0000
,
2010
3000
0012
0003
2010
3000
0001
0000
,
0102
0003
2100
3000
0102
0003
1000
0000
,
2010
0000
3001
0010
0001
0100
0001
0000
,
1000
0100
1000
0010
0002
0000
0013
0100
,
0001
1000
0100
0000
1000
0001
0100
0000
,
0010
1000
0010
1000
0000
0001
0010
0000
,
0012
0000
1003
0010
1000
0100
1000
0000
,
0001
0100
0001
0010
2000
0000
3010
0100
,
1000
0001
1000
0001
0100
0010
0000
1000
,
2010
3000
0012
0003
2010
3000
0001
0000
,
0010
0000
0010
0000
0010
0100
1000
1002
,
0000
0013
0100
0010
0100
0000
1000
0000
,
0001
1000
0001
1000
0010
0100
0000
0001
,
0102
0003
2100
3000
0102
0003
1000
0000
,
0010
0000
0010
0000
0010
0100
0001
2001
,
0000
3010
0100
0010
0100
0000
0001
0000
,
1000
0001
1000
0001
0010
0100
0000
1000
,
2100
3000
0102
0003
2100
3000
0001
0000
,
0012
0003
2010
3000
0012
0003
0000
0000
,
2000
0000
0000
0000
0100
0000
0000
0000
3002
0000
0000
0000
0100
0000
0000
0003
,
2100
3000
0102
0003
2100
3000
0102
0003
,
1001
0010
0100
0000
;

//--------------- dance-single - FS XO+ ----------------
#NOTEDATA:;
#STEPSTYPE:dance-single;
#DESCRIPTION:FS XO+;
#DIFFICULTY:Challenge;
#METER:16;
#RADARVALUES:0,0,0,0,0;
#CHARTNAME:cw\: crossovers;
#CHARTSTYLE:;
#CREDIT:sorae (respect Exschwasion);
#METERF:16;
#NOTES:
0000
0000
0000
0000
,
0000
0000
0000
0000
,
0000
0000
0000
0000
,
0011
0000
0010
0000
0001
1000
0010
0100
,
0000
0000
0001
0010
0001
0000
1000
0100
1000
0000
0001
0010
0001
0000
1000
0000
,
1010
0000
0010
0000
1000
0001
0010
0100
,
0000
0000
1000
0010
1000
0000
0001
0100
0001
0000
1000
0010
1000
0000
0001
0000
,
0101
0000
0100
0000
0001
1000
0100
0010
,
0000
0000
0001
0100
0001
0000
1000
0010
1000
0000
0001
0100
0001
0000
1000
0000
,
1100
0000
0100
0000
1000
0001
0100
0010
,
0000
0000
1000
0100
1000
0000
0001
0010
0001
0000
1000
0100
1000
0000
0000
0000
,
0002
0000
0103
0000
0002
0000
0103
0010
,
0000
1000
0001
1000
0100
0000
0110
0000
,
2001
0000
3100
000M
0100
0001
1000
2001
,
0000
0000
3100
000M
0100
0000
0001
0000
0010
0000
0000
0000
0001
0000
0000
0000
,
2000
0000
3100
0000
2000
0000
3100
0010
,
0000
0001
1000
0001
0100
0000
0110
0000
,
1002
0000
0103
M000
0100
1000
0000
1002
,
0000
0000
0103
M000
0100
0000
1000
0000
0010
0000
0000
0000
1000
0000
0000
0000
,
0002
0000
0013
0000
0002
0000
0013
0100
,
0000
1000
0001
1000
0010
0000
0110
0000
,
2001
0000
3010
000M
0010
0001
1000
2001
,
0000
0000
3010
000M
0010
0000
0001
0000
0100
0000
0000
0000
0001
0000
0000
0000
,
2000
0000
3010
0000
2000
0000
3010
0100
,
0000
0001
1000
0001
0010
0000
0110
0000
,
1002
0000
0013
M000
0010
1000
0001
1002
,
0000
0000
0013
M000
0010
0000
1000
0000
0100
0000
0000
0000
0010
0000
0000
0000
,
0012
0000
0103
M000
0100
0010
0001
0012
,
0000
0000
0103
M000
0100
0000
0010
0000
0001
0000
0000
0000
1000
0000
0000
0000
,
2010
0000
3100
000M
0100
0010
1000
2010
,
0000
0000
3100
000M
0100
0000
0010
0000
1000
0000
0000
0000
0001
0000
0000
0000
,
0102
0000
0013
M000
0010
0100
0001
0102
,
0000
0000
0013
M000
0010
0000
0100
0000
0001
0000
0000
0000
1000
0000
0000
0000
,
0100
0000
0000
0000
0010
0000
0001
1000
0001
0000
0100
0000
0010
0000
0100
0000
,
1000
0000
0100
0000
0010
0000
0100
0000
1000
0000
0100
0001
1000
0000
0100
0000
,
0001
0000
0100
0000
1000
0000
0100
0000
0001
0000
0000
0000
0200
0000
0000
0300
,
1100
0000
1000
0010
0100
0010
1000
0001
,
0010
0000
0100
1000
0100
0000
0010
0000
2000
0000
0000
0000
3010
0000
0001
0000
,
1000
0010
1000
0100
0010
0001
0100
0001
,
1000
0000
1000
0000
0100
0000
0100
0000
0000
0000
1000
0001
0200
0000
0000
0300
,
0101
0000
0001
0010
0100
0010
0001
1000
,
0010
0000
0100
0001
0100
0000
0010
0000
0002
0000
0000
0000
0013
0000
0100
0000
,
0001
1000
0001
1000
0100
0020
0000
0130
,
0001
0100
1000
0100
0001
0000
0110
0000
,
1002
0000
0013
0M00
0010
1000
0000
1002
,
0000
0000
0013
0M00
0010
0000
1000
0000
0001
0000
0000
0000
0010
0000
0100
0000
,
1000
0001
1000
0001
0100
0020
0000
0130
,
1000
0100
0001
0100
1000
0000
0110
0000
,
2001
0000
3010
0M00
0010
0001
0000
2001
,
0000
0000
3010
0M00
0010
0000
0001
0000
1000
0000
0000
0000
0010
0000
0100
0000
,
0001
1000
0001
1000
0100
0020
0000
0130
,
0001
0000
0100
0000
1000
0000
0100
0000
0001
0000
0100
1000
0001
0000
0100
0000
,
1000
0000
0100
0000
0001
0000
0100
0000
1000
0000
0000
0000
0200
0000
0000
0300
,
0101
0000
0001
0000
1000
0100
0010
0001
,
0000
0000
0100
0010
1000
0000
0010
0100
0001
0000
0100
0010
1000
0000
0100
0000
,
1100
0000
1000
0000
0001
0100
0010
1000
,
0000
0000
0100
0010
0001
0000
0010
0100
1000
0000
0100
0010
0001
0000
0000
0000
,
1001
0000
0000
0000
0000
0000
1000
0000
0001
0100
0001
0000
1000
0000
0100
0000
,
0010
0000
0011
0000
0001
0100
0010
1000
,
0000
0000
0100
0010
0100
0000
1000
0000
0001
0000
0001
0000
0100
0000
0100
0000
,
0020
0000
0000
0030
1010
0000
1000
0000
0001
0000
0020
0000
0000
0000
0130
0000
,
0000
0000
1000
0001
1000
0000
0010
0000
0100
0000
0100
0000
0010
0000
0010
0000
,
1000
0000
1010
0000
1000
0100
0010
0001
,
0000
0000
0100
0010
0100
0000
0001
0000
1000
0000
1000
0000
0100
0000
0100
0000
,
0020
0000
0000
0030
0011
0000
0001
0000
1000
0000
0020
0000
0000
0000
0130
0000
,
0000
0000
0001
1000
0001
0000
0010
0000
0100
0000
0100
0000
0010
0000
0010
0000
,
0000
0000
0000
0000
0000
0000
0000
1001
,
0000
0000
0000
0000
0000
0000
0000
0000
0001
0000
1000
0001
1000
0000
0000
0000
,
2010
3001
0012
1003
,
1010
0110
0102
0000
,
2003
0000
3002
0000
,
0013
0010
0100
0100
0000
1000
1001
0000
,
0101
0000
0001
1000
0010
1000
0100
0010
,
0001
0000
1000
0010
0100
0000
0010
0000
0002
0000
0000
0000
0013
0000
1000
0000
,
2001
0000
3010
0000
1002
0000
0013
0100
,
0001
0000
0100
0000
0010
0000
0100
0000
0001
0000
0100
1000
0001
0000
0100
0000
,
1000
0000
0100
0000
0001
0000
0100
0000
1000
0000
0100
0001
1000
0000
0000
0000
,
1010
0000
0010
1000
0001
0010
0001
0100
,
0001
0000
1000
0100
0010
0000
0100
0000
0002
0000
0000
0000
0103
0000
1000
0000
,
0001
0100
0001
0010
0100
1000
0010
1000
,
0001
0000
0001
0000
0010
0000
0010
0000
0000
0000
0100
1000
0002
0000
0000
0003
,
0011
0000
0010
0001
1000
0010
1000
0100
,
1000
0000
0001
0100
0010
0000
0100
0000
2000
0000
0000
0000
3100
0000
0010
0000
,
0100
0001
0100
0001
0010
0200
0000
0310
,
1000
0010
0001
0010
1000
0000
0110
0000
,
2001
0000
3100
00M0
0100
0010
0000
2001
,
0000
0000
3100
00M0
0100
0000
0010
0000
1000
0000
0000
0000
0001
0000
0010
0000
,
0100
1000
0100
1000
0010
0200
0000
0310
,
0001
0010
1000
0010
0001
0000
0110
0000
,
1002
0000
0103
00M0
0100
0010
0000
1002
,
0000
0000
0103
00M0
0100
0000
0010
0000
0001
0000
0000
0000
1000
0000
0010
0000
,
0100
0001
0100
0001
0010
0200
0000
0310
,
1000
0000
0010
0000
0001
0000
0010
0000
1000
0000
0010
0001
1000
0000
0010
0000
,
0001
0010
1000
0010
0001
0000
0010
1000
,
0100
0010
0001
0010
0100
0010
0001
0010
,
1000
0010
0001
0010
1000
0010
0001
0010
,
1000
0110
1001
0000
;
