#VERSION:0.83;
#TITLE:Broadway Walk;
#SUBTITLE:;
#ARTIST:Dirty Androids;
#TITLETRANSLIT:;
#SUBTITLETRANSLIT:;
#ARTISTTRANSLIT:;
#GENRE:;
#CREDIT:;
#MUSIC:Broadway Walk.ogg;
#BANNER:;
#BACKGROUND:;
#CDTITLE:;
#SAMPLESTART:19.078;
#SAMPLELENGTH:15.000;
#SELECTABLE:YES;
#OFFSET:-2.668;
#BPMS:0.000=117.000;
#STOPS:;
#BGCHANGES:;
#FGCHANGES:;

//--------------- dance-single - eataninja ----------------
#NOTEDATA:;
#STEPSTYPE:dance-single;
#DESCRIPTION:eataninja;
#DIFFICULTY:Beginner;
#METER:1;
#RADARVALUES:0,0,0,0,0;
#NOTES:
0000
0000
0000
0000
,
0000
0000
0000
0000
,
0000
0000
0000
0000
,
0000
0000
0000
0000
,
1000
0000
0000
0000
,
0001
0000
0000
0000
,
0100
0000
0000
0000
,
0000
0000
0000
0000
,
0010
0000
0000
0000
,
0010
0000
0000
0000
,
0100
0000
0000
0000
,
0100
0000
0000
0000
,
0001
0000
0000
0000
,
0001
0000
0000
0000
,
1000
0000
0000
0000
,
1000
0000
0000
0000
,
0001
0000
0000
0000
,
0010
0000
0000
0000
,
0001
0000
0000
0000
,
0010
0000
0000
0000
,
0001
0000
0000
0000
,
1000
0000
0000
0000
,
0001
0000
0000
0000
,
0100
0000
0000
0000
,
0010
0000
0000
0000
,
0000
0000
0000
0000
,
0010
0000
0000
0000
,
0000
0000
0000
0000
,
0100
0000
0000
0000
,
0000
0000
0000
0000
,
0100
0000
0000
0000
,
0000
0000
0000
0000
,
0001
0000
0000
0000
,
0001
0000
0000
0000
,
1000
0000
0000
0000
,
1000
0000
0000
0000
,
0100
0000
0000
0000
,
0100
0000
0000
0000
,
0010
0000
0000
0000
,
0010
0000
0000
0000
,
0002
0000
0000
0000
,
0003
0000
0000
0000
,
2000
0000
0000
0000
,
3000
0000
0000
0000
,
0010
0000
0000
0000
,
0100
0000
0000
0000
,
0001
0000
0000
0000
,
1000
0000
0000
0000
,
0100
0000
0000
0000
;

//--------------- dance-single - eataninja ----------------
#NOTEDATA:;
#STEPSTYPE:dance-single;
#DESCRIPTION:eataninja;
#DIFFICULTY:Easy;
#METER:3;
#RADARVALUES:0,0,0,0,0;
#NOTES:
0000
0000
0000
0000
,
0000
0000
0000
0000
,
0000
0000
0000
0000
,
0000
0000
0000
0000
,
0002
0000
0000
0003
,
2000
0000
0000
3000
,
0020
0000
0000
0000
,
0000
0000
0030
0000
,
0010
0010
0000
0000
,
0100
0100
0000
0000
,
0001
0000
0000
0000
,
1000
1000
0001
0000
,
0010
0010
0000
0000
,
0100
0100
0000
0000
,
1000
0000
0000
0000
,
0001
0000
1000
0000
,
0010
0010
0000
0000
,
1000
1000
0000
0000
,
0010
0010
0000
0000
,
1000
0001
0010
0000
,
0100
0100
0000
0000
,
1000
1000
0000
0000
,
0100
0100
0000
0000
,
1000
0001
0100
0000
,
0020
0000
0000
0030
,
0200
0000
0000
0300
,
0002
0000
0000
0000
,
0003
0000
1001
0000
,
0020
0000
0000
0030
,
0200
0000
0000
0300
,
2000
0000
0000
0000
,
0000
0000
3000
0000
,
0001
0100
0001
0000
,
1000
1000
0000
0000
,
1000
0100
1000
0000
,
0001
0001
1000
0000
,
1000
0010
1000
0000
,
0001
0001
0000
0000
,
0001
0010
0001
0000
,
0001
0001
1000
0000
,
0020
0000
0000
0030
,
0100
0000
0001
1000
,
0002
0000
0000
0003
,
0010
0000
0100
0000
,
1000
1000
1000
0000
,
0001
0000
0100
0000
,
0010
0000
0100
0000
,
0001
0001
1000
0000
,
1001
0000
0000
0000
;

//--------------- dance-single - eataninja ----------------
#NOTEDATA:;
#STEPSTYPE:dance-single;
#DESCRIPTION:eataninja;
#DIFFICULTY:Medium;
#METER:6;
#RADARVALUES:0,0,0,0,0;
#NOTES:
0000
0000
0000
0000
,
0000
0000
0000
0000
,
0000
0000
0000
0000
,
0000
0000
0000
0000
,
2001
0010
0000
3010
,
1002
0010
0000
0013
,
2001
0100
0000
3100
,
1000
0001
0100
0010
,
0100
1000
0001
0010
,
0100
0100
0001
1000
,
0100
0001
1000
0010
,
0100
0100
1000
0000
,
0010
0001
1000
0100
,
0010
0010
1000
0001
,
0010
1000
0001
0100
,
0010
0010
0001
0000
,
1000
0010
0001
1000
,
0100
1000
0001
0010
,
1000
0001
1000
0000
0100
0000
0010
0000
,
0001
0001
0100
0000
,
0001
0100
1000
0001
,
0010
0001
1000
0100
,
0001
1000
0001
0000
0010
0000
0100
0000
,
1000
1000
0010
0000
,
0200
0301
1000
0000
,
0200
1300
0001
0000
,
0020
0130
0001
0000
,
0100
0010
0002
1003
,
2001
0000
0010
3000
,
1002
0000
0010
0003
,
0001
0001
1000
1000
,
0001
0000
0010
0000
0100
0010
0100
0000
,
0001
1000
0010
0100
,
1000
0010
0001
1000
,
0100
0010
1000
1000
,
0001
0001
0010
0000
,
1000
0001
0100
0010
,
0001
0100
1000
0001
,
0010
0100
0001
0001
,
1000
1000
0100
0000
,
0020
0032
2003
3020
,
0130
1000
0001
0010
,
0200
0302
2003
3002
,
0013
0000
0100
0010
0100
0000
1000
0000
,
0001
0100
1000
0010
,
0001
0001
1000
1000
,
0100
0010
0001
1000
,
0010
0000
0100
0000
0001
1000
0100
0000
,
1001
0000
0000
0000
;

//--------------- dance-single - eataninja ----------------
#NOTEDATA:;
#STEPSTYPE:dance-single;
#DESCRIPTION:eataninja;
#DIFFICULTY:Hard;
#METER:10;
#RADARVALUES:0,0,0,0,0;
#NOTES:
0000
0000
0000
0000
,
0000
0000
0000
0000
,
0000
0000
0000
0000
,
0000
0000
0000
0000
,
2010
0001
0000
3001
,
0102
1000
0000
1003
,
2010
3002
0023
0230
,
1300
0001
1000
0010
0100
0001
0010
0000
,
0100
0000
0000
0000
0000
0110
0000
0000
0000
0000
0000
0000
0010
0000
0000
0001
0000
0000
1000
0000
0000
0000
0000
0000
,
1010
0000
0000
0000
0000
0000
0010
0000
1000
0000
0000
0000
0001
0000
0000
0010
0000
0000
1000
0000
0000
0010
0000
0000
,
0000
0110
0000
1000
0001
1000
0010
0100
,
0001
0000
0000
0000
0000
0000
0001
0000
1000
0000
0000
0001
0000
0000
0000
0010
0000
0000
0100
0000
0000
1000
0000
0000
,
0010
0000
0000
0000
0000
0110
0000
0000
0000
0000
0000
0000
0100
0000
0000
0001
0000
0000
1000
0000
0000
0000
0000
0000
,
1100
0000
0000
0000
0000
0000
0100
0000
1000
0000
0000
0000
0001
0000
0000
0100
0000
0000
1000
0000
0000
0100
0000
0000
,
0000
0110
0000
1000
0001
0010
0001
1000
,
0010
0000
0000
0100
0000
0000
0001
0000
0000
0010
0000
0000
0200
0000
0000
0000
0000
0310
0000
0000
0000
0000
0000
0000
,
0011
0000
0000
0000
0000
0011
0000
0000
0000
1000
0000
0000
0001
0000
0000
0100
0000
0000
0010
0000
0000
0000
0000
0000
,
0110
0000
0000
0000
0000
0000
0100
0000
0001
0000
0000
0000
1000
0000
0000
0100
0000
0000
0001
0000
0000
0100
0000
0000
,
0010
0000
0000
0001
0000
1000
0000
0000
0000
0010
0000
0000
0100
0000
0000
0001
0000
0000
1000
0000
0000
0000
0000
0000
,
1001
0000
0000
0000
0000
0000
0001
0000
0010
0000
0000
0100
0000
0000
0000
1000
0000
0000
0001
0000
0000
1000
0000
0000
,
1010
0000
0000
0000
0000
1010
0000
0000
0000
0100
0000
0000
1001
0000
0000
0000
0000
0000
0001
0000
0000
0010
0000
0000
,
0100
0000
0000
0000
0000
0000
0100
0000
1000
0000
0000
0000
0001
0000
0000
0100
0000
0000
1000
0000
0000
0100
0000
0000
,
0010
0000
0000
0100
0000
0000
0001
0000
0000
1000
0000
0000
0100
0000
0000
0000
0000
0001
0000
0000
0000
0100
0000
0000
,
0020
0032
2003
3010
,
0210
0000
0001
0000
1300
0100
0000
0001
,
2001
0000
0100
0000
3001
0000
0000
0010
,
0210
0000
0000
0000
0000
0000
0001
0000
0000
0000
0000
0000
1300
0000
0000
0000
0000
0000
0001
0000
0000
0100
0000
0001
,
0000
0000
0000
1000
0000
0000
0001
0000
0000
0100
0000
0001
0000
0000
0000
0010
0000
0000
0100
0000
0000
1000
0000
0000
,
0002
1000
0000
1003
,
2001
3200
0320
0032
,
1003
0001
1000
0001
0100
0010
0100
0010
,
1000
0001
0010
0100
1000
0010
0001
0000
,
0110
0000
0000
0000
0000
0110
0000
0000
0000
0100
0000
0000
0001
0000
0000
1000
0000
0000
0001
0000
0000
0010
0000
0000
,
0100
0000
0000
0000
0000
0000
0100
0000
1000
0000
0000
0000
1001
0000
0000
0001
0000
0000
0100
0000
0000
1000
0000
0000
,
0100
0000
0000
0010
0000
0100
0000
0000
0000
0001
0000
0000
1000
0000
0000
0100
0000
0000
1000
0000
0000
0001
0000
0000
,
0011
0000
0000
0000
0000
0000
0010
0000
0001
0000
0000
1001
0000
0000
0000
1000
0000
0000
0010
0000
0000
0100
0000
0000
,
0110
0000
0000
0000
0000
0110
0000
0000
0000
1000
0000
0000
1001
0000
0000
0000
0000
0001
0000
0000
0000
0010
0000
0000
,
0110
0000
0000
0000
0000
0000
0010
0000
0001
0000
0000
0000
1001
0000
0000
1000
0000
0000
0010
0000
0000
0001
0000
0000
,
0010
0000
0000
0100
0000
0000
0001
0000
0000
1000
0000
0000
0100
0000
0000
0000
0000
0001
0000
0000
0000
0100
0000
0000
,
0020
0032
2003
3020
,
0230
0000
0001
0000
0000
0000
0301
1000
,
0200
0000
0302
0000
0103
0010
0200
0000
,
2300
0000
0001
0000
0000
0000
3001
1000
,
0001
0000
0000
0100
0000
0000
1000
0000
0000
0100
0000
0000
0010
0000
0100
0000
0000
0001
0000
0000
1000
0000
0000
0000
,
0100
0000
0000
0001
0000
0000
1000
0000
0000
0010
0000
0000
0001
0000
0000
0000
0000
1000
0000
0000
0010
0000
0000
0000
,
0100
0000
0000
0010
0000
0000
0100
0000
0000
0001
0000
0000
1000
0000
0100
0000
0000
0000
0100
0000
0010
0000
0000
0000
,
0001
0000
0000
1000
0000
0000
0010
0000
0000
0100
0000
0000
1000
0000
0000
0000
0000
0100
0000
0000
0000
0001
0000
0000
,
1000
0100
0010
0001
0100
0010
1000
0100
,
1001
0000
0000
0000
0000
0010
0000
0000
0010
0000
0000
0010
0000
0000
0000
0000
0000
0000
0000
0000
0000
0000
0000
0000
;

//--------------- dance-single - eataninja ----------------
#NOTEDATA:;
#STEPSTYPE:dance-single;
#DESCRIPTION:eataninja;
#DIFFICULTY:Challenge;
#METER:13;
#RADARVALUES:0,0,0,0,0;
#NOTES:
0000
0000
0000
0000
,
0000
0000
0000
0000
,
0000
0000
0000
0000
,
0000
0000
0000
0000
,
2100
0001
0000
3001
,
0102
1000
0000
1003
,
2010
0001
0100
3001
,
1000
0100
0001
0100
1000
0100
1001
0000
,
0101
0000
0000
0000
0000
0100
0001
0000
0000
1000
0000
0000
0100
0000
0000
0010
0000
0000
0001
0000
1000
0001
0000
0000
,
0100
0000
0000
0000
0000
0000
0010
0000
0100
0010
0000
1000
0000
0000
0001
0000
0000
0010
0000
0000
0100
1000
0000
0000
,
0000
0000
0000
0011
0000
0000
1000
0000
0001
0000
0000
0100
0000
0000
0000
0010
0000
0000
1000
0000
0001
1000
0000
0000
,
0100
0000
0000
0001
0000
0000
0100
0000
0010
0100
0000
1000
0000
0000
0000
0001
0000
1000
0000
0000
1000
0010
0000
0000
,
0110
0000
0000
0000
0000
0100
0010
0000
0000
0100
0000
0000
0001
0000
0000
0010
0000
0000
0100
0000
1000
0001
0000
0000
,
0100
0000
0000
0000
0000
0000
0010
0000
0100
0010
0000
1000
0000
0000
0001
0010
0000
0100
0000
0000
1000
0001
0000
0000
,
0000
0000
0000
1010
0000
0000
0001
0000
1000
0100
0000
0001
0000
0000
0100
0000
0000
1000
0000
0000
0001
0100
0000
0000
,
0010
0000
0000
0001
0000
0000
1000
0000
0000
0100
0000
0000
0001
0000
0000
0000
0000
0010
0200
0000
0000
0300
0000
0000
,
1001
0000
0000
1000
0000
0000
0100
0000
0000
0001
0000
0000
0100
0000
0000
1000
0000
0000
0010
0000
1000
0010
0000
0000
,
0100
0000
0000
0001
0000
0000
1000
0000
0001
1000
0000
0000
0200
0000
0000
0302
0000
0000
0103
0000
0010
0001
0000
0000
,
1001
0000
0000
1000
0000
0000
0010
0000
0000
0001
0000
0000
0010
0000
0000
1000
0000
0000
0100
0000
1000
0100
0000
0000
,
0010
0000
0000
0001
0000
0000
1000
0000
0001
1000
0000
0000
0010
0000
0100
0001
0000
0000
0010
0000
0100
1000
0000
0000
,
1001
0000
0000
0001
0000
0000
0010
0000
0000
0100
0000
0000
2001
0000
0000
3010
0000
0000
0100
0000
0010
0100
0000
0000
,
0001
0000
0000
1000
0000
0000
0010
0000
1000
0001
0000
0000
0020
0000
0000
2030
0000
0000
3010
0000
0000
0100
0000
0000
,
1001
0000
0000
0001
0000
0000
0100
0000
0000
1000
0000
0000
0001
0000
0000
0010
0000
0100
0000
0000
0010
1000
0000
0000
,
0001
0000
0000
1000
0000
0000
0001
0000
0010
0100
0000
0000
1000
0000
0000
0001
0000
0000
0100
0000
0000
0010
0000
0000
,
0201
0000
0000
0000
0000
0000
1300
0000
0100
1000
0000
0000
0100
0000
0000
0001
0000
0000
0000
0000
0000
1000
0000
0000
,
1200
0000
0000
0000
0000
0000
0301
0000
0100
0001
0000
0000
0100
0000
0000
0000
0000
0000
0000
0000
0000
1000
0000
0000
,
1020
0000
0000
0000
0000
0000
0031
0000
0010
0001
0000
0000
0010
0000
0000
1000
0000
0000
0100
0000
0000
0010
0000
0001
,
0000
0000
0000
0001
0000
0000
0100
0000
0000
0010
0000
1000
0000
0000
0000
0010
0000
0000
0100
0000
0001
0010
0000
0100
,
2000
0100
0000
3001
,
0200
2300
3002
0023
,
1030
1000
0001
0001
0010
0010
0100
0100
,
1000
0010
0001
0010
1000
0100
2002
3000
,
0013
0000
0001
0010
0000
0001
0000
0000
0000
1000
0000
0000
0010
0000
0000
0100
0000
0000
0010
0000
1000
0001
0000
0000
,
0010
0000
0000
1000
0000
0000
0010
0000
0100
0000
0000
0010
0001
0000
1000
0020
0000
0230
0000
0300
0001
1000
0000
0000
,
0100
0000
1000
0100
0000
1000
0000
0000
0100
0000
0000
0001
0000
0000
0000
0100
0000
0000
0010
0000
0001
0010
0000
0000
,
0001
0000
0000
1000
0000
0000
0010
0000
0100
0000
0000
0010
1000
0000
0000
0001
0000
0000
0010
0000
0100
1000
0000
0000
,
0001
0000
0010
0001
0000
0010
0000
0000
0001
0100
0000
0000
2001
0000
0000
3010
0000
0000
0100
0000
0001
0100
0000
0000
,
0010
0000
0000
1000
0000
0000
0001
0000
1000
0000
0000
0100
0010
0000
0001
2000
0000
3020
0000
0030
0100
0010
0000
0000
,
1000
0000
0010
1000
0000
0010
0000
0000
0100
1000
0000
0000
0100
0000
0000
0001
0000
0000
1000
0000
0001
1000
0000
0000
,
0100
0001
1000
0010
0001
1000
0010
0100
,
1002
0000
0000
0000
0000
0000
0010
0000
0000
0000
0000
0000
1000
0000
0000
0000
0000
0000
1003
0000
0001
1000
0000
0100
,
0020
2030
3200
0302
,
0013
0000
0000
0100
0000
0000
0001
0000
0000
0100
0000
0000
1000
0000
0000
0001
0000
0000
0100
0000
0010
0100
0000
0010
,
1000
0000
0000
0001
0000
0000
0010
0000
0000
0100
0000
0000
0001
0000
1000
0000
0000
0010
0000
0000
0001
0000
0000
1000
,
0010
0000
0100
0001
0000
0100
0001
0000
1000
0100
0000
1000
0100
0000
0010
0001
0000
0100
0000
0000
0001
0000
0000
1000
,
0010
0000
0000
0100
0000
0000
0010
0000
1000
0000
0000
0001
1000
0000
0000
0100
0000
0000
0010
0000
0000
0001
0000
0000
,
1000
0000
0010
1000
0000
0000
0001
0000
0000
0010
0000
0000
1000
0000
0000
0010
0000
0000
0001
0000
0000
0100
0000
0000
,
0010
0000
0000
0001
0000
0000
1000
0000
0000
0100
0000
0000
0010
0000
0100
0010
0000
1000
0000
0000
0001
0000
0000
0010
,
0100
0000
0000
0000
0000
0110
0000
0000
0100
0000
0000
1001
0000
0000
0000
0000
0000
0000
0000
0000
0000
0000
0000
0000
;
