#VERSION:0.83;
#TITLE:Bring The House Down;
#SUBTITLE:;
#ARTIST:MK;
#TITLETRANSLIT:;
#SUBTITLETRANSLIT:;
#ARTISTTRANSLIT:;
#GENRE:NEO HOUSE;
#ORIGIN:;
#CREDIT:;
#BANNER:bn.png;
#BACKGROUND:bg.png;
#PREVIEWVID:;
#JACKET:jacket.png;
#CDIMAGE:;
#DISCIMAGE:;
#LYRICSPATH:;
#CDTITLE:cd-title.png;
#MUSIC:bring da house down.ogg;
#OFFSET:-0.293000;
#SAMPLESTART:47.158001;
#SAMPLELENGTH:22.510000;
#SELECTABLE:YES;
#BPMS:0.000=128.000;
#STOPS:;
#DELAYS:;
#WARPS:;
#TIMESIGNATURES:0.000=4=4;
#TICKCOUNTS:0.000=4;
#COMBOS:0.000=1;
#SPEEDS:0.000=1.000=0.000=0;
#SCROLLS:0.000=1.000;
#FAKES:;
#LABELS:0.000=Song Start;
#BGCHANGES:;
#KEYSOUNDS:;
#ATTACKS:
;

//---------------dance-single - ----------------
#NOTEDATA:;
#CHARTNAME:;
#STEPSTYPE:dance-single;
#DESCRIPTION:;
#CHARTSTYLE:;
#DIFFICULTY:Beginner;
#METER:3;
#RADARVALUES:0.159341,0.262444,0.153092,0.029160,0.000000,153.000000,132.000000,21.000000,4.000000,0.000000,0.000000,0.000000,0.000000,0.000000,0.159341,0.262444,0.153092,0.029160,0.000000,153.000000,132.000000,21.000000,4.000000,0.000000,0.000000,0.000000,0.000000,0.000000;
#CREDIT:Frondal;
#NOTES:
0000
0000
0000
0000
,
0000
0000
0000
0000
,
0000
0000
0000
0000
,
0000
0000
0000
0000
,
1000
1000
1000
0000
,
0000
0000
0000
0000
,
0000
0000
0000
0000
,
0000
0000
0000
0000
,
0001
0001
0001
0000
,
0000
1000
0000
1000
,
0000
0001
0000
0001
,
0000
1000
0000
1000
,
0010
0010
0010
0000
,
0000
1000
0000
1000
,
0000
0001
0000
0001
,
0000
1000
0000
1000
,
0100
0100
0100
0000
,
1000
0000
0000
0000
,
1000
0000
0000
0000
,
0001
0000
0000
0000
,
0001
0000
0000
0000
,
0100
0100
0100
0100
,
0100
0100
0100
0100
,
0020
0000
0000
0000
,
0000
0000
0030
0000
,
1000
0010
0000
1000
,
0000
1000
0000
1000
,
0100
0010
0000
0001
,
0000
0001
0000
0001
,
1000
0001
0000
0100
,
0000
0100
0000
0100
,
0001
1000
0000
0010
,
2000
0000
0000
0000
,
3001
0010
0000
0001
,
0000
0001
0000
0001
,
0100
0010
0000
1000
,
0000
1000
0000
1000
,
0001
1000
0000
0100
,
0000
0100
0000
0100
,
1000
0001
0000
0100
,
0002
0000
0000
0000
,
0003
0000
0000
0000
,
0000
0000
0000
0000
,
0000
0000
0000
0000
,
1000
1000
1000
0000
,
0000
0000
0000
0000
,
0000
0000
0000
0000
,
0000
0000
0000
0000
,
0001
0001
0001
0000
,
1000
0000
0000
0000
,
1000
0000
0000
0000
,
0001
0000
0000
0000
,
0001
0000
0000
0000
,
0100
0100
0100
0100
,
0100
0100
0100
0100
,
0020
0000
0000
0000
,
0000
0000
0030
0000
,
1000
0100
0000
1001
,
0000
1001
0000
1001
,
0001
0100
0000
1001
,
0000
1001
0000
1001
,
1000
0100
0000
1001
,
0000
1001
0000
1001
,
0001
0100
0000
1001
,
0001
0000
0000
0000
,
1000
0010
0000
1001
,
0000
1001
0000
1001
,
0001
0010
0000
1001
,
0000
1001
0000
1001
,
1000
0010
0000
1001
,
0000
1001
0000
1001
,
0001
0010
0000
1001
,
0110
0000
0000
0000
;

//---------------dance-single - ----------------
#NOTEDATA:;
#CHARTNAME:;
#STEPSTYPE:dance-single;
#DESCRIPTION:;
#CHARTSTYLE:;
#DIFFICULTY:Easy;
#METER:6;
#RADARVALUES:0.262444,0.372525,0.000000,0.123932,0.000000,252.000000,252.000000,0.000000,17.000000,0.000000,0.000000,0.000000,0.000000,0.000000,0.262444,0.372525,0.000000,0.123932,0.000000,252.000000,252.000000,0.000000,17.000000,0.000000,0.000000,0.000000,0.000000,0.000000;
#CREDIT:Frondal;
#NOTES:
0000
0000
0000
0000
,
0000
0000
0000
0000
,
0000
0000
0000
0000
,
0000
0000
0000
0000
,
0000
0000
0000
0000
,
0000
1000
0000
1000
,
0000
0001
0000
0001
,
0000
0100
0000
0010
,
2000
0000
0000
0000
,
3000
0000
0001
0000
0000
0001
0020
0000
,
0030
0000
0100
0000
0000
0100
2000
0000
,
3000
0000
0001
0000
0000
0001
0200
0000
,
1000
1000
1000
0301
,
0000
0000
1000
0000
0000
1000
0020
0000
,
0030
0000
0100
0000
0000
0100
0002
0000
,
0003
0000
1000
0000
0000
1000
0200
0000
,
0001
0001
0001
1300
,
0001
0000
0001
0000
,
1000
0000
1000
0000
,
0010
0000
0010
0000
,
0100
0000
0100
0000
,
0001
1000
0001
1000
,
0001
1000
0001
1000
,
0100
0010
0100
0010
0100
0010
0200
0020
,
0000
0000
0300
0030
,
0001
0000
0010
0100
1000
0000
1000
0010
,
1000
0000
1000
0001
1000
0000
1000
0010
,
1000
0000
0100
0010
0001
0000
0001
0100
,
0001
0000
0001
1000
0001
0000
0001
0010
,
0100
0000
0010
0001
1000
0000
1000
0100
,
1000
0000
1000
0001
1000
0000
1000
0100
,
1000
0000
0010
0100
0001
0000
0010
0100
,
2000
0000
0000
0000
,
3001
0000
0100
0010
1000
0000
0100
0010
,
1000
0000
0010
0100
1000
0000
0100
0010
,
0001
0000
0001
0100
0010
0000
0100
0010
,
0001
0000
0010
0100
0001
0000
0001
1000
,
0100
0000
0010
0100
1000
0000
0010
0100
,
1000
0000
0100
0010
1000
0000
0010
0100
,
0001
0000
0001
0010
0100
0000
0010
0100
,
2000
0000
0000
0000
,
3000
0000
0000
0000
,
0000
0000
0000
0000
,
0000
0000
0000
0000
,
0000
0000
0000
0000
,
0000
0001
0000
0001
,
0000
1000
0000
1000
,
0000
0100
0000
0010
,
0002
0000
0000
0000
,
1003
0000
1000
0000
,
0001
0000
0001
0000
,
0010
0000
0010
0000
,
0100
0000
0100
0000
,
1000
0001
1000
0001
,
1000
0001
1000
0001
,
0100
0010
0100
0010
0100
0010
0200
0020
,
0000
0000
0300
1030
,
0001
0000
0100
0010
0001
0000
0010
0000
,
1000
0010
0001
0010
,
1000
0000
0100
0010
1000
0000
0010
0000
,
0001
0000
0010
0000
1000
0000
0010
0001
,
0100
0000
0001
0100
1000
0000
0100
0000
,
0001
0100
1000
0100
,
0001
0000
0100
0010
1000
0000
0001
0000
,
0020
0000
0000
0000
,
0031
0000
1000
0000
0010
0100
1000
0000
,
0100
0010
1000
0000
0010
0100
1000
0000
,
0100
0001
1000
0000
0100
0010
1000
0000
,
0010
0100
1000
0000
0100
0010
1000
0020
,
0130
1000
0001
0000
0100
0010
0001
0000
,
0010
0100
0001
0000
0100
0010
0001
0000
,
0010
1000
0001
0000
0010
0100
0001
0000
,
0200
0000
0000
0000
,
0300
0000
0000
0000
;

//---------------dance-single - ----------------
#NOTEDATA:;
#CHARTNAME:;
#STEPSTYPE:dance-single;
#DESCRIPTION:;
#CHARTSTYLE:;
#DIFFICULTY:Medium;
#METER:10;
#RADARVALUES:0.400956,0.425743,0.145802,0.342636,0.131222,385.000000,365.000000,20.000000,47.000000,0.000000,0.000000,0.000000,0.000000,0.000000,0.400956,0.425743,0.145802,0.342636,0.131222,385.000000,365.000000,20.000000,47.000000,0.000000,0.000000,0.000000,0.000000,0.000000;
#CREDIT:Frondal;
#NOTES:
0000
0000
0000
0000
,
0000
1000
0000
0010
0000
1000
0000
0000
,
0000
0001
0000
0010
0000
0001
0000
0000
,
0000
1000
0000
0010
0000
1000
0000
0000
,
0100
0000
0100
0000
0100
0000
0100
1000
,
0000
0001
0000
0010
0000
0001
0000
0000
,
0000
1000
0000
0010
0000
1000
0000
0000
,
0000
0001
0000
0010
0000
0001
0000
0000
,
0100
0000
0100
0000
0100
0000
0010
0010
,
1000
0100
0000
0010
0000
0020
0100
0000
,
0031
0100
0000
0010
0000
0020
0100
0000
,
1030
0100
0000
0010
0000
0020
0100
0000
,
0031
0000
0001
0000
0001
0000
0001
1000
,
0001
0100
0000
0010
0000
0020
0100
0000
,
1030
0100
0000
0010
0000
0020
0100
0000
,
0031
0100
0000
0010
0000
0020
0100
0000
,
1030
0000
1000
0000
1000
0000
1000
0100
,
0010
0000
0001
1000
0010
0000
1000
0001
,
0010
0000
0001
1000
0010
0000
1000
0001
,
0010
0000
0100
1000
0010
0000
0100
0001
,
0010
0000
0100
1000
0010
0000
0100
0001
,
0010
0000
0010
0000
0010
0000
0001
1000
,
0010
0010
0010
0020
,
1030
0001
1000
0001
1000
0001
1000
0001
,
0020
0000
0000
0000
0130
0000
0100
1000
,
0001
0000
0000
0100
0010
0000
0100
0000
0001
0000
0000
0000
1010
0000
0000
0000
,
0001
1010
0001
1010
,
0001
0000
0000
1000
0100
0000
0010
0000
0001
0000
0000
0000
1100
0000
0000
0000
,
0001
0000
1100
0000
0001
0000
1100
2000
,
3001
0000
0000
0001
0010
0000
0100
0000
1000
0000
0000
0000
0101
0000
0000
0000
,
1000
0101
1000
0101
,
1000
0000
0000
0010
0100
0000
0001
0000
1000
0000
0000
0000
0011
0000
0000
0000
,
2000
0000
0000
0000
,
3001
0000
0000
0100
0010
0000
1000
0000
0100
0000
0000
0000
1010
0000
0000
0000
,
0100
1010
0100
1010
,
0001
0000
0000
1000
0010
0000
0100
0000
0010
0000
0000
0000
1100
0000
0000
0000
,
0010
0000
1100
0000
0010
0000
1100
2000
,
3001
0000
0000
0001
1000
0000
0100
0000
0010
0000
0000
0000
0101
0000
0000
0000
,
0010
0101
0010
0101
,
1000
0000
0000
0100
0010
0000
0001
0000
0100
0000
0000
0000
0011
0000
0000
0000
,
2000
0000
0000
0000
,
3001
0010
0000
0200
0000
2300
0000
0000
,
3001
0100
0000
0020
0000
2030
0000
0000
,
3001
0010
0000
0200
0000
2300
0000
0000
,
3001
0000
0001
0000
0001
0000
0001
0001
,
1000
0010
0000
0200
0000
0302
0000
0000
,
1003
0100
0000
0020
0000
0032
0000
0000
,
1003
0010
0000
0200
0000
0302
0000
0000
,
1003
0000
1000
0000
1000
0000
1000
1000
,
0100
0000
1000
0001
0100
0000
0001
1000
,
0100
0000
1000
0001
0100
0000
0001
1000
,
0100
0000
0010
0001
0100
0000
0010
1000
,
0100
0000
0010
0001
0100
0000
0010
1000
,
0100
0000
0100
0000
0100
0000
1000
0001
,
0100
0100
0100
0200
,
0301
1000
0001
1000
0001
1000
0001
1000
,
0200
0000
0000
0000
0310
0000
0010
0001
,
1000
0000
0000
0010
0100
0000
0001
0000
0010
0100
0000
0000
0200
0000
0000
0000
,
0310
0100
0000
0000
0200
0000
0000
0000
0310
0100
0000
0000
0200
0000
0000
0000
,
1300
0000
0000
0001
0100
0000
1000
0000
0100
0010
0000
0000
0020
0000
0000
0000
,
0130
0010
0000
0000
0020
0000
0000
0000
0130
0010
0000
0000
0010
0000
2000
0000
,
3001
0000
0000
0010
0100
0000
1000
0000
0010
0100
0000
0000
0200
0000
0000
0000
,
0310
0100
0000
0000
0200
0000
0000
0000
0310
0100
0000
0000
0200
0000
0000
0000
,
0301
0000
0000
1000
0100
0000
0001
0000
0100
0010
0000
0000
0020
0000
0000
0000
,
0032
0000
0000
0000
,
1003
0000
0000
0010
0100
0000
0001
0000
0010
1000
0000
0000
0020
0000
0000
0000
,
0130
1000
0000
0000
0200
0000
0000
0000
0310
1000
0000
0000
0020
0000
0000
0000
,
0031
0000
0000
1000
0010
0000
0010
0000
0100
1000
0000
0000
0200
0000
0000
0000
,
0310
1000
0000
0000
0020
0000
0000
0000
0130
1000
0000
0000
0100
0000
0200
0000
,
0301
0000
0000
0100
0010
0000
1000
0000
0100
0001
0000
0000
0200
0000
0000
0000
,
0310
0001
0000
0000
0020
0000
0000
0000
0130
0001
0000
0000
0200
0000
0000
0000
,
1300
0000
0000
0001
0100
0000
0100
0000
0010
0001
0000
0000
0010
0000
0100
0000
,
0002
0000
0000
0000
,
0003
0000
0000
0000
;

//---------------dance-single - XO+----------------
#NOTEDATA:;
#CHARTNAME:;
#STEPSTYPE:dance-single;
#DESCRIPTION:XO+;
#CHARTSTYLE:;
#DIFFICULTY:Hard;
#METER:14;
#RADARVALUES:0.534261,0.585396,0.087481,0.277024,0.422827,513.000000,501.000000,12.000000,38.000000,0.000000,0.000000,0.000000,0.000000,0.000000,0.534261,0.585396,0.087481,0.277024,0.422827,513.000000,501.000000,12.000000,38.000000,0.000000,0.000000,0.000000,0.000000,0.000000;
#CREDIT:Frondal;
#NOTES:
0000
0000
0000
0000
,
0000
1000
0000
1000
,
0000
0001
0000
0001
,
0000
1000
0000
1000
,
0100
0010
0100
0010
,
0000
0001
0000
0001
,
0000
1000
0000
1000
,
0000
0001
0000
0001
,
0100
0010
0100
1000
,
0100
0001
0000
0011
0000
0010
0100
0001
,
0100
1000
0000
1010
0000
0010
0100
1000
,
0100
0001
0000
0011
0000
0010
0100
1000
,
0001
0000
0000
0000
1001
0000
0000
0000
1000
0000
0000
0000
1001
0000
0001
0100
,
0010
1000
0000
1100
0000
0100
0001
0100
,
0010
0001
0000
0101
0000
0100
1000
0100
,
0010
1000
0000
1100
0000
0100
0010
0001
,
1000
0000
0000
0000
1001
0000
0000
0000
0001
0000
0000
0000
1001
0000
1000
0010
,
2000
0001
3100
1000
0002
1000
0013
0001
,
2000
0001
3010
1000
0002
1000
0103
0001
,
2000
0001
3100
0010
0002
1000
0013
0100
,
2000
0001
3010
0100
0002
1000
0103
0010
,
1000
0100
1000
0010
1000
0100
1000
1000
,
0001
0100
0001
0010
0001
0100
0001
0001
,
0010
0010
0100
0100
1000
1000
0001
0001
,
0200
0000
0000
0000
0000
0000
0000
0000
0310
0000
1000
0001
1000
0001
0010
0000
,
0110
0000
0000
0000
0000
0000
0000
0000
0000
0000
0000
0000
0000
0100
0000
0000
0000
0000
0000
0000
0000
0100
0000
0000
0010
0000
0000
0000
0000
0000
0000
0000
0001
0000
0000
0000
0000
0000
0000
0000
0000
0000
0000
0000
0000
0100
0000
0000
1000
0000
0000
0000
0000
0000
0000
0000
0100
0000
0000
0000
0000
0000
0000
0000
,
0001
0000
0000
0000
0000
0000
0000
0000
0000
0000
0000
0000
0000
0010
0000
0000
1000
0000
0000
0000
0000
0000
0000
0000
0010
0000
0000
0000
0000
0000
0000
0000
0001
0000
0000
0000
0000
0000
0000
0000
0000
0000
0000
0000
0000
0100
0000
0000
1000
0000
0000
0000
0000
0000
0000
0000
0100
0000
0000
0000
0000
0000
0000
0000
,
0001
0000
0000
0000
0000
1000
0000
0000
0000
0000
0000
0000
0000
0010
0000
0000
0000
0000
0000
0000
0000
0010
0000
0000
1000
0000
0000
0000
0000
0000
0000
0000
0001
0000
0000
0000
0000
0000
0000
0000
0000
0000
0000
0000
0000
0010
0000
0000
1000
0000
0000
0000
0000
0000
0000
0000
0010
0000
0000
0000
0000
0000
0000
0000
,
0001
0000
0000
0000
0000
0000
0000
0000
0000
0000
0000
0000
0000
0100
0000
0000
1000
0000
0000
0000
0000
0000
0000
0000
0100
0000
0000
0000
0000
0000
0000
0000
0001
0000
0000
0000
0000
0000
0000
0000
1000
0000
0000
0000
0000
0100
0000
0000
1000
0000
0000
0000
0000
0000
0000
0000
0010
0000
0000
0000
0100
0000
0000
0000
,
0001
0000
0000
0000
0000
0000
0000
0000
0000
0000
0000
0000
0000
0100
0000
0000
0000
0000
0000
0000
0000
0100
0000
0000
0010
0000
0000
0000
0000
0000
0000
0000
1000
0000
0000
0000
0000
0000
0000
0000
0000
0000
0000
0000
0000
0100
0000
0000
0001
0000
0000
0000
0000
0000
0000
0000
0100
0000
0000
0000
0000
0000
0000
0000
,
1000
0000
0000
0000
0000
0000
0000
0000
0000
0000
0000
0000
0000
0010
0000
0000
0001
0000
0000
0000
0000
0000
0000
0000
0010
0000
0000
0000
0000
0000
0000
0000
1000
0000
0000
0000
0000
0000
0000
0000
0000
0000
0000
0000
0000
0100
0000
0000
0001
0000
0000
0000
0000
0000
0000
0000
0100
0000
0000
0000
0000
0000
0000
0000
,
1000
0000
0000
0000
0000
0001
0000
0000
0000
0000
0000
0000
0000
0010
0000
0000
0000
0000
0000
0000
0000
0010
0000
0000
0001
0000
0000
0000
0000
0000
0000
0000
1000
0000
0000
0000
0000
0000
0000
0000
0000
0000
0000
0000
0000
0010
0000
0000
0001
0000
0000
0000
0000
0000
0000
0000
0010
0000
0000
0000
0000
0000
0000
0000
,
2000
0000
0000
0000
0000
0000
0000
0000
0000
0000
0000
0000
3001
0000
0010
0100
,
1000
0000
0000
0000
0000
0000
0000
0000
0000
0000
0000
0000
0000
0010
0000
0000
0000
0000
0000
0000
0000
0010
0000
0000
0100
0000
0000
0000
0000
0000
0000
0000
0001
0000
0000
0000
0000
0010
0000
0000
0000
0000
0000
0000
0000
0100
0000
0000
0001
0000
0000
0000
0000
0000
0000
0000
0100
0000
0000
0000
0000
0000
0000
0000
,
1000
0000
0000
0000
0000
0010
0000
0000
0000
0000
0000
0000
0000
0100
0000
0000
1000
0000
0000
0000
0000
0000
0000
0000
0100
0000
0000
0000
0000
0000
0000
0000
0001
0000
0000
0000
0000
0010
0000
0000
0000
0000
0000
0000
0000
0100
0000
0000
0001
0000
0000
0000
0000
0000
0000
0000
0100
0000
0000
0000
0000
0000
0000
0000
,
1000
0000
0000
0000
0000
0001
0000
0000
0000
0000
0000
0000
0000
1000
0000
0000
0000
0000
0000
0000
0000
1000
0000
0000
0010
0000
0000
0000
0000
0000
0000
0000
1000
0000
0000
0000
0000
0100
0000
0000
0000
0000
0000
0000
0000
0010
0000
0000
1000
0000
0000
0000
0000
0000
0000
0000
0010
0000
0000
0000
0000
0000
0000
0000
,
0001
0000
0000
0000
0000
0100
0000
0000
0000
0000
0000
0000
0000
0010
0000
0000
0001
0000
0000
0000
0000
0000
0000
0000
0010
0000
0000
0000
0000
0000
0000
0000
1000
0000
0000
0000
0000
0100
0000
0000
0000
0000
0000
0000
0000
0010
0000
0000
1000
0000
0000
0000
0000
0000
0000
0000
0001
0000
0000
0000
0100
0000
0000
0000
,
1000
0000
0000
0000
0000
0000
0000
0000
0000
0000
0000
0000
0000
0100
0000
0000
0000
0000
0000
0000
0000
0100
0000
0000
0010
0000
0000
0000
0000
0000
0000
0000
0001
0000
0000
0000
0000
0100
0000
0000
0000
0000
0000
0000
0000
0010
0000
0000
0001
0000
0000
0000
0000
0000
0000
0000
0010
0000
0000
0000
0000
0000
0000
0000
,
1000
0000
0000
0000
0000
0100
0000
0000
0000
0000
0000
0000
0000
0010
0000
0000
1000
0000
0000
0000
0000
0000
0000
0000
0010
0000
0000
0000
0000
0000
0000
0000
0001
0000
0000
0000
0000
0100
0000
0000
0000
0000
0000
0000
0000
0010
0000
0000
0001
0000
0000
0000
0000
0000
0000
0000
0010
0000
0000
0000
0000
0000
0000
0000
,
1000
0000
0000
0000
0000
0001
0000
0000
0000
0000
0000
0000
0000
0001
0000
0000
0000
0000
0000
0000
0000
0010
0000
0000
0100
0000
0000
0000
0000
0000
0000
0000
1000
0000
0000
0000
0000
0010
0000
0000
0000
0000
0000
0000
0000
0100
0000
0000
1000
0000
0000
0000
0000
0000
0000
0000
0100
0000
0000
0000
0000
0000
0000
0000
,
0002
0000
0000
0000
0000
0000
0000
0000
0000
0000
0000
0000
1003
0000
0100
0010
,
0001
1000
0000
0010
0000
2000
0000
0000
,
3001
1000
0000
0100
0000
2000
0000
0000
,
3001
1000
0000
0010
0000
2000
0000
0000
,
3100
0000
0000
0000
0100
0000
0000
0000
0100
0000
0000
0000
0100
0000
0010
0100
,
1000
0001
0000
0010
0000
0002
0000
0000
,
1003
0001
0000
0100
0000
0002
0000
0000
,
1003
0001
0000
0010
0000
0002
0000
0000
,
0103
0000
0000
0000
0100
0000
0000
0000
0100
0000
0000
0000
0100
0000
0010
1000
,
0002
1000
0103
0001
2000
0001
3010
1000
,
0002
1000
0013
0001
2000
0001
3100
1000
,
0002
1000
0103
0010
2000
0001
3010
0100
,
0002
1000
0013
0100
2000
0001
3100
0010
,
0001
0100
0001
0010
0001
0100
0001
0001
,
1000
0100
1000
0010
1000
0100
1000
1000
,
0010
0010
0100
0100
0001
0001
1000
1000
,
0200
0000
0000
0000
0000
0000
0000
0000
0310
0000
0001
1000
0001
1000
0010
0000
,
0110
0000
0000
0000
0000
0000
0000
0000
0000
0000
0000
0000
0000
0100
0000
0000
0000
0000
0000
0000
0000
0001
0000
0000
0010
0000
0000
0000
0000
0000
0000
0000
0200
0000
0000
0000
0000
0001
0000
0000
0000
0000
0000
0000
0000
0000
0000
0000
0301
0000
0000
0000
0000
0000
0000
0000
0100
0000
0000
0000
0000
0000
0000
0000
,
0020
0000
0000
0000
0000
1000
0000
0000
0000
0000
0000
0000
0000
0000
0000
0000
1030
0000
0000
0000
0000
0000
0000
0000
0010
0000
0000
0000
0000
0000
0000
0000
0200
0000
0000
0000
0000
0001
0000
0000
0000
0000
0000
0000
0000
0000
0000
0000
0301
0000
0000
0000
0000
0000
0000
0000
0100
0000
0000
0000
0000
0000
0000
0000
,
1000
0000
0000
0000
0000
0001
0000
0000
0000
0000
0000
0000
0000
1000
0000
0000
0000
0000
0000
0000
0000
0010
0000
0000
0100
0000
0000
0000
0000
0000
0000
0000
0020
0000
0000
0000
0000
0001
0000
0000
0000
0000
0000
0000
0000
0000
0000
0000
0031
0000
0000
0000
0000
0000
0000
0000
0010
0000
0000
0000
0000
0000
0000
0000
,
0200
0000
0000
0000
0000
1000
0000
0000
0000
0000
0000
0000
0000
0000
0000
0000
1300
0000
0000
0000
0000
0000
0000
0000
0100
0000
0000
0000
0000
0000
0000
0000
0020
0000
0000
0000
0000
0001
0000
0000
0000
0000
0000
0000
0000
0000
0000
0000
0031
0000
0000
0000
0000
0000
0000
0000
0010
0000
0000
0000
1000
0000
0000
0000
,
0001
0000
0000
0000
0000
0100
0000
0000
0000
0000
0000
0000
0000
0010
0000
0000
0000
0000
0000
0000
0000
1000
0000
0000
0100
0000
0000
0000
0000
0000
0000
0000
0020
0000
0000
0000
0000
1000
0000
0000
0000
0000
0000
0000
0000
0000
0000
0000
1030
0000
0000
0000
0000
0000
0000
0000
0010
0000
0000
0000
0000
0000
0000
0000
,
0200
0000
0000
0000
0000
0001
0000
0000
0000
0000
0000
0000
0000
0000
0000
0000
0301
0000
0000
0000
0000
0000
0000
0000
0100
0000
0000
0000
0000
0000
0000
0000
0020
0000
0000
0000
0000
1000
0000
0000
0000
0000
0000
0000
0000
0000
0000
0000
1030
0000
0000
0000
0000
0000
0000
0000
0010
0000
0000
0000
0000
0000
0000
0000
,
0001
0000
0000
0000
0000
1000
0000
0000
0000
0000
0000
0000
0000
0001
0000
0000
0000
0000
0000
0000
0000
0100
0000
0000
0010
0000
0000
0000
0000
0000
0000
0000
0200
0000
0000
0000
0000
1000
0000
0000
0000
0000
0000
0000
0000
0000
0000
0000
1300
0000
0000
0000
0000
0000
0000
0000
0100
0000
0000
0000
0000
0000
0000
0000
,
0002
0000
0000
0000
0000
0000
0000
0000
0000
0000
0000
0000
1003
0000
0001
0010
,
0100
0000
0000
0000
0000
0000
0000
0000
0000
0000
0000
0000
0000
1000
0000
0000
0000
0000
0000
0000
0000
0010
0000
0000
0100
0000
0000
0000
0000
0000
0000
0000
0010
0000
0000
0000
0000
0001
0000
0000
0000
0000
0000
0000
0000
0001
0000
0000
0010
0000
0000
0000
0000
0000
0000
0000
1000
0000
0000
0000
0000
0000
0000
0000
,
0100
0000
0000
0000
0000
0001
0000
0000
0000
0000
0000
0000
0000
0001
0000
0000
0100
0000
0000
0000
0000
0000
0000
0000
1000
0000
0000
0000
0000
0000
0000
0000
0010
0000
0000
0000
0000
0001
0000
0000
0000
0000
0000
0000
0000
0001
0000
0000
0010
0000
0000
0000
0000
0000
0000
0000
0100
0000
0000
0000
0000
0000
0000
0000
,
0001
0000
0000
0000
0000
1000
0000
0000
0000
0000
0000
0000
0000
1000
0000
0000
0000
0000
0000
0000
0000
0100
0000
0000
0010
0000
0000
0000
0000
0000
0000
0000
0100
0000
0000
0000
0000
0001
0000
0000
0000
0000
0000
0000
0000
0001
0000
0000
0100
0000
0000
0000
0000
0000
0000
0000
1000
0000
0000
0000
0000
0000
0000
0000
,
0010
0000
0000
0000
0000
0001
0000
0000
0000
0000
0000
0000
0000
0001
0000
0000
0010
0000
0000
0000
0000
0000
0000
0000
1000
0000
0000
0000
0000
0000
0000
0000
0100
0000
0000
0000
0000
0001
0000
0000
0000
0000
0000
0000
0000
0001
0000
0000
0100
0000
0000
0000
0000
0000
0000
0000
1000
0000
0000
0000
0001
0000
0000
0000
,
0010
0000
0000
0000
0000
0000
0000
0000
0000
0000
0000
0000
0000
0001
0000
0000
0000
0000
0000
0000
0000
0100
0000
0000
0010
0000
0000
0000
0000
0000
0000
0000
0100
0000
0000
0000
0000
1000
0000
0000
0000
0000
0000
0000
0000
1000
0000
0000
0100
0000
0000
0000
0000
0000
0000
0000
0001
0000
0000
0000
0000
0000
0000
0000
,
0010
0000
0000
0000
0000
1000
0000
0000
0000
0000
0000
0000
0000
1000
0000
0000
0010
0000
0000
0000
0000
0000
0000
0000
0001
0000
0000
0000
0000
0000
0000
0000
0100
0000
0000
0000
0000
1000
0000
0000
0000
0000
0000
0000
0000
1000
0000
0000
0100
0000
0000
0000
0000
0000
0000
0000
0010
0000
0000
0000
0000
0000
0000
0000
,
1000
0000
0000
0000
0000
0001
0000
0000
0000
0000
0000
0000
0000
0001
0000
0000
0000
0000
0000
0000
0000
0010
0000
0000
0100
0000
0000
0000
0000
0000
0000
0000
0010
0000
0000
0000
0000
1000
0000
0000
0000
0000
0000
0000
0000
1000
0000
0000
0010
0000
0000
0000
0000
0000
0000
0000
0100
0000
0000
0000
0000
0000
0000
0000
,
2000
0000
0000
0000
,
3000
0000
0000
0000
;

//---------------dance-single - DS KS MD XO-----------------
#NOTEDATA:;
#CHARTNAME:;
#STEPSTYPE:dance-single;
#DESCRIPTION:DS KS MD XO-;
#CHARTSTYLE:;
#DIFFICULTY:Challenge;
#METER:15;
#RADARVALUES:0.596748,0.689463,0.000000,0.707141,0.590500,573.000000,573.000000,0.000000,97.000000,52.000000,0.000000,0.000000,0.000000,0.000000,0.596748,0.689463,0.000000,0.707141,0.590500,573.000000,573.000000,0.000000,97.000000,52.000000,0.000000,0.000000,0.000000,0.000000;
#CREDIT:Frondal;
#NOTES:
// measure 0
0000
0000
0000
0000
,  // measure 1
0000
0000
0000
0000
,  // measure 2
0000
0000
0000
0000
,  // measure 3
0000
0000
0000
0000
,  // measure 4
0000
0000
0000
0000
,  // measure 5
0001
0100
0000
0010
0000
0100
0002
0000
,  // measure 6
1003
0100
0000
0010
0000
0100
2000
0000
,  // measure 7
3001
0100
0000
0010
0000
0100
0001
0001
,  // measure 8
1000
0000
1000
0000
1000
0000
M010
0100
,  // measure 9
1000
0100
0000
0001
0000
0200
1000
0310
,  // measure 10
0001
0100
0000
1000
0000
0200
0001
0310
,  // measure 11
1000
0100
0000
0001
0000
0200
1000
0010
,  // measure 12
1300
0000
M000
0000
1000
0000
M000
0000
1000
0000
M000
0000
0010
0000
0100
1000
,  // measure 13
0001
0100
0000
1000
0000
0200
0001
0310
,  // measure 14
1000
0100
0000
0001
0000
0200
1000
0310
,  // measure 15
0001
0100
0000
1000
0000
0200
0001
0010
,  // measure 16
0301
0000
000M
0000
0001
0000
000M
0000
0001
0000
000M
0000
0100
0000
1000
0100
,  // measure 17
0020
0000
0100
0000
0031
0000
0010
0001
0100
0000
0002
0000
0013
0000
0100
1000
,  // measure 18
0020
0000
0100
0000
1030
0000
0010
1000
0100
0000
2000
0000
3010
0000
0100
0001
,  // measure 19
0020
0000
0001
0000
0130
0000
0010
0001
1000
0000
0002
0000
0013
0000
0100
1000
,  // measure 20
0020
0000
1000
0000
0130
0000
0010
1000
0001
0000
2000
0000
3010
0000
0100
0001
,  // measure 21
1000
0100
1000
0100
1000
0100
0010
0010
,  // measure 22
0001
0100
0001
0100
0001
0100
0010
0010
,  // measure 23
1000
1000
0001
0001
1000
1000
0001
0001
,  // measure 24
1000
0100
0010
0100
1000
0001
0100
0001
1000
0000
0001
0010
0100
0010
0100
2000
,  // measure 25
0001
0000
0000
0000
0000
0000
0000
0000
0000
0000
0000
0000
0000
0000
0000
0000
0000
0000
0000
0000
0000
0000
0000
0000
0000
0000
0000
0000
0000
0000
0000
0000
0000
0000
0000
0000
0000
0000
3010
0000
0000
0000
0000
0000
0000
0000
0000
0000
1000
0000
0000
0000
0000
0000
0000
0000
0000
0000
0000
0000
0000
0000
0000
1000
0000
0000
0000
0000
0000
0000
0000
0000
0001
0000
0000
0000
0000
0000
0000
0000
0000
0000
0000
0000
0000
0000
0000
0000
0000
0000
0000
0000
0000
0000
0000
0000
0010
0000
0000
0000
0000
0000
0000
0000
0000
0000
0000
0000
0000
0000
0000
0000
0000
0000
00M0
0000
0000
0000
0000
0000
0000
0000
0000
0000
0000
0000
0000
0000
0000
0000
0000
0000
0000
0000
0000
0020
0000
0000
0000
0000
0000
0000
0000
0000
0001
0000
0000
0000
0000
0000
0000
0000
0000
0000
0000
0000
0000
0000
0000
0000
0000
0000
0000
0000
0000
0000
0000
0000
0130
0000
0000
0000
0000
0000
0000
0000
0000
0000
0000
0000
0000
0000
0000
0000
0000
0000
0000
0000
0000
0000
0000
0000
,  // measure 26
0010
0000
0000
0000
0000
0000
00M0
0000
0000
0000
0000
0000
0000
0020
0000
0000
0001
0000
0000
0000
0000
0000
0000
0000
0130
0000
0000
0000
0000
0000
0000
0000
0010
0000
0000
0000
0000
0000
00M0
0000
0000
0000
0000
0000
0000
0020
0000
0000
0001
0000
0000
0000
0000
0000
0000
0000
0130
0000
0000
0000
0000
0000
0000
0000
,  // measure 27
1000
0000
0000
0000
0000
0000
0000
0000
0000
0000
0000
0000
0000
1000
0000
0000
0100
0000
0000
0000
0000
1000
0000
0000
0010
0000
0000
0000
0000
0000
0000
0000
0100
0000
0000
0000
0000
0000
0M00
0000
0000
0000
0000
0000
0000
0200
0000
0000
0001
0000
0000
0000
0000
0000
0000
0000
0310
0000
0000
0000
0000
0000
0000
0000
,  // measure 28
0100
0000
0000
0000
0000
0000
0M00
0000
0000
0000
0000
0000
0000
0200
0000
0000
0001
0000
0000
0000
0000
0000
0000
0000
0310
0000
0000
0000
0000
0000
0000
0000
0100
0000
0000
0000
0000
0000
0000
0000
0001
0000
0000
0000
0000
1000
0000
0000
0100
0000
0000
0000
0000
0000
0000
0000
0010
0000
0000
0000
0002
0000
0000
0000
,  // measure 29
1000
0000
0000
0000
0000
0000
0000
0000
0000
0000
0000
0000
0000
0000
0000
0000
0000
0000
0000
0000
0000
0000
0000
0000
0000
0000
0000
0000
0000
0000
0000
0000
0000
0000
0000
0000
0000
0000
0103
0000
0000
0000
0000
0000
0000
0000
0000
0000
0001
0000
0000
0000
0000
0000
0000
0000
0000
0000
0000
0000
0000
0000
0000
0001
0000
0000
0000
0000
0000
0000
0000
0000
0010
0000
0000
0000
0000
0000
0000
0000
0000
0000
0000
0000
0000
0000
0000
0000
0000
0000
0000
0000
0000
0000
0000
0000
0100
0000
0000
0000
0000
0000
0000
0000
0000
0000
0000
0000
0000
0000
0000
0000
0000
0000
0M00
0000
0000
0000
0000
0000
0000
0000
0000
0000
0000
0000
0000
0000
0000
0000
0000
0000
0000
0000
0000
0200
0000
0000
0000
0000
0000
0000
0000
0000
1000
0000
0000
0000
0000
0000
0000
0000
0000
0000
0000
0000
0000
0000
0000
0000
0000
0000
0000
0000
0000
0000
0000
0000
0310
0000
0000
0000
0000
0000
0000
0000
0000
0000
0000
0000
0000
0000
0000
0000
0000
0000
0000
0000
0000
0000
0000
0000
,  // measure 30
0100
0000
0000
0000
0000
0000
0M00
0000
0000
0000
0000
0000
0000
0200
0000
0000
1000
0000
0000
0000
0000
0000
0000
0000
0310
0000
0000
0000
0000
0000
0000
0000
0100
0000
0000
0000
0000
0000
0M00
0000
0000
0000
0000
0000
0000
0200
0000
0000
1000
0000
0000
0000
0000
0000
0000
0000
0310
0000
0000
0000
0000
0000
0000
0000
,  // measure 31
0001
0000
0000
0000
0000
0000
0000
0000
0000
0000
0000
0000
0000
0001
0000
0000
0010
0000
0000
0000
0000
0001
0000
0000
0100
0000
0000
0000
0000
0000
0000
0000
0010
0000
0000
0000
0000
0000
00M0
0000
0000
0000
0000
0000
0000
0020
0000
0000
1000
0000
0000
0000
0000
0000
0000
0000
0130
0000
0000
0000
0000
0000
0000
0000
,  // measure 32
0001
0000
1000
0000
0001
0000
1000
0000
0001
0000
0100
0010
0100
0000
0001
0010
,  // measure 33
0200
0000
0000
0000
0000
0000
0000
0000
0000
0000
0000
0000
1000
0000
0000
0000
0000
0000
0000
0000
0000
0000
0000
0000
0000
0000
0000
0000
0000
0300
0000
0000
0000
0000
0000
0000
0000
0000
M100
0000
0000
0000
0000
0000
0000
0000
0000
0000
0001
0000
0000
0000
0000
0000
0000
0000
0000
0000
0000
0000
0000
0000
0000
0001
0000
0000
0000
0000
0000
0000
0000
0000
1000
0000
0000
0000
0000
0000
0000
0000
0000
0000
0000
0000
0000
0000
0000
0000
0000
0000
0000
0000
0000
0000
0000
0000
0100
0000
0000
0000
0000
0000
0000
0000
0000
0000
0000
0000
0000
0000
0000
0000
0000
0000
0000
0000
0000
0000
0000
0000
0000
0000
0000
0000
0000
0M00
0000
0000
0000
0000
0000
0000
0000
0000
0000
0020
0000
0000
0000
0000
0000
0000
0000
0000
0100
0000
0000
0000
0000
0000
0000
0000
0000
0000
0000
0000
0000
0000
0000
0000
0000
0000
0000
0000
0000
0000
0000
0000
1030
0000
0000
0000
0000
0000
0000
0000
0000
0000
0000
0000
0000
0000
0000
0000
0000
0000
0000
0000
0000
0000
0000
0000
,  // measure 34
0100
0000
0000
0000
0000
0000
0000
0000
0000
0000
0000
0000
0000
0000
0000
0000
0000
0000
0000
0000
0000
0000
0000
0000
0000
0000
0000
0000
0000
0M00
0000
0000
0000
0000
0000
0000
0000
0000
0000
0020
0000
0000
0000
0000
0000
0000
0000
0000
0100
0000
0000
0000
0000
0000
0000
0000
0000
0000
0000
0000
0000
0000
0000
0000
0000
0000
0000
0000
0000
0000
0000
0000
1030
0000
0000
0000
0000
0000
0000
0000
0000
0000
0000
0000
0000
0000
0000
0000
0000
0000
0000
0000
0000
0000
0000
0000
0100
0000
0000
0000
0000
0000
0000
0000
0000
0000
0000
0000
0000
0000
0000
0000
0000
0000
0000
0000
0000
0000
0000
0000
0000
0000
0000
0000
0000
0M00
0000
0000
0000
0000
0000
0000
0000
0000
0000
0020
0000
0000
0000
0000
0000
0000
0000
0000
0100
0000
0000
0000
0000
0000
0000
0000
0000
0000
0000
0000
0000
0000
0000
0000
0000
0000
0000
0000
0000
0000
0000
0000
1030
0000
0000
0000
0000
0000
0000
0000
0000
0000
0000
0000
0000
0000
0000
0000
0000
0000
0000
0000
0000
0000
0000
0000
,  // measure 35
0020
0000
0000
0000
0000
0000
0000
0000
0000
0000
0000
0000
1000
0000
0000
0000
0000
0000
0000
0000
0000
0000
0000
0000
0000
0000
0000
0000
0000
0030
0000
0000
0000
0000
0000
0000
0000
0000
0010
M000
0000
0000
0000
0000
0000
0000
0000
0000
0001
0000
0000
0000
0000
0000
0000
0000
0000
0000
0000
0000
0000
0000
0000
0001
0000
0000
0000
0000
0000
0000
0000
0000
1000
0000
0000
0000
0000
0000
0000
0000
0000
0000
0000
0000
0000
0000
0000
0000
0000
0000
0000
0000
0000
0000
0000
0000
0010
0000
0000
0000
0000
0000
0000
0000
0000
0000
0000
0000
0000
0000
0000
0000
0000
0000
0000
0000
0000
0000
0000
0000
0000
0000
0000
0000
0000
00M0
0000
0000
0000
0000
0000
0000
0000
0000
0000
0200
0000
0000
0000
0000
0000
0000
0000
0000
0010
0000
0000
0000
0000
0000
0000
0000
0000
0000
0000
0000
0000
0000
0000
0000
0000
0000
0000
0000
0000
0000
0000
0000
1300
0000
0000
0000
0000
0000
0000
0000
0000
0000
0000
0000
0000
0000
0000
0000
0000
0000
0000
0000
0000
0000
0000
0000
,  // measure 36
0010
0000
0000
0000
0000
0000
0000
0000
0000
0000
0000
0000
0000
0000
0000
0000
0000
0000
0000
0000
0000
0000
0000
0000
0000
0000
0000
0000
0000
00M0
0000
0000
0000
0000
0000
0000
0000
0000
0000
0200
0000
0000
0000
0000
0000
0000
0000
0000
0010
0000
0000
0000
0000
0000
0000
0000
0000
0000
0000
0000
0000
0000
0000
0000
0000
0000
0000
0000
0000
0000
0000
0000
1300
0000
0000
0000
0000
0000
0000
0000
0000
0000
0000
0000
0000
0000
0000
0000
0000
0000
0000
0000
0000
0000
0000
0000
0001
0000
0000
0000
0000
0000
0000
0000
0000
0000
0000
0000
0000
0000
0000
0100
0000
0000
0000
0000
0000
0000
0000
0000
0000
0000
0000
0000
0000
0000
0000
0000
0000
0000
0000
0000
0000
0000
0000
0010
0000
0000
0000
0000
0000
0000
0000
0000
1000
0000
0000
0000
0000
0000
0000
0000
0000
0000
0000
0000
0000
0000
0000
0000
0000
0000
0000
0000
0000
0000
0000
0000
1000
0000
0000
0000
0000
0000
0000
0000
0000
0000
0000
0000
0100
0000
0000
0000
0000
0000
0000
0000
0000
0000
0000
0000
,  // measure 37
0020
0000
0000
0000
0000
0000
0000
0000
0000
0000
0000
0000
0001
0000
0000
0000
0000
0000
0000
0000
0000
0000
0000
0000
0000
0000
0000
0000
0000
0030
0000
0000
0000
0000
0000
0000
0000
0000
001M
0000
0000
0000
0000
0000
0000
0000
0000
0000
1000
0000
0000
0000
0000
0000
0000
0000
0000
0000
0000
0000
0000
0000
0000
1000
0000
0000
0000
0000
0000
0000
0000
0000
0001
0000
0000
0000
0000
0000
0000
0000
0000
0000
0000
0000
0000
0000
0000
0000
0000
0000
0000
0000
0000
0000
0000
0000
0010
0000
0000
0000
0000
0000
0000
0000
0000
0000
0000
0000
0000
0000
0000
0000
0000
0000
0000
0000
0000
0000
0000
0000
0000
0000
0000
0000
0000
00M0
0000
0000
0000
0000
0000
0000
0000
0000
0000
0200
0000
0000
0000
0000
0000
0000
0000
0000
0010
0000
0000
0000
0000
0000
0000
0000
0000
0000
0000
0000
0000
0000
0000
0000
0000
0000
0000
0000
0000
0000
0000
0000
0301
0000
0000
0000
0000
0000
0000
0000
0000
0000
0000
0000
0000
0000
0000
0000
0000
0000
0000
0000
0000
0000
0000
0000
,  // measure 38
0010
0000
0000
0000
0000
0000
0000
0000
0000
0000
0000
0000
0000
0000
0000
0000
0000
0000
0000
0000
0000
0000
0000
0000
0000
0000
0000
0000
0000
00M0
0000
0000
0000
0000
0000
0000
0000
0000
0000
0200
0000
0000
0000
0000
0000
0000
0000
0000
0010
0000
0000
0000
0000
0000
0000
0000
0000
0000
0000
0000
0000
0000
0000
0000
0000
0000
0000
0000
0000
0000
0000
0000
0301
0000
0000
0000
0000
0000
0000
0000
0000
0000
0000
0000
0000
0000
0000
0000
0000
0000
0000
0000
0000
0000
0000
0000
0010
0000
0000
0000
0000
0000
0000
0000
0000
0000
0000
0000
0000
0000
0000
0000
0000
0000
0000
0000
0000
0000
0000
0000
0000
0000
0000
0000
0000
00M0
0000
0000
0000
0000
0000
0000
0000
0000
0000
0200
0000
0000
0000
0000
0000
0000
0000
0000
0010
0000
0000
0000
0000
0000
0000
0000
0000
0000
0000
0000
0000
0000
0000
0000
0000
0000
0000
0000
0000
0000
0000
0000
0301
0000
0000
0000
0000
0000
0000
0000
0000
0000
0000
0000
0000
0000
0000
0000
0000
0000
0000
0000
0000
0000
0000
0000
,  // measure 39
0200
0000
0000
0000
0000
0000
0000
0000
0000
0000
0000
0000
0001
0000
0000
0000
0000
0000
0000
0000
0000
0000
0000
0000
0000
0000
0000
0000
0000
0300
0000
0000
0000
0000
0000
0000
0000
0000
0100
000M
0000
0000
0000
0000
0000
0000
0000
0000
1000
0000
0000
0000
0000
0000
0000
0000
0000
0000
0000
0000
0000
0000
0000
1000
0000
0000
0000
0000
0000
0000
0000
0000
0001
0000
0000
0000
0000
0000
0000
0000
0000
0000
0000
0000
0000
0000
0000
0000
0000
0000
0000
0000
0000
0000
0000
0000
0100
0000
0000
0000
0000
0000
0000
0000
0000
0000
0000
0000
0000
0000
0000
0000
0000
0000
0000
0000
0000
0000
0000
0000
0000
0000
0000
0000
0000
0M00
0000
0000
0000
0000
0000
0000
0000
0000
0000
0020
0000
0000
0000
0000
0000
0000
0000
0000
0100
0000
0000
0000
0000
0000
0000
0000
0000
0000
0000
0000
0000
0000
0000
0000
0000
0000
0000
0000
0000
0000
0000
0000
0031
0000
0000
0000
0000
0000
0000
0000
0000
0000
0000
0000
0000
0000
0000
0000
0000
0000
0000
0000
0000
0000
0000
0000
,  // measure 40
0100
0000
0010
0000
0100
0000
0010
0000
0100
0000
0010
0000
1000
0000
0100
0010
,  // measure 41
0002
0100
0000
1000
0000
0200
0003
0310
,  // measure 42
2000
0100
0000
0001
0000
0200
3000
0310
,  // measure 43
0002
0100
0000
1000
0000
0200
0003
0310
,  // measure 44
2000
0000
3000
0000
0002
0000
0003
0000
2000
0000
3000
0000
0002
0000
0013
0100
,  // measure 45
2000
0100
0000
0001
0000
0200
3000
0310
,  // measure 46
0002
0100
0000
1000
0000
0200
0003
0310
,  // measure 47
2000
0100
0000
0001
0000
0200
3000
0310
,  // measure 48
0002
0003
2000
3000
0002
0003
1000
1000
,  // measure 49
0200
0000
0010
0000
1300
0000
0100
1000
0010
0000
2000
0000
3100
0000
0010
0001
,  // measure 50
0200
0000
0010
0000
0301
0000
0100
0001
0010
0000
0002
0000
0103
0000
0010
1000
,  // measure 51
0200
0000
1000
0000
0310
0000
0100
1000
0001
0000
2000
0000
3100
0000
0010
0001
,  // measure 52
0200
0000
0001
0000
0310
0000
0100
0001
1000
0000
0002
0000
0103
0000
0010
1000
,  // measure 53
0001
0010
0001
0010
0001
0010
0100
0100
,  // measure 54
1000
0010
1000
0010
1000
0010
0100
0100
,  // measure 55
0001
0001
1000
1000
0001
0001
1000
1000
,  // measure 56
0001
0010
0100
0010
0001
1000
0010
1000
0001
0000
1000
0100
0010
0100
0010
0002
,  // measure 57
0010
0000
0000
0000
0000
0000
0000
0000
0000
0000
0000
0000
0000
0000
0000
0000
0000
0000
0000
0000
0000
0000
0000
0000
0000
0000
0000
0000
0000
0000
0000
0000
0000
0000
0000
0000
0000
0000
0103
0000
0000
0000
0000
0000
0000
0000
0000
0000
0001
0000
0000
0000
0000
0000
0000
0000
0000
0000
0000
0000
0000
0000
0000
1000
0000
0000
0000
0000
0000
0000
0000
0000
0100
0000
0000
0000
0000
0000
0000
0000
0000
0000
0000
0000
0000
0000
0000
0000
0000
0000
0000
0000
0000
0000
0000
0000
0020
0000
0000
0000
0000
0000
0000
0000
0000
0000
0000
0000
0000
0000
0000
0001
0000
0000
0000
0000
0000
0000
0000
0000
0000
0000
0000
0000
0000
0000
0030
0000
0000
0000
0000
0000
0000
0000
0000
001M
0000
0000
0000
0000
0000
0000
0000
0000
1000
0000
0000
0000
0000
0000
0000
0000
0000
0000
0000
0000
0000
0000
0000
0000
0000
0000
0000
0000
0000
0000
0000
0000
0100
0000
0000
0000
0000
0000
0000
0000
0000
0000
0000
0000
0000
0000
0000
0000
0000
0000
0000
0000
0000
0000
0000
0000
,  // measure 58
0020
0000
0000
0000
0000
0001
0000
0000
0000
0000
0030
0000
0000
001M
0000
0000
1000
0000
0000
0000
0000
0000
0000
0000
0100
0000
0000
0000
0000
0000
0000
0000
0020
0000
0000
0000
0000
0001
0000
0000
0000
0000
0030
0000
0000
001M
0000
0000
1000
0000
0000
0000
0000
0000
0000
0000
0200
0000
0000
0000
0000
0000
0000
0000
,  // measure 59
1000
0000
0000
0000
0000
0000
0000
0000
0000
0000
0000
0000
0000
0000
0000
0000
0000
0000
0000
0000
0000
0000
0000
0000
0000
0000
0000
0000
0000
0000
0000
0000
0000
0000
0000
0000
0000
0000
0310
0000
0000
0000
0000
0000
0000
0000
0000
0000
0001
0000
0000
0000
0000
0000
0000
0000
0000
0000
0000
0000
0000
0000
0000
0100
0000
0000
0000
0000
0000
0000
0000
0000
0010
0000
0000
0000
0000
0000
0000
0000
0000
0000
0000
0000
0000
0000
0000
0000
0000
0000
0000
0000
0000
0000
0000
0000
0200
0000
0000
0000
0000
0000
0000
0000
0000
0000
0000
0000
0000
0000
0000
0001
0000
0000
0000
0000
0000
0000
0000
0000
0000
0000
0000
0000
0000
0000
0300
0000
0000
0000
0000
0000
0000
0000
0000
010M
0000
0000
0000
0000
0000
0000
0000
0000
1000
0000
0000
0000
0000
0000
0000
0000
0000
0000
0000
0000
0000
0000
0000
0000
0000
0000
0000
0000
0000
0000
0000
0000
0010
0000
0000
0000
0000
0000
0000
0000
0000
0000
0000
0000
0000
0000
0000
0000
0000
0000
0000
0000
0000
0000
0000
0000
,  // measure 60
0200
0000
0000
0000
0000
0001
0000
0000
0000
0000
0300
0000
0000
010M
0000
0000
1000
0000
0000
0000
0000
0000
0000
0000
0010
0000
0000
0000
0000
0000
0000
0000
0200
0000
0000
0000
0000
0001
0000
0000
0000
0000
0300
0000
0000
010M
0000
0000
0010
0000
0000
0000
0000
0000
0000
0000
0001
0000
0000
0000
2000
0000
0000
0000
,  // measure 61
0100
0000
0000
0000
0000
0000
0000
0000
0000
0000
0000
0000
0000
0000
0000
0000
0000
0000
0000
0000
0000
0000
0000
0000
0000
0000
0000
0000
0000
0000
0000
0000
0000
0000
0000
0000
0000
0000
3010
0000
0000
0000
0000
0000
0000
0000
0000
0000
1000
0000
0000
0000
0000
0000
0000
0000
0000
0000
0000
0000
0000
0000
0000
0001
0000
0000
0000
0000
0000
0000
0000
0000
0010
0000
0000
0000
0000
0000
0000
0000
0000
0000
0000
0000
0000
0000
0000
0000
0000
0000
0000
0000
0000
0000
0000
0000
0200
0000
0000
0000
0000
0000
0000
0000
0000
0000
0000
0000
0000
0000
0000
1000
0000
0000
0000
0000
0000
0000
0000
0000
0000
0000
0000
0000
0000
0000
0300
0000
0000
0000
0000
0000
0000
0000
0000
M100
0000
0000
0000
0000
0000
0000
0000
0000
0001
0000
0000
0000
0000
0000
0000
0000
0000
0000
0000
0000
0000
0000
0000
0000
0000
0000
0000
0000
0000
0000
0000
0000
0010
0000
0000
0000
0000
0000
0000
0000
0000
0000
0000
0000
0000
0000
0000
0000
0000
0000
0000
0000
0000
0000
0000
0000
,  // measure 62
0200
0000
0000
0000
0000
1000
0000
0000
0000
0000
0300
0000
0000
M100
0000
0000
0001
0000
0000
0000
0000
0000
0000
0000
0010
0000
0000
0000
0000
0000
0000
0000
0200
0000
0000
0000
0000
1000
0000
0000
0000
0000
0300
0000
0000
M100
0000
0000
0001
0000
0000
0000
0000
0000
0000
0000
0020
0000
0000
0000
0000
0000
0000
0000
,  // measure 63
0001
0000
0000
0000
0000
0000
0000
0000
0000
0000
0000
0000
0000
0000
0000
0000
0000
0000
0000
0000
0000
0000
0000
0000
0000
0000
0000
0000
0000
0000
0000
0000
0000
0000
0000
0000
0000
0000
0130
0000
0000
0000
0000
0000
0000
0000
0000
0000
1000
0000
0000
0000
0000
0000
0000
0000
0000
0000
0000
0000
0000
0000
0000
0010
0000
0000
0000
0000
0000
0000
0000
0000
0100
0000
0000
0000
0000
0000
0000
0000
0000
0000
0000
0000
0000
0000
0000
0000
0000
0000
0000
0000
0000
0000
0000
0000
0020
0000
0000
0000
0000
0000
0000
0000
0000
0000
0000
0000
0000
0000
0000
1000
0000
0000
0000
0000
0000
0000
0000
0000
0000
0000
0000
0000
0000
0000
0030
0000
0000
0000
0000
0000
0000
0000
0000
M010
0000
0000
0000
0000
0000
0000
0000
0000
0001
0000
0000
0000
0000
0000
0000
0000
0000
0000
0000
0000
0000
0000
0000
0000
0000
0000
0000
0000
0000
0000
0000
0000
0100
0000
0000
0000
0000
0000
0000
0000
0000
0000
0000
0000
0000
0000
0000
0000
0000
0000
0000
0000
0000
0000
0000
0000
,  // measure 64
0001
0000
1000
0000
0001
0000
1000
0000
0100
0000
1000
0001
0010
0000
0100
2000
,  // measure 65
0010
0000
0000
0000
0000
0000
0000
0000
0000
0000
0000
0000
0000
0000
0000
0000
0000
0000
0000
0000
0000
0000
0000
0000
0000
0000
0000
0000
0000
0000
0000
0000
0000
0000
0000
0000
0000
0000
3100
0000
0000
0000
0000
0000
0000
0000
0000
0000
1000
0000
0000
0000
0000
0000
0000
0000
0000
0000
0000
0000
0000
0000
0000
0001
0000
0000
0000
0000
0000
0000
0000
0000
0010
0000
0000
0000
0000
0000
0000
0000
0000
0000
0000
0000
0000
0000
0000
0000
0000
0000
0000
0000
0000
0000
0000
0000
0200
0000
0000
0000
0000
0000
0000
0000
0000
0000
0000
0000
0000
0000
0000
0010
0000
0000
0000
0000
0000
0000
0000
0000
0000
0000
0000
0000
0000
0000
0000
0000
0000
0300
0000
0000
0000
0000
0000
01M0
0000
0000
0000
0000
0000
0000
0000
0000
0001
0000
0000
0000
0000
0000
0000
0000
0000
0000
0000
0000
0000
0000
0000
0000
0000
0000
0000
0000
0000
0000
0000
0000
0001
0000
0000
0000
0000
0000
0000
0000
0000
0000
0000
0000
0000
0000
0000
0000
0000
0000
0000
0000
0000
0000
0000
0000
,  // measure 66
0200
0000
0000
0000
0000
0010
0000
0000
0000
0000
0000
0300
0000
01M0
0000
0000
1000
0000
0000
0000
0000
0000
0000
0000
1000
0000
0000
0000
0000
0000
0000
0000
0200
0000
0000
0000
0000
0010
0000
0000
0000
0000
0000
0300
0000
01M0
0000
0000
0001
0000
0000
0000
0000
0000
0000
0000
0001
0000
0000
0000
0000
0000
0000
0000
,  // measure 67
0100
0000
0000
0000
0000
0010
0000
0000
0000
0000
0000
0000
0000
0100
0000
0000
0001
0000
0000
1000
0000
0000
0000
0000
0100
0000
0000
0000
0000
0000
0000
0000
0020
0000
0000
0000
0000
0100
0000
0000
0000
0000
0000
0030
0000
0M10
0000
0000
1000
0000
0000
0000
0000
0000
0000
0000
1000
0000
0000
0000
0000
0000
0000
0000
,  // measure 68
0020
0000
0000
0000
0000
0100
0000
0000
0000
0000
0000
0030
0000
0M10
0000
0000
0001
0000
0000
0000
0000
0000
0000
0000
0001
0000
0000
0000
0000
0000
0000
0000
0020
0000
0000
0000
0000
0100
0000
0000
0000
0000
0000
0030
0000
0M10
0000
0000
1000
0000
0000
0000
0000
0000
0000
0000
0100
0000
0000
0000
0010
0000
0000
0000
,  // measure 69
0002
0000
0000
0000
0000
0000
0000
0000
0000
0000
0000
0000
0000
0000
0000
0000
0000
0000
0000
0000
0000
0000
0000
0000
0000
0000
0000
0000
0000
0000
0000
0000
0000
0000
0000
0000
0000
0000
0103
0000
0000
0000
0000
0000
0000
0000
0000
0000
0001
0000
0000
0000
0000
0000
0000
0000
0000
0000
0000
0000
0000
0000
0000
1000
0000
0000
0000
0000
0000
0000
0000
0000
0010
0000
0000
0000
0000
0000
0000
0000
0000
0000
0000
0000
0000
0000
0000
0000
0000
0000
0000
0000
0000
0000
0000
0000
0200
0000
0000
0000
0000
0000
0000
0000
0000
0000
0000
0000
0000
0000
0000
0010
0000
0000
0000
0000
0000
0000
0000
0000
0000
0000
0000
0000
0000
0000
0000
0000
0000
0300
0000
0000
0000
0000
0000
02M0
0000
0000
0000
0000
0000
0000
0000
0000
1000
0000
0000
0000
0000
0000
0000
0000
0000
0000
0000
0000
0000
0000
0000
0000
0000
0000
0000
0000
0000
0000
0000
0000
0310
0000
0000
0000
0000
0000
0000
0000
0000
0000
0000
0000
0000
0000
0000
0000
0000
0000
0000
0000
0000
0000
0000
0000
,  // measure 70
0200
0000
0000
0000
0000
0010
0000
0000
0000
0000
0000
0300
0000
02M0
0000
0000
0001
0000
0000
0000
0000
0000
0000
0000
0310
0000
0000
0000
0000
0000
0000
0000
0200
0000
0000
0000
0000
0010
0000
0000
0000
0000
0000
0300
0000
02M0
0000
0000
1000
0000
0000
0000
0000
0000
0000
0000
0310
0000
0000
0000
0000
0000
0000
0000
,  // measure 71
0100
0000
0000
0000
0000
1000
0000
0000
0000
0000
0000
0000
0000
0001
0000
0000
0100
0000
0000
0010
0000
0000
0000
0000
1000
0000
0000
0000
0000
0000
0000
0000
0020
0000
0000
0000
0000
0100
0000
0000
0000
0000
0000
0M30
0000
0020
0000
0000
0001
0000
0000
0000
0000
0000
0000
0000
0130
0000
0000
0000
0000
0000
0000
0000
,  // measure 72
1000
M000
1000
M000
1000
M000
1000
0000
;
