#VERSION:0.83;
#TITLE:Brazilian Anthem;
#SUBTITLE:;
#ARTIST:Berimbau '66;
#TITLETRANSLIT:;
#SUBTITLETRANSLIT:;
#ARTISTTRANSLIT:;
#GENRE:;
#CREDIT:;
#MUSIC:Brazilian Anthem.ogg;
#BANNER:Brazilian Anthem.png;
#BACKGROUND:Brazilian Anthem-bg.png;
#CDTITLE:;
#SAMPLESTART:1.023;
#SAMPLELENGTH:15.000;
#SELECTABLE:YES;
#OFFSET:0.000;
#BPMS:0.000=130.600
,4.000=130.000
;
#STOPS:;
#SPEEDS:0.000=1.000=0.000=0;
#SCROLLS:0.000=1.000;
#TICKCOUNTS:0.000=4;
#TIMESIGNATURES:0.000=4=4;
#LABELS:0.000=Song Start;
#COMBOS:0.000=1;
#DISPLAYBPM:130.000;
#ORIGIN:;
#PREVIEWVID:;
#JACKET:Brazilian Anthem-jacket.png;
#CDIMAGE:;
#DISCIMAGE:;
#BGCHANGES:;
#FGCHANGES:;

//--------------- dance-single - kaya ----------------
#NOTEDATA:;
#STEPSTYPE:dance-single;
#DESCRIPTION:kaya;
#DIFFICULTY:Medium;
#METER:10;
#RADARVALUES:0,0,0,0,0;
#NOTES:
0000
0000
0000
0000
,
0000
0000
0000
0000
,
1000
0000
0000
0000
0001
0000
0000
1001
0000
0000
0000
0000
0000
0000
0000
0000
,
0000
0000
0000
0000
0000
0002
0000
0000
1003
0000
0000
1000
0100
0000
0000
0100
,
0010
0000
0000
0010
0100
0000
0000
0100
1000
0000
0000
1000
0010
0000
0000
0010
,
0100
0000
0000
0100
0001
0000
0000
0000
1010
0000
0000
0000
0101
0000
0000
0000
,
1000
0010
0100
0001
0010
0100
1000
0000
,
0010
0000
0100
0000
0001
0000
0000
0000
0010
0000
0100
0000
1000
0000
0000
1001
,
0000
0000
0000
0000
0000
0000
0000
0000
0001
0000
0000
0000
0100
0000
0000
0101
,
0000
0000
0000
0000
0000
0000
0000
0000
1000
0000
0000
0000
0100
0000
0000
1100
,
0000
0000
0000
0000
0000
0000
0000
0000
0000
0000
0000
0000
0000
0002
0000
0000
,
1003
0000
0000
1000
0010
0000
0000
0010
0100
0000
0000
0100
0001
0000
0000
0001
,
0010
0000
0000
0010
0100
0000
0000
0100
0010
0000
0000
0010
0001
0000
0000
0000
,
0000
0000
1000
0000
0001
0000
1000
0000
0000
0000
0000
0000
0010
0000
0000
0100
0000
0000
0001
0000
0000
1000
0000
0000
,
0100
1000
0010
0000
0100
0001
0010
0000
,
0100
0000
1000
0000
0010
0000
0000
0110
0000
0000
0000
0000
0000
0000
0000
0000
,
0001
0100
1000
0100
,
0001
0010
1000
0010
,
0001
0000
0100
0000
0010
1000
0001
0100
,
0001
0000
0010
0000
0100
0100
1000
0000
,
0001
0000
0100
0000
0010
0010
1000
0000
,
0001
1000
0010
0000
1000
0001
0010
0000
,
0010
0100
1000
0000
0010
0100
0001
0000
,
1000
0100
0001
0010
,
2000
0001
0001
0001
,
0001
0000
0000
0000
3001
0000
0000
1001
0000
0000
0000
0000
0001
0000
0010
0000
,
0100
0000
0000
0100
1000
0000
0000
1000
0001
0000
0000
0001
0100
0000
0000
0100
,
0010
0000
0000
0010
1000
0000
0000
1000
0001
0000
0000
0001
0010
0000
0000
0010
,
0100
0000
0000
0100
1000
0000
0000
1000
0001
0000
0000
0001
0100
0000
0000
0100
,
0010
0000
0000
0010
1000
0000
0000
1000
0001
0000
0001
0000
0001
0000
0000
0000
,
0010
0000
0000
0010
0100
0000
0000
0100
1000
0000
0000
1000
0001
0000
0000
0001
,
0100
0000
0000
0100
0010
0000
0000
0010
1000
0000
0000
1000
0001
0000
0000
0000
,
0000
0000
0001
0000
1000
0000
0001
0000
0000
0000
0000
0000
0010
0000
0000
0100
0000
0000
1000
0000
0000
0001
0000
0000
,
0100
0010
0100
0010
1000
0001
1000
0001
,
0010
0000
0100
0000
0010
0000
0000
0110
0000
0000
0000
0000
0000
0000
0000
0000
,
0001
0000
0010
0001
0010
0000
0000
0001
0000
1000
0000
0001
0000
1000
0000
0000
,
0002
0000
0000
0000
0023
0000
0000
0130
0000
0000
0000
0000
0000
0000
0000
0000
,
1000
0000
0010
1000
0010
0000
0000
1000
0000
0001
0000
1000
0000
0001
0000
0000
,
2000
0000
0000
0000
3020
0000
0000
0130
0000
0000
0000
0000
0000
0000
0000
0000
,
1001
0000
1001
0000
0000
0002
0000
2000
0000
0000
0000
0000
0000
3003
0000
0000
,
0110
0000
0110
0000
0000
0020
0000
0200
0000
0000
0000
0000
0330
0000
0000
0000
,
0101
0000
0101
0000
0000
0002
0000
0200
0000
0000
0000
0000
0000
0000
0303
0000
,
1100
0000
1100
0000
0000
2000
0000
0200
0000
0000
3300
0000
1100
0000
0000
0000
,
0011
0000
0000
0000
0000
0000
0000
0000
0001
0000
0000
0000
0010
0000
0000
0100
,
0000
0000
0000
0000
0001
0000
0100
0000
1000
0000
0001
0000
1000
0000
0000
1001
,
0000
0000
1000
0010
,
0100
0000
0000
0000
1000
0000
0100
0000
0001
0000
1000
0000
0001
0000
0000
0010
,
0000
0100
1000
0000
2002
0000
0000
0000
,
0000
0000
0000
0000
,
3003
0000
0000
0000
;

//--------------- dance-single - kaya ----------------
#NOTEDATA:;
#STEPSTYPE:dance-single;
#DESCRIPTION:kaya;
#DIFFICULTY:Hard;
#METER:13;
#RADARVALUES:0,0,0,0,0;
#NOTES:
0000
0000
0000
0000
,
0000
0000
0000
0000
,
0011
0000
0000
0000
0110
0000
0000
1100
0000
1000
0000
0100
0000
0010
0000
0001
,
0000
1000
0000
0010
0000
0200
0000
0000
0301
0000
0000
0001
1000
0000
0000
1000
,
0001
0100
0000
0010
0000
0010
0000
0010
2000
0000
0100
0000
3100
0000
0000
1000
,
0002
0000
0100
0000
0103
0000
0001
0000
1000
0001
1000
0000
1001
0000
0000
0000
,
0001
0010
0001
0000
1000
0100
1000
0000
0010
0000
0100
0000
0001
0000
1000
0000
,
0100
0000
0010
0000
0001
0000
1000
0000
0010
0000
0100
0001
0000
1000
0000
1001
,
0000
0000
0000
0000
0000
0000
0000
0000
0011
0000
0000
0000
0110
0000
0000
1100
,
0000
0000
1000
0001
1000
0000
0010
0000
1010
0000
0000
0000
0110
0000
0000
0101
,
0000
0001
0000
0010
0000
0100
0000
1000
0000
0001
0000
0100
0000
0020
0000
0000
,
1030
0000
0000
1000
0001
0000
0000
0001
1000
0100
0000
0010
0000
0010
0000
0010
,
0002
0000
0100
0000
0103
0000
0000
0001
2000
0000
0100
0000
3100
0000
0010
0000
,
0001
0000
0000
0000
1000
0000
0000
0000
0001
0000
0000
0000
0010
0000
0000
0000
0000
0000
0000
0000
0000
0000
0000
0000
0010
0000
0000
0100
0000
0000
0000
0000
0000
0100
0000
0000
0000
0000
0000
1000
0000
0000
0000
0000
0000
1000
0000
0000
,
0001
0100
0010
1000
0001
0010
0100
1000
,
0010
0000
0100
0000
0001
1000
0000
1001
0000
1000
0100
0010
0001
0000
0100
0000
,
0001
0000
0010
0001
0000
0001
0000
1000
0000
0000
0100
0000
0010
0000
0001
0000
,
1000
0000
0010
1000
0000
1000
0000
0001
0000
0000
0100
0000
0010
0000
1000
0000
,
0001
0000
0010
0100
0000
0000
1000
0001
1000
0000
0010
0000
0100
0000
0001
0000
,
0020
0000
0130
0000
1000
0100
0000
0100
0010
0000
0001
0000
1000
0000
0001
0000
,
0100
0000
0010
0000
1000
0010
0000
0010
0100
0000
0001
0000
1000
0001
1000
0001
,
0010
0100
0001
1000
0010
0100
1000
0001
,
0100
0010
0001
1000
0100
0010
1000
0001
,
0010
1000
0010
0001
0100
1000
0100
0001
,
1000
0000
0010
0100
0000
1000
0000
0100
0000
0001
0000
1000
0001
0000
1000
0001
,
0010
0000
0100
0010
0000
0001
0000
1001
0000
0001
0000
0010
0000
0100
0000
1000
,
0010
0000
0000
0010
1000
0000
0000
1000
0001
0000
0000
0001
0010
0000
0000
0010
,
0100
0000
0000
0100
1000
0000
0000
1000
0001
0000
0000
0001
0100
0000
0000
0100
,
0010
0000
0000
0010
1000
0000
0000
1000
0100
0000
0000
0100
0010
0000
0000
0010
,
0001
0000
0000
0001
1000
0000
0000
1000
0010
0100
0000
1000
0000
0100
0000
0001
,
1000
0000
0000
1000
0001
0000
0000
0001
0010
0000
0000
0010
0100
0000
0000
0100
,
1000
0000
0000
1000
0001
0000
0000
0001
0100
0000
0000
0100
0020
0000
0000
0000
,
1030
0000
0000
0000
0100
0000
0000
0000
0010
0000
0000
0000
0001
0000
0000
0000
0000
0000
0000
0000
0000
0000
0000
0000
1000
0000
0000
0010
0000
0000
1000
0000
0000
0000
0000
0000
0001
0000
0000
0100
0000
0000
0001
0000
0000
0000
0000
0000
,
1000
0001
0010
0100
1000
0001
0100
0010
,
1000
0000
0001
0000
0010
0100
0000
0110
0000
0000
0000
0000
0000
0000
0000
0000
,
1000
0000
0010
1000
0010
1000
0000
0001
0000
0100
0000
0010
0000
1000
0000
0000
,
1010
0000
0000
0000
0110
0000
0000
0202
0000
0000
0000
0000
0303
0000
0000
0000
,
0001
0000
0010
0001
0010
0001
0000
1000
0000
0100
0000
0010
0000
0001
0000
0000
,
0011
0000
0000
0000
0110
0000
0000
1100
0000
0000
0100
1000
0001
0000
0000
0000
,
1000
0000
0010
0000
0000
0100
0000
2000
0000
0000
0000
0000
3100
0010
0100
0000
,
0001
0000
0010
0000
0000
0200
0000
0001
0000
0000
0000
0000
0310
0100
0010
0000
,
0001
0000
0100
0000
0000
0010
0000
0002
0000
0000
0000
0000
0013
0100
0010
0000
,
1000
0000
0100
0000
0000
0010
0000
2000
0000
0000
0000
0000
3010
0000
0001
0000
,
1000
0000
0000
0000
0000
0000
0000
0000
1010
0000
0000
0000
0110
0000
0000
0101
,
0000
0000
0000
1000
0010
0000
0100
0000
0001
0000
0001
0000
1000
0001
0000
0011
,
0000
0000
0000
0000
0000
0000
0000
0000
0011
0000
0000
0000
0110
0000
0000
1100
,
0000
0000
0001
0010
0100
0000
1000
0000
0001
0000
0001
0000
0010
0100
0000
1000
,
0000
1000
0010
0000
0100
0000
0010
0000
2002
0000
0000
0000
0000
0000
0000
0000
,
0000
0000
0000
0000
,
3003
0000
0000
0000
;

//--------------- dance-single - kaya ----------------
#NOTEDATA:;
#STEPSTYPE:dance-single;
#DESCRIPTION:kaya;
#DIFFICULTY:Challenge;
#METER:16;
#RADARVALUES:0.710972,0.726082,0.173728,0.367895,1.144562,487,470,17,36,0,0,0,0,0,0.710972,0.726082,0.173728,0.367895,1.144562,487,470,17,36,0,0,0,0,0;
#DISPLAYBPM:130.000;
#CHARTNAME:;
#CHARTSTYLE:;
#CREDIT:;
#NOTES:
0000
0000
0000
0000
,
0000
0000
0000
0000
,
0011
0000
0000
0000
0110
0000
0000
1001
0000
1000
0000
0100
0000
0010
0000
1000
,
0000
0001
0000
0100
0010
0000
0100
0000
2000
0000
0000
3001
0100
0000
0010
0000
,
1000
0001
0000
0010
0000
0100
0000
2000
0000
0000
0000
3010
0100
0010
0000
2000
,
0000
0000
0000
3001
0100
0000
0010
0000
1000
0100
1000
0000
0001
0010
0001
0000
,
1000
0010
1000
0001
1000
0010
0100
0001
2000
0000
3001
0000
0010
0000
0100
0010
,
0100
0000
0010
0000
0001
0000
0100
0010
0100
0000
0010
1000
0001
0010
0000
0110
,
0000
1000
0100
0010
0001
0010
0100
1000
0002
0003
0100
0000
2000
3100
0000
0002
,
0003
0001
0100
0010
1000
0001
0010
0100
2000
3000
0100
0000
0002
0103
0000
2000
,
3000
0001
0000
0010
0000
0100
0000
0001
0000
1000
0000
0010
0100
0000
0010
0000
,
0002
0000
0003
1000
0100
0000
0010
0000
0001
0100
0000
0010
0000
1000
0000
0002
,
0000
0000
0000
0013
0100
0010
0000
0002
0000
0000
0000
1003
0010
0000
0100
0000
,
0001
0000
0000
0000
1000
0000
0000
0000
1000
0000
0000
0000
1000
0000
0000
0000
0000
0000
0000
0000
0000
0000
0000
0000
0010
0000
0000
0100
0000
0000
0000
0000
0000
0100
0000
0000
1000
0000
0000
0100
0000
0000
0010
0000
0000
0100
0000
0000
,
0002
0003
1000
0000
0100
0000
0010
0100
0010
0000
0100
0000
1000
0000
0010
0100
,
0010
0000
0100
0001
0000
0001
0000
1001
0000
1000
0001
0100
0010
1000
0100
0010
,
0001
0000
0010
0100
0000
0100
0000
0002
0000
0000
0103
0000
0100
1000
0001
0000
,
1000
0000
0010
0100
0000
0100
0000
2000
0000
0000
3100
0000
0100
0001
1000
0000
,
0001
0000
0010
0001
0000
0000
1000
0100
0010
0001
1000
0001
0100
0001
0010
0100
,
1000
0000
0001
0000
0100
0010
0000
0002
0000
0013
0100
0000
0010
1000
0000
1000
,
0001
0000
1000
0100
0000
0010
0000
2000
0000
3010
0100
0010
0001
1000
0010
0100
,
0001
0010
0001
0000
0010
0100
0010
0000
0100
1000
0100
0000
1000
0001
1000
0001
,
0000
0000
1000
0010
0100
0001
0000
0010
0100
0010
0000
0100
1000
0001
0000
1000
,
0010
0100
0001
0100
0010
1000
0001
0010
0100
1000
0001
0100
0010
1000
0100
0010
,
0002
0000
1003
0100
0000
0100
1000
0100
0000
0100
1000
0000
0010
0000
1000
0001
,
2000
0000
3001
0010
0000
0010
0000
2000
0000
3010
0000
0010
0100
0000
1000
0000
,
0002
0003
0100
0000
1000
0100
0000
0100
0001
0000
0010
0000
1000
0010
0000
0010
,
0001
0000
0100
0000
1000
0100
0000
0100
0001
0000
0010
0000
1000
0010
0000
0010
,
0100
0000
1000
0000
0010
0001
0000
0001
0010
1000
0000
1000
0000
0001
0100
0010
,
1000
0000
0100
0000
0010
0001
1000
0001
1000
0100
0010
0100
0001
0100
0010
0001
,
2000
0000
3010
0000
0001
0010
0000
0010
1000
0000
0100
0000
0001
0100
0000
0100
,
1000
0000
0010
0000
0001
0010
0000
0010
1000
0000
0001
0000
0100
0010
0100
0010
,
1000
0000
0000
0000
0001
0000
0000
0000
0001
0000
0000
0000
0001
0000
0000
0000
0000
0000
0000
0000
0000
0000
0000
0000
0010
0000
0000
0100
0000
0000
1000
0000
0000
0010
0000
0000
0100
0000
0000
0001
0000
0000
0010
0000
0000
0100
0000
0000
,
1000
0000
0001
0000
0100
0000
0010
0100
0010
0000
1000
0000
0100
0000
0010
0100
,
0010
0000
0001
1000
0001
0100
0000
0020
0030
0001
0010
0100
0000
0001
0001
0000
,
1000
0000
0001
0100
0010
0100
0000
1000
0000
0100
0000
0001
0000
0010
0000
0000
,
1020
0000
0000
0000
0032
0000
0000
0103
0000
0000
0000
0010
1000
0001
0000
0010
,
0001
0000
1000
0100
0010
0100
0000
0001
0000
0100
0000
1000
0000
0010
0000
0000
,
0021
0000
0000
0000
2030
0000
0000
3100
0000
0010
0001
1000
0010
0000
0100
0001
,
1000
0000
2100
0000
3010
0100
0000
2000
0000
3100
0010
0000
1000
0001
0100
0010
,
1000
0000
2010
0000
3100
0010
0000
2000
0000
3010
0100
1000
0010
1000
0001
0000
,
0100
0000
0102
0000
0013
0100
0000
0002
0000
0103
0000
0010
0001
1000
0100
0000
,
0010
0000
0000
0000
0012
0000
0000
0000
0103
0000
0010
0000
0000
0000
0010
0000
0001
0000
0010
0000
0100
0000
0010
0000
1000
0001
1000
0000
0100
0000
0010
0000
,
0001
0000
0000
0000
0000
0000
0000
0000
0011
0000
0000
0000
0110
0000
0000
1100
,
0000
0000
0000
1000
0000
0000
0001
0000
1000
0000
0001
0000
0010
0000
0000
0000
0000
0000
0100
0000
0000
1000
0000
0000
0001
0000
0000
0000
0000
0000
0001
0000
0000
0000
0000
0000
0010
0000
0000
0100
0000
0000
1000
0000
0000
0001
0000
0000
,
0000
0000
0000
0000
0000
0000
0000
0000
0101
0000
0000
0000
0110
0000
0000
1010
,
0000
0000
0000
0001
0000
0000
1000
0000
0001
0000
1000
0000
0010
0000
0000
0000
0000
0000
0100
0000
0000
0000
0000
0000
0001
0000
0000
0000
0000
0000
0001
0000
0000
0000
0000
0000
1000
0000
0000
0010
0000
0000
0100
0000
0000
0010
0000
0000
,
0000
0001
0010
0000
0100
0001
1000
0100
0020
0000
0000
0000
0000
0000
0000
0000
,
0000
0000
0000
0000
,
0030
0000
0000
0000
;
