#VERSION:0.83;
#TITLE:Bossanova a YEBISU;
#SUBTITLE:;
#ARTIST:staccato two-J;
#TITLETRANSLIT:;
#SUBTITLETRANSLIT:;
#ARTISTTRANSLIT:;
#GENRE:;
#ORIGIN:;
#CREDIT:;
#BANNER:sc2024-banner.png;
#BACKGROUND:sc2024-background.png;
#PREVIEWVID:;
#JACKET:sc2024-jacket.png;
#CDIMAGE:;
#DISCIMAGE:;
#LYRICSPATH:;
#CDTITLE:scr-cdtitle.png;
#MUSIC:Bossanova a YEBISU-audio.ogg;
#OFFSET:0.000000;
#SAMPLESTART:41.959564;
#SAMPLELENGTH:12.000000;
#SELECTABLE:YES;
#BPMS:0.000=143.000;
#STOPS:;
#DELAYS:;
#WARPS:;
#TIMESIGNATURES:0.000=4=4;
#TICKCOUNTS:0.000=4;
#COMBOS:0.000=1;
#SPEEDS:0.000=1.000=0.000=0;
#SCROLLS:0.000=1.000;
#FAKES:;
#LABELS:0.000=Song Start;
#BGCHANGES:;
#KEYSOUNDS:;
#ATTACKS:
;

//---------------dance-single - ----------------
#NOTEDATA:;
#CHARTNAME:MODERATE;
#STEPSTYPE:dance-single;
#DESCRIPTION:;
#CHARTSTYLE:;
#DIFFICULTY:Easy;
#METER:5;
#RADARVALUES:0.199771,0.251712,0.012160,0.000000,0.000000,115.000000,114.000000,1.000000,0.000000,0.000000,0.000000,0.000000,0.000000,0.000000,0.199771,0.251712,0.012160,0.000000,0.000000,115.000000,114.000000,1.000000,0.000000,0.000000,0.000000,0.000000,0.000000,0.000000;
#CREDIT:Scrypts;
#NOTES:
0000
0000
0000
0000
,
0000
0000
0000
0000
,
0000
0000
0000
0000
,
0000
0000
0000
0000
,
1000
0000
0100
0000
,
1000
0010
0100
0001
,
1000
0000
0001
0000
,
0010
0000
0000
0000
,
0001
0000
0100
0000
,
0001
0010
0100
1000
,
0010
0000
0010
0000
,
0100
0100
0001
1000
,
0001
0000
0001
0000
,
1000
0000
1000
0000
,
0100
0000
0100
0000
,
0010
0001
0010
0100
,
1000
0000
1000
0000
,
0010
0000
0010
0000
,
0100
0000
0100
0000
,
0001
0010
0100
1000
,
0001
0000
0000
0000
0001
0000
0000
1001
,
0000
0000
0000
0000
,
1000
0000
1000
0000
,
0001
0100
0001
0100
,
0001
0000
0001
0000
,
1000
0010
1000
0010
,
1000
0000
1000
0000
,
0001
0001
0010
0100
,
1000
0000
0010
0000
,
1000
0100
1000
0001
,
1000
0000
0010
0000
,
0100
0000
0001
0000
,
1000
0000
0100
0000
,
0010
0000
0001
0000
,
1000
1000
0001
0001
,
1000
1000
0001
0001
,
0100
0100
0010
0010
,
1000
0000
0000
0000
,
0001
0000
0010
0000
,
0100
0000
1000
0000
,
0001
0001
1000
1000
,
0001
0001
1000
1000
,
0001
0000
0100
0000
,
0010
0000
1000
0000
,
0010
0010
0100
0100
,
0010
0010
0100
0100
,
0001
0000
0000
0000
;

//---------------dance-single - ----------------
#NOTEDATA:;
#CHARTNAME:MARVELOUS;
#STEPSTYPE:dance-single;
#DESCRIPTION:;
#CHARTSTYLE:;
#DIFFICULTY:Medium;
#METER:8;
#RADARVALUES:0.323108,0.391551,0.036480,0.000000,0.000000,186.000000,183.000000,3.000000,0.000000,0.000000,0.000000,0.000000,0.000000,0.000000,0.323108,0.391551,0.036480,0.000000,0.000000,186.000000,183.000000,3.000000,0.000000,0.000000,0.000000,0.000000,0.000000,0.000000;
#CREDIT:Scrypts;
#NOTES:
0000
0000
0000
0000
,
0000
0000
0000
0000
,
0000
0000
0000
0000
,
0000
0000
0000
0000
,
1000
0000
0100
0000
0010
0000
0100
1000
,
0000
1000
0000
0000
0001
0000
0001
0000
,
0100
0000
0010
0000
1000
0000
0100
0010
,
0000
0000
0000
0000
,
0001
0000
0100
0000
0010
0000
0100
0001
,
0000
0001
0000
1000
0001
1000
0010
0000
,
0100
0001
0100
0010
,
1000
0000
0100
0000
0010
0001
0010
0000
,
0001
0000
0100
0000
0000
0010
0000
1000
,
0000
0010
0000
0100
0001
0000
1000
0000
,
0000
0001
0100
0001
0100
0000
0010
1000
,
0000
0001
1000
1001
,
0001
0000
0010
0000
0100
0000
0010
0001
,
0000
0001
0000
0000
1000
0000
0010
0000
,
1000
0100
0010
0001
,
0100
0000
0001
0000
1000
0100
1000
0100
,
1000
0000
0001
0000
0100
0000
0001
1000
,
0000
0000
1001
0000
0000
0001
0010
0001
,
1000
0000
0010
0100
0000
0001
1000
0000
,
0001
0100
0001
0100
0001
0010
0000
0100
,
1000
0000
0000
1000
0001
0000
0000
0001
,
1000
0100
1000
0100
1000
0010
0000
0010
,
0100
0000
0000
0100
0001
0000
0000
0001
,
1000
1001
0001
0010
,
0100
0000
0000
0100
1000
0000
0000
1000
,
0001
0000
1000
0000
0001
1000
0001
0000
,
1000
0000
0100
0000
0000
1000
0000
0000
,
0001
0000
0000
0100
0000
0010
1000
0000
,
0001
0000
0010
0000
0000
0100
0000
0000
,
1000
0000
0000
1000
0001
0000
0000
0001
,
1000
0100
1000
0001
,
1000
0010
1000
0001
,
0010
0001
1000
0001
,
0100
0000
0001
0000
0000
0001
0000
0001
,
1000
0000
0100
0000
0000
1000
0000
0001
,
0000
0100
0000
0010
1000
0010
1000
0000
,
0001
0010
0100
1000
,
0001
0000
0100
0000
0001
0000
1000
0001
,
1000
0000
0100
0000
0000
0010
0000
0001
,
0000
1000
0000
0001
0010
0001
0010
0000
,
0100
1000
0001
0100
,
0010
0000
1000
0000
0100
0000
0010
0001
,
1000
0000
0000
0000
;

//---------------dance-single - XO, SJ-----------------
#NOTEDATA:;
#CHARTNAME:PARAMOUNT;
#STEPSTYPE:dance-single;
#DESCRIPTION:XO, SJ-;
#CHARTSTYLE:;
#DIFFICULTY:Hard;
#METER:11;
#RADARVALUES:0.451656,0.475455,0.072960,0.000000,0.006080,260.000000,254.000000,6.000000,0.000000,0.000000,0.000000,0.000000,0.000000,0.000000,0.451656,0.475455,0.072960,0.000000,0.006080,260.000000,254.000000,6.000000,0.000000,0.000000,0.000000,0.000000,0.000000,0.000000;
#CREDIT:Scrypts;
#NOTES:
// measure 0
0000
0000
0000
0000
,  // measure 1
0000
0000
0000
0000
,  // measure 2
0000
0000
0000
0000
,  // measure 3
0000
0000
0000
0000
,  // measure 4
1000
0000
0100
0000
0001
0000
0100
0010
,  // measure 5
0000
0001
0000
1000
0010
0000
0100
0000
,  // measure 6
0001
0100
0010
0100
1000
0000
0100
0001
,  // measure 7
1000
0100
0010
0100
1000
0001
0011
0000
,  // measure 8
0001
0000
0010
0000
1000
0000
0010
0100
,  // measure 9
0000
0000
1000
0000
0000
0000
0001
0000
1000
0000
0000
0100
0000
0000
0010
0000
,  // measure 10
0001
0000
0100
0010
1000
0000
0100
0010
,  // measure 11
0001
0100
0010
1000
0100
1000
1010
0000
,  // measure 12
0010
0000
0100
0000
0001
0100
0000
1000
,  // measure 13
0000
0100
0000
0001
1000
0000
0010
0000
,  // measure 14
1000
0100
0010
0100
0001
0000
0100
1000
,  // measure 15
0001
0100
0010
1000
0100
1000
1001
0000
,  // measure 16
1000
0000
0010
0000
0001
0000
0010
1000
,  // measure 17
0000
0001
0000
0010
0100
1000
0001
0100
,  // measure 18
0010
0000
1000
0100
1000
0000
0010
0100
,  // measure 19
0001
0000
1000
0001
1000
0100
0010
0001
,  // measure 20
1000
0000
0010
0100
0010
1000
0100
0010
,  // measure 21
0000
0000
0001
0000
0000
0100
0010
0100
,  // measure 22
0001
0000
1000
0100
0100
0000
1000
0000
,  // measure 23
0001
1000
0100
0010
1000
0010
0000
0001
,  // measure 24
1000
0000
0001
0100
0100
0000
0001
0000
,  // measure 25
1000
0001
0100
0010
0001
0010
0000
1000
,  // measure 26
0001
0000
1000
0010
0010
1000
0001
0010
,  // measure 27
0100
0000
1100
0000
1000
0010
0110
0000
,  // measure 28
0100
0000
0001
1000
0100
0010
0001
1000
,  // measure 29
0010
0100
0010
1000
0100
0010
0011
0000
,  // measure 30
0001
0000
0010
0001
1000
0100
0000
0100
,  // measure 31
0010
0001
1000
0010
0000
0010
0100
0001
,  // measure 32
1000
0100
0010
0000
0001
0100
0000
0100
,  // measure 33
0010
0000
1000
0100
1000
0001
0000
0001
,  // measure 34
1000
0000
0010
0100
0001
0000
0010
0100
,  // measure 35
1000
0000
0001
0100
0010
0000
1000
0100
,  // measure 36
0010
0000
0001
0010
0100
0000
1000
0010
,  // measure 37
0100
0000
0001
0000
1000
0100
0000
1000
,  // measure 38
0010
0000
0100
0001
1000
0010
1000
0100
,  // measure 39
0000
0010
0000
0001
0010
0010
0100
1000
,  // measure 40
0001
0000
0010
0100
1000
0000
0010
0100
,  // measure 41
0001
0000
1000
0100
0010
0000
0001
0100
,  // measure 42
0010
0000
0100
0001
1000
0010
1000
0100
,  // measure 43
0000
0010
0000
0001
0010
0010
0100
1000
,  // measure 44
0001
0000
0100
0010
1000
0000
0100
0010
,  // measure 45
0001
0000
1000
0010
0100
0001
0010
0100
,  // measure 46
1000
0000
0000
0000
;
