#TITLE:Bitter & Lucky;
#SUBTITLE:;
#ARTIST:DE DE MOUSE;
#TITLETRANSLIT:;
#SUBTITLETRANSLIT:;
#ARTISTTRANSLIT:;
#GENRE:;
#CREDIT:NOWHERE Dance Club;
#MUSIC:Bitter & Lucky.ogg;
#BANNER:Bitter & Lucky-bn.png;
#BACKGROUND:Bitter & Lucky-bg.png;
#CDTITLE:cdtitle.png;
#SAMPLESTART:91.593;
#SAMPLELENGTH:25.333;
#SELECTABLE:YES;
#OFFSET:-1.371;
#BPMS:0.000=180.000
,200.000=135.000
,232.000=180.000
;
#STOPS:;
#BGCHANGES:;
#FGCHANGES:;

//--------------- dance-single - NOWHERE Dance Club ----------------
#NOTES:
     dance-single:
     NOWHERE Dance Club:
     Beginner:
     5:
     0,0,0,0,0:
0000
0000
0000
0000
,
0000
0000
0000
0000
,
0000
0000
0000
0001
,
0100
0000
0000
0100
0000
0000
0000
0000
,
0010
0000
0000
1000
,
0010
0010
0010
0000
,
1000
0000
0000
0001
,
0010
0100
0000
0000
,
0010
0001
1000
0010
,
0100
0010
1000
0000
,
0001
0000
0100
0000
,
0010
0000
1000
0000
,
0100
0000
0010
0000
,
0100
0000
0000
0000
1000
0000
0100
0010
,
0001
1000
0010
0000
,
0100
0000
0010
0000
,
1000
0000
0001
0000
,
0010
0100
1000
0001
,
0100
0000
0010
0000
,
0100
0000
0001
0000
,
1000
0000
0100
0100
,
0010
0010
0001
0001
,
1000
0000
0010
0000
,
0100
0000
0010
0000
,
1000
1000
0001
0001
,
1001
0000
0000
0000
,
1100
0000
0000
0011
,
0000
0000
1001
0000
,
0101
0000
1010
0000
,
1001
0000
1001
0000
,
1000
0100
1000
0100
,
0010
0100
0010
0100
,
0010
0001
0010
0001
,
1000
0001
1000
0001
,
0100
0010
1000
0010
,
0020
0000
0100
0000
,
2030
0000
3002
0000
,
0023
0000
0100
0000
,
0230
0000
0010
0000
,
0302
0000
1000
0000
,
2003
0000
0001
0000
,
3001
0100
0010
1000
,
1001
0000
0000
0000
,
1100
0000
0000
0000
,
0010
0000
0000
0000
,
0011
0000
0000
0000
,
0001
0000
0000
0000
,
1001
0000
0000
0000
,
0001
0000
0100
0000
,
0010
0000
1000
0000
,
0001
0100
0002
0100
,
1003
0100
2000
0100
,
3001
0010
0100
0100
,
1000
0010
0100
0100
,
0002
0010
1003
0001
,
2000
0010
3001
1000
,
0001
0010
0002
0010
,
2003
3002
2003
3002
,
1003
0000
0010
0000
,
0100
0000
0010
0000
,
1000
0000
0100
0010
,
0001
1000
0100
0010
,
0001
0000
0100
0000
,
0001
0000
1000
0000
,
0100
0000
0100
0000
,
0100
0000
0000
0000
,
1001
0000
0101
0101
,
0000
0010
1000
0000
,
1001
0000
1100
1100
,
0000
0010
0001
0000
,
1001
0000
0101
0000
,
1001
0000
1100
0000
,
0001
0001
1000
1000
,
0100
0100
0010
0010
,
0001
1000
0001
1000
,
0001
0100
0001
0100
,
0010
0000
1000
0000
,
1001
0000
1100
0000
,
0101
0000
0010
0000
,
1010
0000
1000
0000
,
1001
0000
0001
0000
,
0011
0000
0001
0000
,
1001
0000
1000
0000
,
1010
0000
0010
0000
,
0100
0000
0000
0000
0000
0000
0000
0000
0000
0000
M000
0000
000M
0000
0000
0M00
0000
0000
0000
00M0
0000
0000
0000
0000
;

//--------------- dance-single - NOWHERE Dance Club ----------------
#NOTES:
     dance-single:
     NOWHERE Dance Club:
     Easy:
     8:
     0,0,0,0,0:
0000
0000
0000
0000
,
0000
0000
0000
0000
,
0000
0000
0000
0001
,
0100
0000
0000
0010
0000
0000
0000
0000
,
0000
0000
0000
1000
,
0100
0000
0010
0001
1000
0001
1000
0000
,
1001
0000
0000
0000
0000
0000
0001
0100
,
0000
0010
0000
0000
0000
0000
0000
0100
,
0010
0100
0100
0010
,
1000
0001
2000
0000
,
3001
0000
0010
0000
,
0001
0010
0001
0000
,
1000
0000
0010
0000
,
1000
0100
1000
0100
,
0010
0000
0001
0000
,
0010
0001
1000
0000
,
0010
0000
1000
0000
,
0010
1000
0001
0010
,
0100
0000
0010
0000
,
0100
0010
0001
0000
,
1000
0000
0010
0100
,
0001
1000
0010
0100
,
0001
0001
1000
1000
,
0100
0100
0010
0010
,
0001
0100
0001
0000
1000
0100
1000
0000
,
0001
0000
0000
0000
,
1001
0000
0101
1001
,
0000
0001
1000
0100
,
0110
0000
0110
0000
,
1001
0000
1001
0000
,
0001
0001
0100
0100
,
0010
0010
1000
1000
,
0001
1000
0001
1000
0001
0010
0001
0010
,
0100
0010
0100
1000
0001
1000
0001
1000
,
0001
0001
1000
1000
,
0002
0203
0320
2030
,
3010
1000
1010
0000
,
0001
0010
0011
0001
,
1000
0010
1010
0000
,
1000
0100
1100
0000
,
0010
0001
0011
0000
,
0001
0100
0110
0000
,
1001
0000
0000
0000
,
0101
0000
0000
0000
,
0110
0000
0000
0000
,
1010
0000
1000
0100
,
0010
0000
0000
0000
,
0011
0000
0000
0000
,
0001
0000
0000
0000
0001
0000
0100
0000
0000
0000
0100
0000
,
0010
0000
0000
0000
0010
0000
1000
0000
0000
0000
1000
0000
,
0002
0010
1003
0001
,
2000
0010
3001
1001
,
0001
0100
0020
1000
,
0100
0100
1000
1030
,
1001
1000
0100
0020
,
0001
0100
0100
0031
,
1001
1000
0100
0010
,
0100
0010
0100
0010
0001
1000
0001
1000
,
0001
0000
0100
0000
,
0010
0000
1000
0000
,
0100
0000
0010
0001
,
0100
0010
1000
0100
,
0010
0010
0001
0001
,
0100
0100
0010
0010
,
1000
0010
1000
0010
1000
0001
1000
0001
,
1000
0000
0000
0000
,
1001
0000
0101
1001
,
0001
0100
0010
1000
,
1001
0000
1100
1001
,
1000
0100
0010
0001
,
1000
0100
1000
0001
,
0100
0001
1000
0010
,
0100
0010
0100
0000
0100
0010
1000
0000
,
1000
0100
0010
0000
0100
0010
0001
0000
,
1000
0001
1000
0001
1000
0100
1000
0100
,
0010
0100
0010
0100
0010
0001
0010
0001
,
1000
1000
0001
0001
,
1001
1001
0110
0110
,
1001
0001
0100
0010
,
1010
0010
1000
0001
,
1001
0001
0010
0100
,
0110
0010
0001
1000
,
1001
0001
0100
0010
,
0110
0010
1000
0001
,
0000
0000
0000
0000
0000
0000
0000
0000
0000
0000
M000
0000
000M
0000
0000
0M00
0000
0000
0000
00M0
0000
0000
0000
0000
;

//--------------- dance-single - NOWHERE Dance Club ----------------
#NOTES:
     dance-single:
     NOWHERE Dance Club:
     Medium:
     13:
     0,0,0,0,0:
0000
0000
0000
0000
,
0000
0000
0000
0000
,
0000
0000
0000
1000
,
0100
0000
0000
0100
0000
0000
0010
0000
,
0001
0000
1000
0001
,
0010
0000
0001
1000
1000
0010
0100
0000
,
0210
0000
0000
0000
0000
0000
0310
1000
,
0000
0001
0000
1000
0000
0000
0000
0001
,
0010
0000
0010
0100
0000
1000
0000
0001
,
0000
1000
0000
0010
0000
0100
0010
0000
,
0010
1000
0001
0000
0011
0000
0001
0100
,
0000
0010
1000
0000
1001
0000
0001
0100
,
0010
1000
0001
0000
0011
0000
0001
0010
,
0001
0100
0001
0100
0010
1000
0100
0010
,
0001
0000
1000
0000
1001
0000
0001
0100
,
0010
0100
0001
0000
0101
0000
0001
0100
,
0010
1000
0001
0000
1001
0001
0010
0100
,
0010
0110
0000
0001
1000
1001
0000
0000
,
1000
0001
1000
0000
1010
0000
1000
0100
,
0000
0010
0001
0000
1001
0000
1000
0100
,
0010
0001
1000
0000
0010
1000
0100
0010
,
0001
0010
0100
1000
0010
0100
0001
1000
,
0001
0101
0001
1100
,
0001
0011
1000
1010
,
1000
0100
1000
0100
0010
0001
0010
0001
,
1000
0010
0001
0100
,
2000
0000
0001
3100
,
1000
0100
0010
0001
0010
0000
0011
0000
,
1002
0000
0100
1003
,
0001
0100
0010
1000
0010
0000
1010
0000
,
0020
1000
0001
0001
,
1000
1030
2010
3001
,
1000
0100
1000
0100
1000
0100
0010
0100
,
0010
0001
0010
0001
1000
0001
1000
0001
,
1000
0100
0010
0001
,
0011
0110
0011
1001
,
0001
0100
0010
0100
0001
0010
0100
1000
,
0100
0010
0001
0100
0010
0100
0001
1000
,
0001
0010
0100
0010
0001
0100
0010
1000
,
0001
0010
0100
0010
0001
0100
0010
1000
,
0001
1000
0010
1000
0001
0010
0001
1000
,
0100
1000
0001
0100
0001
1000
0010
0100
,
0002
0000
0000
1003
,
2001
0000
0000
3100
,
0200
0000
0000
0310
,
0110
0000
0000
0000
0010
0000
0001
1000
,
0002
0000
0000
0103
,
0201
0000
0320
0000
,
1030
0000
0100
0000
0010
0000
0001
0000
0010
0000
0100
0000
,
1000
0000
0001
0000
0100
0000
0010
0000
1000
0000
0001
0000
,
2000
0000
0010
0000
0001
0000
3100
1000
,
0020
0000
0000
0000
0100
0000
1000
0000
0130
0000
0001
0000
1000
0000
0001
1000
,
0002
0000
0010
0000
1000
0000
0103
0001
,
1000
0000
0100
0010
0000
0001
1000
0000
0010
0000
0100
0000
0002
0000
0000
0000
,
1003
0000
0100
0000
0010
0000
0000
0100
0000
0000
1000
0000
0001
0000
0000
0000
,
0100
0000
0001
0000
1000
0001
0000
0000
0100
0000
0010
0000
1000
0000
0001
0000
,
0020
0000
0100
0031
1000
0020
0100
0000
,
1030
0000
0001
1000
0000
1000
0010
0000
1000
0000
0100
0000
0010
0000
0001
0000
,
1000
0000
0001
0000
0011
0000
0001
1000
,
0000
1000
0010
0000
1010
0000
1000
0001
,
0000
1000
0001
1000
0001
0100
0010
1000
,
0001
0010
0100
1000
0100
0010
0001
0010
,
0100
1000
0001
0100
,
0010
1000
0001
0010
,
0100
0010
0100
0010
0001
0010
0001
0010
,
0001
0010
1000
0100
,
0002
0000
1000
0103
,
0001
0100
0010
1000
0010
0000
1010
0000
,
2001
0000
0100
3001
,
1000
0100
0010
0001
0010
0000
0011
0000
,
0020
0001
1000
1000
,
0001
0031
0012
1003
,
0001
0100
0001
0100
0001
0100
0010
0100
,
0010
1000
0010
1000
0001
1000
0001
0010
,
0100
0100
1000
1000
0001
0001
0100
0100
,
0001
0001
1000
1000
0100
0100
0010
0000
,
0001
0100
0010
1000
,
1010
0110
1010
1001
,
1000
0100
1100
0000
0100
0010
0110
0000
,
0010
0001
0011
0000
0001
1000
1001
0000
,
1000
0010
1010
0000
0010
0100
0110
0000
,
0100
0001
0101
0000
0001
1000
1001
0000
,
1000
0100
0110
0000
0010
0001
0011
0000
,
0001
0100
0110
0000
0010
1000
1010
0000
,
0000
0000
0000
0000
0000
0000
0000
0000
0000
0000
000M
0000
0M00
0000
0000
00M0
0000
0000
0000
M000
0000
0000
0000
0000
;

//--------------- dance-single - NOWHERE Dance Club ----------------
#NOTES:
     dance-single:
     NOWHERE Dance Club:
     Hard:
     15:
     0,0,0,0,0:
0000
0000
0000
0000
,
0000
0000
0000
0000
,
0000
0000
0000
0001
,
0100
0000
0000
0010
0000
0000
1000
0000
,
0001
0000
0000
1000
,
0100
0000
0010
0001
0010
0001
1000
0000
,
0020
0000
0000
0000
0000
0000
0130
0010
,
0000
1000
0100
0000
0010
0000
0001
0010
,
0001
0000
0001
1000
0000
0010
0100
0010
,
0100
0020
0000
0000
1000
0000
0100
0000
,
1030
0010
1000
0001
1000
0001
0010
0100
,
1000
0010
0100
0001
0002
1000
0000
0013
,
0001
0100
0010
1000
0001
0001
1000
0010
,
0100
0010
1000
1000
0001
0010
0100
1000
,
0010
0100
0010
1000
0001
0010
0001
0100
,
0010
1000
0001
1000
2000
0001
0000
3100
,
1000
0100
0010
0001
1000
1000
0001
0100
,
0010
0010
0100
0001
0010
0100
1000
0001
,
1000
0100
1000
0001
1000
0010
0100
0010
,
1000
0100
0010
0001
0100
0100
0001
0100
,
0010
0010
1000
0100
1000
0100
0010
0001
,
1000
0100
0010
0001
1000
0010
0100
0001
,
1000
1000
0100
0010
0002
0000
0103
0020
,
1000
1030
0100
0010
0001
1000
0001
0001
,
1000
0001
1000
0000
0001
0100
0001
0000
0100
0010
0100
0000
0010
1000
0010
0000
,
2000
0010
0001
3001
,
2002
0000
0000
3003
1100
0000
2001
0000
,
3001
0100
0001
0100
0010
0010
0000
0000
,
1002
0000
0000
0003
2010
0000
0000
3000
,
1020
0000
0100
0030
0210
0000
0001
0000
,
0301
0010
0001
0000
0011
0000
0011
0000
,
0001
0100
0010
0000
1010
0000
2010
0000
,
3001
0001
1000
1000
0010
0010
0100
0100
,
0001
0001
0010
0010
0100
0100
2000
0000
,
3002
0103
0120
2030
,
3001
1100
0110
0011
,
0001
0010
0001
0000
1000
0000
0010
0000
0100
0000
0010
0000
1000
0000
0000
0000
,
0100
0010
0100
0000
0010
0000
0001
0000
0100
0000
0010
0000
0100
0000
0000
0000
,
0010
0100
0010
0000
1000
0000
0100
0000
0010
0000
0001
0000
0010
0000
0000
0000
,
0001
0010
0001
0000
1000
0000
0010
0000
0100
0000
0001
0000
1000
0000
0000
0000
,
0001
1000
0001
0000
1000
0000
0100
0000
0010
0000
0001
0000
1000
0000
0000
0000
,
0010
0100
0010
0000
1000
0000
0100
0000
0010
0000
0001
0000
1000
0000
1000
0000
,
0002
0000
0000
0000
,
1000
0000
0000
0000
,
0203
0000
0000
0000
,
0320
0000
0000
0000
0000
0000
1030
0010
,
2000
0000
0000
3001
,
0012
0000
0010
0000
,
1003
0000
0001
0000
1000
0000
0001
0000
0100
0000
0001
0000
,
1000
0000
0100
0000
0010
0000
0001
0000
0100
0000
0010
0000
,
2000
0000
0001
0000
0100
0000
3001
1000
,
0001
0100
0010
1000
0010
0001
0010
1000
,
0002
0010
1000
0000
1003
0001
0010
0001
,
0100
0000
0010
1000
0000
1000
0010
0000
1000
0000
1000
0000
0100
0000
0010
0000
,
0001
0000
0010
0000
0001
0000
0100
0000
0010
0000
0001
0000
0010
1000
0000
0000
,
0001
0000
0100
0001
0000
0001
0100
0000
0010
0000
0010
0000
1000
0000
0010
0000
,
0200
0000
0010
0000
0301
0000
1000
0000
0100
0000
0010
0000
0001
1000
0001
0000
,
0100
0000
0010
0100
0000
0001
0100
0000
0002
0000
0100
0000
2003
0000
0000
0000
,
3001
0100
0001
1000
0020
0000
1030
0010
,
0100
0020
0000
1030
0010
0100
0001
0100
,
0001
1000
0001
1000
0100
0001
0100
1000
,
0010
0001
0010
1000
0001
0010
1000
0010
,
0001
0100
0010
1000
1000
0100
0010
0001
,
0001
1000
0002
0010
0013
0001
2000
0000
,
3001
0100
0001
0000
0100
0010
0100
0000
0010
1000
0010
0000
1000
0001
1000
0000
,
0002
0010
1000
1003
,
2001
0000
3100
1100
,
1000
0100
1000
0000
0001
1000
0001
0000
0200
0000
0000
0000
0301
0000
0000
0000
,
1001
1000
0001
0011
,
0001
0100
0010
0000
1000
0100
0010
0000
0002
0000
0000
0000
0010
0000
0000
0000
,
1003
0000
0101
0000
0010
1000
1010
0000
,
0001
0000
1001
0000
1000
0001
0101
0000
,
2100
3001
1002
0103
,
0201
0310
0120
1030
,
1000
1000
0001
0001
0010
0010
0100
0100
,
1000
1000
0010
0010
0100
0100
0002
0000
,
0203
0001
0010
0301
,
1001
0101
0110
1010
,
0010
1000
0010
0000
1000
0000
1000
0000
0001
0000
0010
0000
0011
0000
0000
0000
,
0010
0001
0010
0000
0001
0000
0001
0000
0100
0000
0010
0000
0110
0000
0000
0000
,
1000
0010
1000
0000
0010
0000
0010
0000
0100
0000
0001
0000
1001
0000
0000
0000
,
0001
0100
0001
0000
0100
0000
0100
0000
0010
0000
1000
0000
1010
0000
0000
0000
,
1000
0001
1000
0000
0001
0000
0001
0000
0010
0000
0100
0000
0110
0000
0000
0000
,
0010
0001
0010
0000
0001
0000
0001
0000
0100
0000
0010
0000
1000
0000
0010
0000
,
0000
0000
0000
0000
0000
0000
0000
0000
0000
0000
000M
0000
0M00
0000
0000
00M0
0000
0000
0000
M000
0000
0000
0000
0000
;
