#TITLE:Bitter & Lucky;
#SUBTITLE:;
#ARTIST:DE DE MOUSE;
#TITLETRANSLIT:;
#SUBTITLETRANSLIT:;
#ARTISTTRANSLIT:;
#GENRE:;
#CREDIT:Minxyz;
#MUSIC:Bitter & Lucky.ogg;
#BANNER:Bitter & Lucky BN.png;
#BACKGROUND:;
#CDTITLE:;
#SAMPLESTART:0.000;
#SAMPLELENGTH:0.000;
#SELECTABLE:YES;
#OFFSET:-0.112;
#BPMS:0.000=180.000
,101.000=90.000
,103.000=180.000
,199.000=135.000
,231.000=180.000
,259.000=90.000
,261.000=180.000
;
#STOPS:;
#BGCHANGES:;
#FGCHANGES:;

//--------------- dance-single - Minxyz ----------------
#NOTES:
     dance-single:
     Minxyz:
     Beginner:
     8:
     0,0,0,0,0:
0000
0000
0000
0000
,
0000
0000
0000
0000
,
0000
0000
0000
0000
,
0000
0000
0000
0000
,
0000
0000
0000
0000
,
0000
0000
0000
0000
,
0000
0000
0000
0000
,
0000
0000
0000
0000
,
0000
0000
0000
0000
,
0000
0000
0000
0000
,
0000
0000
1000
0000
0000
1000
0000
0000
,
1000
0000
0000
1000
0000
0000
0100
0000
,
0000
0100
0010
0000
0000
0010
0000
0000
,
0010
0000
0000
0010
0000
0000
0010
0000
,
0000
0001
0010
0001
,
1000
0010
1000
0010
,
0100
0000
0010
0000
0010
0000
0100
0010
,
0000
0001
0010
0100
0000
1000
0100
0010
,
0000
0000
1000
0000
0000
0010
0000
0000
,
0100
0000
0000
0010
0000
0000
1001
0000
,
0000
0001
0000
0010
,
0100
0010
0000
0001
,
0011
1001
1000
1000
,
0000
0101
0001
0001
,
0000
0000
1000
0010
1000
0000
0001
0100
,
0001
1001
0000
2000
,
0000
3001
0002
0000
,
0000
0003
0000
0110
,
0000
1001
0000
1001
,
0000
0011
0000
1000
,
1000
0100
0010
0001
,
0001
0010
0100
1000
,
0000
0000
0100
0000
0000
0000
1000
0010
,
1000
0000
0001
0010
0001
0000
1010
0000
,
0000
0100
0000
0002
,
0023
0230
0320
0031
,
0000
1000
0000
0110
,
0000
1001
0000
1000
,
0000
0100
0000
0010
,
0100
0010
0000
0010
,
0010
0000
0010
0000
0100
0000
1000
0100
,
1000
0000
0001
0100
0001
0000
0020
0000
,
0000
0000
0000
0000
0000
0000
0200
0030
,
0000
0000
0000
0320
,
0000
0000
0000
0000
0000
0030
0002
0000
,
0000
0000
0000
0003
1000
0100
0020
0000
,
0000
0030
0002
0000
,
0000
0000
2003
0000
3000
0001
1000
0000
,
0000
0010
0000
1000
0000
0000
0000
0000
0000
0100
0000
0000
,
0000
0010
0000
0001
0000
0000
0000
0000
0000
1001
0000
0000
,
0100
0000
0010
0001
0010
0000
0200
0000
,
0300
0010
0010
0010
0000
0000
0001
0000
,
0100
0000
0010
1000
0010
0000
0100
0000
,
0010
0000
1000
0100
0100
0000
0011
0000
,
1000
0000
0100
0010
0100
0000
0001
0000
,
0000
0100
1000
0010
0000
0000
1010
0000
,
0000
0000
0101
0000
0000
0000
1000
0100
,
0000
0010
0001
0000
0010
0000
0001
0000
,
0000
1000
0000
0100
,
0010
0100
0000
1000
,
0000
0000
0001
0100
0001
0000
0001
0100
,
0001
1000
0000
1000
,
0100
0001
0100
1000
,
0000
0010
0000
0001
,
0010
1000
0100
0001
,
0000
0200
0300
1000
,
0220
0000
0000
0330
0000
0000
1000
0000
,
0001
1010
0000
0001
,
0202
0000
0000
0303
,
0000
1001
0000
0110
,
0000
1100
0000
0011
,
0000
1000
1000
1000
,
0000
0010
0010
0010
,
0000
0000
1000
0010
1000
0000
0010
0000
,
0100
0000
0001
0010
0100
1000
0100
0010
,
0001
1000
0000
0100
,
0000
2000
3020
0230
,
0320
1030
0100
0010
,
0110
0000
0010
0000
0001
0000
0000
0100
,
0001
0101
0000
1010
,
0000
0101
0000
0110
,
0000
0000
1000
0010
1000
0001
0100
0000
,
0010
0000
1000
0100
0010
0001
0010
0100
,
1000
0100
0000
0000
0000
0000
0000
0000
;

//--------------- dance-single - Minxyz ----------------
#NOTES:
     dance-single:
     Minxyz:
     Easy:
     11:
     0,0,0,0,0:
0000
0000
0000
0000
,
0000
0000
0000
0000
,
0000
0000
0000
0000
,
0000
0000
0000
0000
,
0000
0000
0000
0000
,
0000
0000
0000
0000
,
0000
0000
0000
0000
,
0000
0000
0000
0000
,
0000
0000
0000
0000
,
0000
0000
0000
0000
,
0000
0000
1000
0010
0000
1000
0010
0000
,
1000
0010
0000
1000
0010
0000
0100
0000
,
0000
0000
0001
0010
0000
0001
0010
0000
,
0001
0010
0000
0001
0010
0000
0001
0000
,
0000
0000
0010
0100
0000
0010
0100
0000
,
0010
0100
0000
0010
0100
0000
0100
0000
,
1000
0000
1000
0000
1000
0000
0100
0010
,
0001
1000
0001
0010
0001
0010
0100
1000
,
0100
0000
0100
0010
0000
0001
1000
0000
,
0001
1000
0000
0001
1000
0000
1000
1000
,
0000
0000
0100
0010
0000
0100
0010
0000
,
0100
0010
0000
0001
0010
0000
0010
0010
,
0000
0000
0001
0100
0001
0000
0100
0010
,
0100
0000
0010
1000
0010
0000
1000
0100
,
1000
0000
1000
0001
0100
0001
0010
0001
,
0010
0001
0100
0000
0000
0000
2020
0000
,
3030
0000
0010
0000
0202
0000
0000
0303
,
0000
0110
0000
1001
,
0000
0110
0000
1001
,
0001
1000
0110
1001
,
0010
0010
0010
0100
,
0100
0000
0100
0000
0100
0000
1000
0100
,
1000
0000
0010
0100
0010
0000
0001
0010
,
0100
1000
0100
0001
0010
0000
0101
0000
,
0001
1000
0100
0020
,
0032
0000
0023
0000
2030
0000
3010
0001
,
0100
0000
0010
1000
0100
0000
0010
0001
,
1000
0100
0010
0000
0110
0000
0001
0000
,
0100
0000
0000
0010
0100
0000
0000
0000
0001
0000
0000
1000
0100
0000
0000
0000
,
0010
0000
0000
0001
0100
0000
0000
0000
0010
0000
0000
0000
1000
0000
0000
0000
,
0100
0000
0000
0001
0000
0000
0100
0000
0000
1000
0000
0010
,
1000
0000
0010
0100
0000
0001
0100
0000
0000
0010
0000
0000
,
1000
0100
0010
0101
,
0010
0100
0010
1000
,
0010
0100
0001
0110
,
0001
0010
0001
1000
,
0100
1000
0100
0101
,
0010
0000
0000
0100
0000
0000
1000
0000
0000
1000
0000
0100
,
0000
0010
0000
0001
0000
0100
0000
0010
0000
1000
0000
0100
,
0000
0010
0000
0001
0000
0010
0000
0100
0000
1000
0000
0000
,
0110
0000
0001
0010
1000
0000
0200
0000
,
0300
0010
0001
0011
1100
0000
0110
0000
,
0001
0000
0000
0000
1000
0000
0100
0000
0001
0000
0000
0000
0100
0000
0010
0100
,
0000
0000
0010
0000
0002
0000
1003
0000
0200
0000
0000
0300
0011
0000
0000
0000
,
1100
0000
0000
0010
0100
0000
0010
0000
1000
0000
0000
0000
0020
0000
0000
0000
,
0030
0010
0100
1000
0110
0000
0001
0000
,
1000
0000
0110
0010
0100
0000
0011
0011
,
0000
1100
1100
0000
0110
0000
1001
0000
,
0000
1000
0100
0000
0010
0001
0000
0100
,
0010
0000
1000
0001
0000
0010
0001
0100
,
0000
0010
1000
0100
0000
0010
0001
0100
,
0000
0010
1000
0100
1001
0000
0100
0000
,
0100
0100
0010
0010
,
0010
0000
1000
0000
1000
0000
1000
0100
,
1000
0100
0010
0001
0010
1000
0010
0000
,
0000
2002
3003
1000
,
0220
0000
0000
0330
0000
0001
0011
0000
,
0010
0000
0000
0000
0201
0000
0000
0000
0010
0300
0000
0000
0010
0000
1000
0000
,
0200
0000
0000
0000
0000
0000
0000
0000
0000
0000
0000
0000
0000
0300
0000
0000
,
0000
0001
1001
0100
,
0110
1000
1010
1000
,
1100
0010
0001
0010
,
0001
1000
0010
1000
,
0010
0000
0100
0010
0100
0010
0100
0000
,
0101
0000
0000
0010
0000
1000
0100
0000
0000
0100
0000
0010
,
0001
1000
0001
0100
,
0010
2000
3200
0320
,
0032
1003
0100
0010
,
0001
1000
0100
0000
0010
0000
0001
0000
,
1000
0000
0010
0010
0100
0000
0010
0000
,
1000
0000
0100
0100
0010
0000
0100
0000
,
0010
0000
0001
0010
0001
0000
1000
0100
,
1000
0000
0000
0010
0000
0010
0100
0000
0000
0001
0000
0001
,
1000
0000
0000
0000
;

//--------------- dance-single - Minxyz ----------------
#NOTES:
     dance-single:
     Minxyz:
     Medium:
     14:
     0,0,0,0,0:
0000
0000
0000
0000
,
0000
0000
0000
0000
,
0000
0000
0000
0000
,
0000
0000
0000
0000
,
0000
0000
0000
0000
,
0000
0000
0000
0000
,
0000
0000
0000
0000
,
0000
0000
0000
0000
,
0000
0000
0000
0000
,
0000
0000
0000
0000
,
0000
0000
1000
0010
0000
0100
0010
0000
,
0100
1000
0000
0100
0010
0000
0001
0010
,
0000
0010
0100
1000
0000
0100
0001
0000
,
0010
0100
0000
1000
0100
0000
0010
0001
,
0000
0010
0100
1000
0000
0100
0010
0000
,
0001
0010
0000
0100
1000
0000
0100
0010
,
0000
0001
0010
0001
0000
1000
0010
1000
,
0100
0010
0100
0000
0010
0000
0001
0000
1000
0010
1000
0000
0100
0000
0010
0000
,
0001
1000
0001
0000
0100
0000
0010
0000
0000
0000
0001
0000
0010
0000
0000
0000
,
0100
0010
0000
0001
0010
0000
0010
0100
,
0000
0000
0100
0000
0100
0000
0100
0000
0000
0000
0010
0000
1000
0100
1000
0000
,
0001
0000
0000
0000
0100
0010
0100
0000
0010
0000
0000
0000
1000
0001
1000
0001
,
1000
0010
0010
0001
,
0001
0010
0010
1000
,
1000
0000
0000
0000
0100
0010
0100
0000
1000
0010
1000
0000
0100
1000
0100
0010
,
0001
0010
0100
1000
0001
0000
0000
0000
0000
0000
0000
0000
2002
0000
0000
0000
,
3003
0000
0110
0000
2002
0000
0000
3003
,
0000
0000
1000
0000
0000
0000
0002
0000
0000
0003
0000
0000
0011
0000
0000
0000
,
0100
0000
1010
0000
0100
0001
0101
0010
,
0100
0010
1001
0000
0020
0030
1100
0000
,
0100
0110
0001
1001
,
0001
0000
0110
0000
0010
0000
1000
0100
,
1000
0100
0010
0001
0010
0100
0010
0001
,
0010
0100
1000
0100
0001
0100
1010
0000
,
0100
0101
0010
2000
,
3200
0000
0300
0000
0020
0000
0000
0030
0002
0000
0000
0000
1003
0000
0000
0000
,
0110
0000
0000
0000
0010
0000
0000
0000
0100
0000
0020
0000
0031
0000
0020
0030
,
1000
0010
0001
0100
0110
0000
0001
0000
,
1000
0000
0100
0000
0011
0000
0000
0000
0001
0000
0010
0000
1200
0000
0000
0300
,
0010
0000
0000
0001
0100
0000
0000
0000
0010
0000
0010
0000
0100
0000
0000
0000
,
0100
0000
0000
0010
0000
0000
0010
0000
0000
1000
0000
0001
,
1000
0000
0000
0000
1000
0000
0001
0000
0000
0000
0100
0000
0010
0000
0000
0000
0000
0000
0100
0000
0000
0010
0000
0000
,
1000
0100
0010
0001
0010
0000
0011
0010
,
0100
1000
0100
0010
0001
0000
0010
0100
,
0001
0100
0010
0001
0010
0000
0100
1000
,
0100
0010
0001
0000
0010
0000
2100
0000
,
0000
0000
3000
0110
,
0000
0000
0000
0001
0000
0000
0000
0000
0000
1000
0000
0010
,
0000
0010
0000
1000
0000
0010
0000
0010
0000
0100
0000
0010
,
0000
0000
0001
0000
0000
0000
0010
0000
0000
0000
0100
0000
0000
0000
0100
0000
0000
0000
0010
0000
0000
1000
0000
0000
,
0100
0000
0000
0010
0001
0000
0010
0000
0110
0000
1000
0000
0200
0000
0300
0000
,
0000
1100
0110
0012
0003
0000
0010
0001
,
0110
0000
0000
0100
0010
0000
0001
0000
0010
0000
0000
0000
0011
0000
1000
0100
,
0000
0000
0020
0000
0030
0000
0200
0000
0000
0000
0000
0300
0001
0000
0100
0000
,
1000
0000
0000
0010
0100
0000
0010
0000
0000
0000
1000
0000
0012
0000
0000
0000
,
0003
0000
0110
0000
1001
0000
0220
0000
0000
0000
0330
0000
1000
0100
1000
0000
,
0100
0000
0000
0010
0001
0000
0010
0000
0100
0010
0000
0000
1001
0000
0100
0000
,
0011
0000
0000
1000
0000
0000
1100
0000
0000
1001
0000
0000
0220
0000
0000
0330
0000
0000
1000
0000
0000
0000
0001
0000
,
0000
0000
1000
0000
0000
0000
0100
0000
0000
0010
0000
0000
0001
0000
0000
0010
0000
0000
0100
0000
0000
0010
0000
0000
,
0001
0010
0100
0000
1000
0000
0010
0100
,
0010
0000
0001
0000
0010
0100
0010
0000
1000
0000
0100
0000
0010
0001
0010
0000
,
0100
0000
0000
1000
0100
0000
0010
0000
0010
0000
0000
0000
0001
0000
0000
0000
,
1000
0001
1000
0010
,
0100
0000
0000
0000
0010
0000
0000
0000
0100
0000
0000
0000
0001
0010
0001
0000
,
1000
0010
1000
0000
0010
0100
0010
0000
1000
0100
0010
0001
0010
0000
0000
0000
,
0000
0000
0000
0000
0011
0000
0000
0000
1000
0000
0000
0000
0100
0010
0001
0000
,
0020
0000
0000
0000
0030
0001
2000
0000
,
3002
0000
0003
0000
0220
0000
0000
0330
1000
0000
0000
0000
0001
0100
0010
0000
,
0200
0000
0000
0000
0000
0000
0300
0000
0000
0000
0010
0001
0020
0000
0000
0000
,
0030
0000
0000
0000
2020
0000
0000
3030
0100
0000
0000
0000
0101
0000
0100
0000
,
0101
0000
0010
0000
0100
0000
1010
0100
,
0110
0001
0010
0100
,
0100
0010
0001
1000
,
1000
0000
1000
0100
1000
0100
1000
0100
,
1000
0000
0000
0100
0000
0000
0010
0000
0001
0000
1000
0000
0010
0000
0000
0000
0000
0000
0100
0000
0001
0000
0100
0000
,
1000
0000
0210
0300
0010
0000
0101
0000
,
0010
2000
3200
0320
,
0032
0000
1003
0100
1000
0000
0110
0000
,
0010
0000
0000
0000
0100
0000
0020
0000
0031
0000
0020
0030
1000
0000
0010
0000
,
0001
1000
0100
0000
0001
0000
1000
0100
,
0011
0000
0000
0000
0001
0000
0010
0000
0210
0000
0000
0300
0100
0000
0000
0000
,
1000
0000
1000
0100
0010
0100
1000
0100
,
0100
0000
0000
0010
0000
0000
0100
0000
1000
0000
0010
0000
1000
0000
0100
0000
0010
0000
0100
0000
0010
0000
0001
0000
,
0100
0000
0000
0000
;

//--------------- dance-single - Minxyz ----------------
#NOTES:
     dance-single:
     Minxyz:
     Hard:
     16:
     0,0,0,0,0:
0000
0000
0000
0000
,
0000
0000
0000
0000
,
0000
0000
0000
0000
,
0000
0000
0000
0000
,
0000
0000
0000
0000
,
0000
0000
0000
0000
,
0000
0000
0000
0000
,
0000
0000
0000
0000
,
0000
0000
0000
0000
,
0000
0000
0000
0000
,
0000
0000
1000
0010
0000
0100
0001
0000
,
0001
0010
0000
0100
1000
0000
0100
0010
,
0000
0010
0001
0010
0000
0100
1000
0000
,
1000
0000
0100
0000
0000
0000
0010
0000
0001
0000
0000
0000
0010
0001
0010
0001
,
0010
0100
0010
0100
0010
0000
0100
0000
0000
0000
1000
0000
0100
0000
0000
0000
,
0010
0001
0000
0100
0001
0000
0010
0100
,
0000
0000
1000
0000
0001
0000
0100
0000
0000
0000
0010
0000
1000
0100
0010
0000
,
0001
0000
1000
0000
0001
0010
0100
0000
1000
0000
0001
0000
0010
0001
0010
0100
,
1000
0000
0010
1000
0000
0001
0100
0000
,
1000
0100
0000
0001
0010
0000
0100
1000
,
0000
0000
0010
0000
0100
0000
0010
0000
0000
0000
1000
0000
0100
0001
0100
0000
,
0001
0000
0100
0000
1000
0010
1000
0000
0010
0000
0001
0000
0010
0100
0010
0000
,
0100
0001
0001
0010
,
0010
0100
0100
1000
,
1000
0000
0000
0000
1000
0001
1000
0001
1000
0010
1000
0010
1000
0010
0100
0001
,
1000
0100
0010
0001
1000
0000
0000
0000
0000
0000
0000
0000
2002
0003
0000
0000
,
3010
0000
0110
0001
0202
0000
0000
0303
,
0000
0000
1000
0000
0000
0000
0020
0000
0000
0000
0000
0030
1002
0000
0000
0000
,
0103
0000
0000
0000
0220
0000
0000
0330
0000
0000
1000
0000
1010
0000
0100
0000
,
0010
1000
0101
0010
0100
0000
0011
0000
,
0010
1010
1000
1100
,
0100
0000
0101
0000
0010
0000
0001
0010
,
0001
0000
0000
0010
0000
0000
0001
0000
0000
1000
0000
0000
0001
0000
0000
1000
0000
0000
0001
0000
0010
0000
0100
0000
,
1000
0010
0100
0001
0010
0100
0110
0000
0000
0110
0000
0000
,
0010
0000
0000
0000
0001
0010
0100
1000
0100
0000
0000
0000
0002
0000
0000
0000
,
0203
0000
0000
0000
2300
0000
0000
0000
3020
0000
0000
0030
1000
0100
1000
0100
,
1000
0010
1000
0010
1000
0100
1000
0100
0010
0000
0001
0000
0010
0000
0000
0010
,
0100
0000
0100
1000
0100
0000
0010
0000
,
0001
0000
0000
0000
0000
0000
0000
1000
0001
0000
0000
0000
0000
0000
0000
0000
0010
0000
0000
0000
0000
0000
0000
0100
1000
0000
0000
0000
0000
0000
0000
0000
,
0010
0000
0000
0000
0000
0000
0000
0100
0010
0000
0000
0000
0000
0000
0000
0000
1000
0000
0000
0000
0010
0000
0000
0000
0100
0000
0000
0000
0000
0000
0000
0000
,
1000
0000
0000
1000
0000
0000
0100
0000
0000
0010
1000
1000
,
0010
0000
0100
0000
0100
0000
0001
0000
0010
0000
0010
0000
0001
0000
0010
0000
0100
0000
1000
0000
0000
0100
0000
0000
,
0010
0001
0010
0100
0010
0001
0101
0001
,
1000
0100
0010
0001
0010
0100
1000
0100
,
0010
0100
1000
0010
1000
0010
0110
0001
,
0100
0010
0001
0010
0001
0010
1000
0100
,
0010
0001
0010
0100
0010
0001
0101
0010
,
1000
0000
0000
0100
0000
0000
0010
0000
0000
0001
0000
0000
1000
0000
0000
0010
0000
0000
1000
0000
0000
0000
0010
0000
,
0000
1010
0000
0100
0000
0001
0000
0101
0000
0010
0000
0100
,
0000
1010
0000
0100
0000
0001
0000
0002
0000
1003
0000
0000
,
0100
0000
0000
0010
0001
0100
0010
0000
0001
0000
0020
0030
2000
0000
0200
0300
,
3000
0000
0020
0000
0032
0000
2000
3003
0200
0300
0020
0000
0031
0000
1001
0000
,
0110
0000
0000
0010
1000
0000
0001
0000
0101
0000
0010
0000
1000
0000
0100
2000
,
3000
0000
0200
0300
0011
0000
0001
1000
0002
0000
0000
0003
1010
0000
0100
0000
,
0101
0000
0000
0010
1000
0000
0100
0000
0010
0100
0000
0010
0001
0000
0002
0000
,
0200
0003
0310
0000
1000
0000
0010
0000
1001
0000
0000
0000
1000
0001
1000
0001
,
0100
0010
0100
0010
1000
0100
1000
0100
0010
0001
0010
0001
0010
0000
0101
0000
,
0000
0000
0000
1010
0000
0000
0110
0000
0000
0000
0000
0000
1001
0000
0000
0011
0000
0000
1000
0000
0000
0000
0010
0000
,
0000
0000
0010
0000
0000
0000
1000
0000
0000
0100
0000
0000
0010
0000
0000
0001
0000
0000
0010
0000
0000
0100
0000
0000
,
0010
0001
1000
0100
0001
0100
1000
0010
,
0100
0000
0010
0000
0010
1000
0010
1000
0010
0000
0000
0000
0100
0010
0100
0010
,
0100
0000
0000
0001
0010
0100
0010
0001
0010
0000
0000
0000
0010
0000
0000
0000
,
0010
0001
0001
0100
,
0100
0000
0000
0000
0010
0000
0000
0000
0010
0000
0000
0000
1000
0010
1000
0010
,
0100
0001
0100
0001
0010
0100
0010
0100
0010
0100
1000
0010
0100
0000
0000
0000
,
0000
0000
0000
0000
1002
0000
0000
0003
0010
0000
0000
0000
0001
0010
0100
0000
,
0002
0000
0000
0000
0000
0000
0000
0003
0000
0000
0000
0000
0100
1000
0000
0000
,
0010
0000
0000
0000
0120
0000
0000
0030
1000
0000
0000
0000
0100
0001
0100
0000
,
0022
0000
0000
0000
0033
0000
0000
0000
0000
0000
1000
0100
0010
0002
0000
0003
,
0000
0000
2020
3030
0101
0000
1000
1010
,
0100
0000
0020
0030
1001
0000
0001
0000
0010
0000
0001
0000
0100
0000
0101
0000
,
0010
1000
1000
0100
,
0100
0010
0010
0100
,
0100
0000
0010
1000
0010
0001
0100
0010
,
0100
0000
0000
0010
0000
0000
0001
0000
0010
0000
1000
0000
0001
0000
0100
0000
1000
0000
0001
0000
0010
0000
0100
0000
,
0020
0000
0030
1100
0000
0000
0100
0000
0000
0110
0000
0000
,
0001
0000
0000
2000
0000
0000
3020
0000
0030
0002
0000
0000
,
0023
0000
0000
0000
0000
0000
0000
0000
0030
0000
0000
0000
1000
0000
0000
0100
0000
0000
1000
0000
0000
0100
0000
0000
1000
0000
0000
0100
0000
0000
0010
0000
0000
0100
0000
0000
0010
0000
0000
0001
0000
0000
0010
0000
0000
0001
0000
0000
,
0010
0000
0110
0000
1010
0000
0100
0100
,
0101
0000
0110
0000
1001
0000
0000
0100
,
0010
0000
1001
0000
0100
0000
0000
0010
,
1010
0100
0001
0010
,
0100
0000
0000
1000
0010
0001
1000
0100
0001
1000
0100
0001
,
1000
0010
0001
0000
0000
0000
0000
0000
0000
0000
0000
0000
;

//--------------- dance-double - Minxyz ----------------
#NOTES:
     dance-double:
     Minxyz:
     Easy:
     11:
     0,0,0,0,0:
00000000
00000000
00000000
00000000
,
00000000
00000000
00000000
00000000
,
00000000
00000000
00000000
00000000
,
00000000
00000000
00000000
00000000
,
00000000
00000000
00000000
00000000
,
00000000
00000000
00000000
00000000
,
00000000
00000000
00000000
00000000
,
00000000
00000000
00000000
00000000
,
00000000
00000000
00000000
00000000
,
00000000
00000000
00000000
00000000
,
00000000
00000000
10000000
00100000
00000000
10000000
00100000
00000000
,
01000000
00010000
00000000
01000000
00010000
00000000
01000000
00000000
,
00000000
00000000
00001000
00010000
00000000
00001000
00010000
00000000
,
00001000
00010000
00000000
00001000
00010000
00000000
00010000
00010000
,
00001000
00000000
00000010
00000001
00000000
00000010
00000001
00000000
,
00000010
00000001
00000000
00000010
00000001
00000000
00000100
00000100
,
00000000
00000010
00001000
00000010
00001000
00000010
00010000
00010000
,
00010000
00000000
00001000
00001000
00001000
00000000
00100000
00010000
,
00100000
00000000
00001000
00010000
00000000
00100000
01000000
00000000
,
00010000
10000000
00000000
01000000
00100000
00000000
01000000
01000000
,
00000000
00100000
00010000
00100000
00010000
00100000
01000000
01000000
,
00000000
00000000
00010000
00010000
00000000
00000000
00001000
00001000
,
00000000
00000100
00000100
00000010
,
00000010
00001000
00001000
00000100
,
00000100
00000000
00000000
00000010
00000000
00000001
00000100
00000000
00000000
00000010
00000000
00010000
,
00001000
00011000
00000000
00022000
,
00000000
00033000
00000000
00101000
00000000
00000000
00022000
00000000
00000000
00000000
00000000
00000000
,
00033000
00010000
00000000
00002000
00000000
00003000
00022000
00000000
,
00033000
00000000
00020020
00000000
00000000
00030030
00020200
00000000
,
00000000
00030300
00202000
00000000
00000000
00303000
00011000
00000000
,
00001000
01001000
00010000
00110000
,
01000000
00000000
10100000
00000000
00010000
00000000
10000000
00010000
,
10000000
00000000
00000000
00000000
00000000
00000000
01000000
00000000
00000000
00100000
00000000
00000000
01000000
00000000
00000000
00000000
00000000
00000000
00100000
00000000
00000000
00000000
00001000
00000000
,
00010000
00000000
00000000
00001000
00000000
00010000
00000100
00000000
00000000
00001100
00000000
00000000
,
00000100
00000000
00000100
00000010
00000001
00001000
00000020
00000000
,
00002030
00000000
00003200
00000000
00020300
00000000
00031000
00010000
,
00001000
00100000
00001000
00010000
00001000
00000000
00010000
00001000
,
00010000
00000010
00001000
00000100
00010000
00000000
00001000
00000000
,
00000000
00000000
00000000
00100000
00010000
00000000
00000000
00000000
00000000
00000000
00000000
01000000
00100000
00000000
00000000
00000000
,
00000000
00000000
00000000
10000000
01000000
00000000
00000000
00000000
00000000
00000000
00000000
00000000
00100000
00000000
00000000
00000000
,
00100000
00000000
00000000
00001000
00000000
00000000
00001000
00000000
00000000
00010000
00000000
00001000
,
00010000
00000000
00000000
00010000
00000000
00001000
00010000
00001000
00010000
00002000
00000000
00000000
,
00000000
00000000
00000000
00023000
,
00000000
00000000
00000000
02030000
,
00000000
00000000
00000000
03200000
,
00000000
00000000
00000000
00000000
00000000
00000000
00000000
00000000
00000000
00000000
00300000
00000000
00001000
00000000
00000000
00010000
00000000
00000000
00000020
00000000
00000000
00000000
00000000
00000000
,
00000000
00000000
00002030
00000100
,
00000000
00000000
00000000
00000000
00000000
00000000
00003020
00000000
00000000
00000000
00000000
00000000
00000000
00000000
00000000
00000130
00000000
00000000
00000001
00000000
00000000
00000000
00000010
00000000
,
00000000
00000001
00000000
00000100
00000000
00000010
00000000
00010000
00000000
00001000
00000000
00010000
,
00000000
00001000
00000000
00100000
00000000
00001000
00000000
00010000
00000000
00001000
00000000
00000000
,
00011000
00000000
00100000
00100000
00101000
00000000
00002000
00000000
,
00013000
00000200
00002300
00003020
00000130
00000000
00000010
00010000
,
00011000
00000000
00000000
00000000
00001000
00000000
00001000
00000000
00101000
00000000
00000000
00000000
00010000
00000000
01000000
00100000
,
00000000
10000000
00000000
02200000
00000000
03300000
10000000
00000000
,
01010000
00000000
00000000
00001000
00010000
00000000
00000100
00000000
00001000
00000000
00000000
00000000
00000020
00000000
00000000
00000000
,
00000000
00000030
00001000
00000000
00000100
00000000
00000010
00000000
00000002
00000000
00000000
00000000
00001003
00000000
00000010
00000000
,
00001100
00000000
00010000
00002000
00013000
00000000
00011000
00011000
,
00000000
00000000
00000000
00011000
00000000
00000000
00011000
00000000
00000000
00000000
00000000
00000000
00022000
00000000
00000000
00000000
00033000
00000000
00001000
00000000
00000000
00100000
00000000
00000000
,
00000000
00010000
01000000
00000000
00001000
00010000
00000000
00001000
,
00001000
00000000
00100000
00100000
00000000
00010000
01000000
00100000
,
10000000
00000000
01000000
00100000
00010000
00000000
01000000
00010000
,
00001000
00000000
00010000
00000100
00001000
00000000
00010000
00000000
,
00010000
00001000
00001000
00100000
,
00100000
00000000
00010000
00000000
00010000
00000000
00100000
00010000
,
00100000
00100000
00001000
00100000
00001000
00001000
00010000
00000000
,
00000000
00000000
00200020
00000000
00000000
00300030
00011000
00000000
,
02000200
00000000
03000300
00010000
,
00001000
00220000
00330000
00011000
,
00002020
00000000
00000000
00003030
00000000
00010000
00000000
00002000
,
00000000
00000000
00013000
00000000
00011000
00000000
00000000
00100000
,
00010000
00100000
00110000
00000000
01000000
00010000
00100000
00000000
,
00001000
00010000
00000100
00010000
,
01000000
00001000
00000100
00000001
,
00000100
00000000
00001000
00000000
00000010
00000000
00001000
00000100
,
00001000
00000000
00000000
00001000
00000000
00001000
00000100
00000000
00000100
00000010
00000000
00000010
,
00000001
00000011
00001000
00010100
,
00001000
00200000
00302000
00023000
,
00030200
00000000
00000310
00000000
00001100
00000000
00000000
00000010
,
00010000
00000000
00001000
00000000
00110000
00000000
00000000
00100000
,
01000000
10000000
10000000
01000000
,
01000000
00100000
00100000
00010000
,
00010000
00000000
01000000
00001000
01000000
00000000
00001000
00010000
,
00000100
00000000
00000000
00010000
00000000
00010000
00001000
00000000
00001000
00100000
00000000
00100000
,
00001000
00000000
00000000
00000000
;

//--------------- dance-double - Minxyz ----------------
#NOTES:
     dance-double:
     Minxyz:
     Medium:
     14:
     0,0,0,0,0:
00000000
00000000
00000000
00000000
,
00000000
00000000
00000000
00000000
,
00000000
00000000
00000000
00000000
,
00000000
00000000
00000000
00000000
,
00000000
00000000
00000000
00000000
,
00000000
00000000
00000000
00000000
,
00000000
00000000
00000000
00000000
,
00000000
00000000
00000000
00000000
,
00000000
00000000
00000000
00000000
,
00000000
00000000
00000000
00000000
,
00000000
00000000
10000000
00100000
00000000
10000000
00100000
00000000
,
01000000
00010000
00000000
01000000
00010000
00000000
01000000
01000000
,
00000000
00001000
00001000
00010000
00000000
00010000
00001000
00000000
,
00010000
00000000
00001000
00000000
00000000
00000000
01000000
00000000
00010000
00000000
00000000
00000000
10000000
01000000
10000000
00000000
,
00100000
01000000
00100000
00000000
10000000
00000000
01000000
00000000
00000000
00000000
00100000
00000000
00010000
00000000
00000000
00000000
,
01000000
00100000
00000000
00010000
00001000
00000000
00010000
00010000
,
00000000
00010000
00001000
00001000
00100000
00010000
01000000
00100000
,
00010000
00001000
00010000
00001000
00100000
00010000
01000000
00100000
,
10000000
10000000
01000000
00100000
00000000
00001000
00000010
00000000
,
00001000
00010000
00000000
00001000
00010000
00000000
00000100
00000100
,
00000000
00000000
00000010
00000000
00000001
00000000
00000010
00000000
00000000
00000000
00000001
00000000
00001000
00000010
00001000
00000000
,
00000100
00000000
00000010
00000000
00000001
00000010
00000001
00000000
00001000
00000000
00000100
00000000
00010000
00001000
00010000
00000000
,
00001000
00010000
00010000
00100000
,
00100000
01000000
01000000
00010000
,
00010000
00000000
00010000
00100000
00010000
00100000
10000000
00010000
,
01000000
00000000
00100000
01000000
00100000
00000000
00000000
00000000
00000000
00000000
00000000
00000000
02200000
00000000
03300000
00000000
,
00010000
00000000
10000000
00100000
20200000
00000000
00000000
00000000
,
30300000
00000000
00100000
00000000
00000000
00000000
00022000
00000000
00000000
00033000
00000000
00000000
00022000
00000000
00000000
00000000
,
00000000
00033000
00000000
00000000
00001100
00000000
00000000
00000000
00000010
00000000
00000001
00000000
00001100
00000000
00000000
00000010
,
00001000
00000100
00000110
00000010
00000010
00000000
00000110
00000000
,
00000100
00010100
00001000
01001000
,
00100000
00000000
11000000
00000000
01000000
00000000
00100000
00010000
,
00100000
00000000
00000000
00010000
00000000
00000000
10000000
00000000
00000000
01000000
00000000
00000000
00100000
00000000
00000000
00010000
00000000
00000000
00001000
00000000
00000100
00000000
00001000
00000000
,
00010000
01000000
00010000
00001000
00010000
00001000
00010000
00000000
00000000
00001000
00000000
00000000
,
00001000
00000000
00001000
00010000
00001000
00001000
00020000
00000000
,
02030000
00000000
03200000
00000000
20300000
00000000
30100000
00010000
,
01000000
00000000
00000000
00000000
00010000
00000000
00100000
00000000
00001000
00000000
00000000
00010000
00001000
00000000
00000000
00000000
,
01000000
00000000
00000000
00001000
00010000
00000000
00000000
00000000
00001000
00000000
00000000
00000000
00000100
00000000
00000000
00000000
,
00000000
00000000
00000000
00000010
00001000
00000000
00000000
00000000
00001000
00000000
00000000
00000001
00000010
00000000
00000000
00000000
,
00000100
00000000
00000000
00000100
00001000
00000000
00000000
00000000
00010000
00000000
00000000
00000000
00110000
00000000
00000000
00000000
,
10000000
00000000
00000000
00100000
00000000
00000000
01000000
00000000
00000000
00010000
00100000
00010000
,
00100000
00010000
00100000
00010000
10000000
00100000
10000000
00100000
10000000
02000000
00000000
00000000
,
00000000
00000000
00000000
03020000
,
00000000
00000000
00030000
00002000
,
00000000
00000000
00000000
00003200
,
00000000
00000000
00000000
00000000
00000301
00000010
00000200
00000000
,
00000000
00000000
00000000
00000000
00020300
00030000
00110000
00000000
,
00000000
00000000
00000000
00000000
00000000
00000000
00020000
00000000
00000000
00000000
00000000
00000000
00000000
00000000
00000000
01030000
00000000
00000000
00100000
00000000
00000000
00000000
10000000
00000000
,
00000000
00100000
00000000
01000000
00000000
00010000
00000000
01000000
00000000
00001000
00000000
00010000
,
00000000
00000010
00000000
00001000
00000000
00000010
00000000
00001000
00000000
00000100
00000000
00000000
,
00001100
00000000
00000000
00000000
00010000
00000100
00010000
00000000
00000100
00000000
00000000
00000000
00022000
00000000
00000000
00000000
,
00033000
00000000
00001000
00000000
00101000
00000000
00011000
00000000
00010000
00001000
00000000
00000000
00100000
00000000
00010000
00000000
,
01010000
00000000
00000000
00100000
00010000
00000000
01000000
00000000
00010000
00000000
00000000
00000000
00100000
00000000
00001000
00010000
,
00000000
00022000
00033000
00200020
00000000
00300030
00010000
00001000
,
00000100
00000000
00000000
00000010
00000100
00000000
00000010
00000000
00001000
00000000
00000000
00000000
00022000
00000000
00000000
00033000
,
00000000
00000000
00010000
00000000
00010000
00000000
00020000
00000000
00031000
00000000
00000000
00000000
00010000
00001000
00010000
00000000
,
00001000
00000000
00000000
00100000
00010000
01000000
00010000
00000000
00100000
00000000
00000000
00000000
01100000
00000000
00100000
00000000
,
00000000
00000000
00000000
00001000
00000000
00000000
00011000
00000000
00000000
00000000
00000000
00000000
00022000
00000000
00000000
00033000
00000000
00000000
00010000
00000000
00000000
00000000
00001000
00000000
,
00000000
00000000
00010000
00000000
00000000
00000000
00001000
00000000
00000000
00100000
00000000
00000000
00001000
00000000
00000000
00010000
00000000
00000000
00001000
00000000
00000000
00010000
00000000
00000000
,
00000010
00001000
00000100
00000010
00000100
00001000
00000100
00000001
,
00000100
00000000
00001000
00000000
00000010
00001000
00000010
00000000
00001000
00000000
00000000
00000000
00000100
00001000
00000100
00000000
,
00010000
00000000
00000000
01000000
00010000
00000000
00001000
00000000
00010000
00000000
00000000
00000000
00011000
00000000
00000000
00000000
,
00011000
00110000
00110000
00011000
,
00011000
00000000
00001010
00000000
00001010
00000000
00001000
00000100
,
00001000
00000000
00000100
00000000
00010000
00000000
00001000
00000000
00010000
00001000
00010000
00001000
00010000
00000000
00000000
00000000
,
00000000
00000000
00000000
00000000
00011000
00000000
00000000
00000000
00100000
00000000
00000000
00000000
00001000
00100000
00001000
00000000
,
00020000
00030000
00000000
00001000
,
00001100
00000000
00000000
00000000
00001100
00000000
00000000
00000000
00020000
00000000
00030000
00000000
00001000
00000010
00001000
00000000
,
00020000
00000000
00030000
00000000
00000000
00001000
00020000
00000000
,
00000000
00030000
00011000
00000000
00100000
00000000
00001000
00010000
,
00101000
00000000
00010000
00000000
00010010
00000000
00010000
00001000
,
00101000
00001000
00001000
00010000
,
00010000
00100000
00100000
10000000
,
10000000
00000000
10000000
01000000
10000000
01000000
10000000
01000000
,
10000000
00000000
00000000
01000000
00000000
00000000
00100000
00000000
00010000
00000000
00000010
00000000
00000001
00000000
00000100
00000000
00000001
00000000
00001000
00000000
00000100
00000000
00000010
00000000
,
00000001
00000010
00000010
00000011
,
00000010
00002000
02003000
03002000
,
00003200
00000000
00000000
00000000
00001300
00000000
00010000
00000000
00100000
10000000
00100000
00000000
10000000
00000000
01000000
00000000
,
00100000
00000000
00010000
00000000
00001000
00000000
00000100
00000000
00000010
00000001
00000010
00000000
00000001
00000000
00000100
00000000
,
00000010
00001000
00000010
00001000
00010000
00000000
00100000
00010000
,
00001000
00000000
00000100
00001000
00010000
00000000
00100000
00001000
,
00010000
00001000
00011000
00001000
,
00011000
00000000
00000000
00010000
00001000
00000100
00000001
00000000
00000000
00000010
00000001
00000100
,
00000010
00001000
00000100
00000000
00000000
00000000
00000000
00000000
00000000
00000000
00000000
00000000
;

//--------------- dance-double - Minxyz ----------------
#NOTES:
     dance-double:
     Minxyz:
     Hard:
     16:
     0,0,0,0,0:
00000000
00000000
00000000
00000000
,
00000000
00000000
00000000
00000000
,
00000000
00000000
00000000
00000000
,
00000000
00000000
00000000
00000000
,
00000000
00000000
00000000
00000000
,
00000000
00000000
00000000
00000000
,
00000000
00000000
00000000
00000000
,
00000000
00000000
00000000
00000000
,
00000000
00000000
00000000
00000000
,
00000000
00000000
00000000
00000000
,
00000000
00000000
10000000
00100000
00000000
01000000
00010000
00000000
,
00010000
01000000
00000000
00100000
01000000
00000000
00010000
00100000
,
00000000
00001000
00010000
00000100
00000000
00000010
00000001
00000000
,
00000100
00000000
00000010
00000000
00000000
00000000
00001000
00000000
00000100
00000000
00000000
00000000
00010000
00001000
00010000
00001000
,
00010000
00100000
00010000
00100000
00010000
00000000
00001000
00000000
00000000
00000000
01000000
00000000
00010000
00000000
00000000
00000000
,
10000000
01000000
00000000
00100000
10000000
00000000
00100000
00001000
,
00000000
00000000
00000100
00000000
00000001
00000000
00000010
00000000
00000001
00000000
00000010
00000000
00000100
00010000
00001000
00000000
,
01000000
00000000
00010000
00000000
00100000
01000000
10000000
00000000
00100000
00000000
01000000
00000000
00010000
01000000
00001000
00000000
,
00020000
00000000
00000000
00030000
00001000
00000000
01000000
00000000
00000000
00000000
00001000
00000000
00010000
00000000
00000000
00000000
,
00000100
00010000
00000000
00000010
00001000
00000000
00000100
00000100
,
00000000
00000000
00010000
00000000
00011000
00000000
00001000
00000000
00100000
00000000
00010000
00000000
10000000
01000000
10000000
00000000
,
00100000
01000000
00100000
00000000
01000000
00010000
01000000
00000000
00001000
00010000
00001000
00000000
00010000
00000000
00000100
00000000
,
00000010
00000001
00000001
00000100
,
00000100
00001000
00001000
00010000
,
00010000
00000000
00000000
00000000
00100000
10000000
00100000
00000000
00010000
01000000
00010000
00000000
00100000
00001000
00100000
00001000
,
00010000
00001000
00010000
00001000
00010000
00000000
00000000
00000000
00000000
00000000
00000000
00000000
00021000
00000000
00000000
00000000
,
01030000
00000000
10000000
00100000
02020000
00000000
00000000
03030000
,
00000000
00001000
00200000
00000000
00000000
00300000
00021000
00000000
,
00030100
00000000
00001020
00000000
00000130
00000001
00000021
00000000
,
00000030
00002200
00003300
00011000
,
00001000
00101000
00010000
01010000
,
00100000
00000000
11000000
00000000
01000000
00000000
01000000
00100000
,
01000000
00000000
00000000
00100000
00000000
00000000
00010000
00000000
00000000
01000000
00000000
00000000
00010000
00000000
00000000
00100000
00000000
00000000
00001000
00000000
00100000
00000000
00010000
00000000
,
01000000
00010000
00100000
00001000
00010000
00000100
00001000
00000000
00000000
00001100
00000000
00000000
,
00000100
00000110
00000010
00000002
,
00002003
00000000
00000000
00000000
00023000
00000000
00000000
00000000
20030000
00000000
00000000
30000000
00100000
01000000
00100000
01000000
,
00100000
10000000
00100000
10000000
00100000
00000000
00000000
00000000
00010000
00000000
00000000
00001000
00010000
00000000
00000000
00000000
,
00001000
00000000
00000000
01000000
00001000
00000000
00000000
00000000
00011000
00000000
00000000
00000000
00010000
00000000
00000100
00000000
,
00001000
00000000
00000000
00000100
00000010
00000000
00000001
00000000
00000010
00000000
00000000
00000001
00000010
00000000
00001000
00000000
,
00010000
00000000
00000000
00001000
00010000
00000000
01000000
00000000
10000000
00000000
00000000
00000000
00100000
00000000
00000000
00000000
,
01100000
00000000
00000000
01010000
00000000
00000000
00110000
00000000
00000000
00001000
00010000
00001000
,
00010000
00001000
00100000
00001000
00010000
00001000
00010000
00000010
00010000
00002000
00000000
00000000
,
00020000
00000000
00000000
00003000
00000000
00000000
02000000
00030000
,
20000000
00000000
00000000
03000000
00000000
30000000
00200000
00000000
,
00020000
00000000
00000000
00000000
00300000
00030000
00002000
00000000
,
00000200
00000000
00003000
00000000
00000301
00000010
00000100
00010000
,
00001000
00010000
00001000
00100000
00010000
01000000
01100000
00100000
,
10000000
00000000
00000000
01000000
00000000
00000000
00100000
00000000
00000000
00010000
00000000
00000000
00001000
00000000
00000000
00010000
00000000
00000000
00100000
00000000
00000000
00000000
00010000
00000000
,
00000000
11000000
00000000
00100000
00000000
01000000
00000000
01010000
00000000
10000000
00000000
01000000
,
00000000
00000000
00110000
00000000
00000000
00000000
00001000
00000000
00000000
00000000
00010000
00000000
00000000
00000000
00011000
00000000
00000000
00000000
00010000
00000000
00000000
00001000
00000000
00000000
,
00011000
00000000
00000000
01000000
00100000
01000000
10000000
00000000
01000000
00000000
00110000
00000000
02000000
00000000
00000000
00000000
,
03000000
00110000
00011000
00010100
00001100
00000000
00000100
00001000
,
00000010
00000000
00000000
00000100
00000010
00000000
00001000
00000000
00000100
00000000
00000000
00000000
00000010
00000000
00000001
00000010
,
00000000
00000000
00000002
00000000
00000000
00000003
00000220
00000000
00000000
00000000
00000330
00000000
00001000
00000000
00001000
00000000
,
00011000
00000000
00000000
00000100
00001000
00000000
00000010
00000000
00001000
00000000
00000200
00000000
00020300
00000000
00000000
00030000
,
00000000
00000000
00011000
00000000
00110000
00000000
00011000
00000000
01010000
00000000
00000000
00000000
10000000
00100000
01000000
00100000
,
10000000
00000000
01000000
00100000
00010000
00100000
00001000
00010000
01000000
00000000
00000000
00000000
10100000
00000000
01000000
00000000
,
01100000
00000000
00000000
01010000
00000000
00000000
02200000
00000000
00000000
03300000
00000000
00000000
00110000
00000000
00000000
00000000
00000000
00000000
00010000
00000000
00000000
00000000
00100000
00000000
,
00000000
00000000
00100000
00000000
00000000
00000000
01000000
00000000
00000000
00100000
00000000
00000000
00010000
00000000
00000000
01000000
00000000
00000000
00010000
00000000
00000000
10000000
00000000
00000000
,
01000000
00100000
00001000
00010000
00001000
00010000
00001100
00000100
,
00000010
00000000
00000001
00000000
00000001
00000010
00000001
00000000
00000010
00000100
00001000
00000000
00000100
00001000
00000100
00000000
,
00001000
00000010
00010000
00000000
00001000
00010000
01000000
10000000
01000000
00100000
00010000
00001000
00000010
00000000
00000000
00000000
,
00000001
00000100
00000010
00010000
,
00011000
00000000
00000000
00000000
00100000
00000000
00000000
00000000
01010000
00000000
00000000
00000000
00100000
10000000
00100000
10000000
,
00010000
01000000
00010000
01000000
00001000
00010000
00001000
00010000
00001000
00010000
00001000
00010000
00001000
00000000
00000000
00000000
,
00000000
00000000
00000000
00000000
00220000
00000000
00330000
00000000
00011000
00000000
00000000
00000000
00000100
00010000
00001000
00000000
,
00022000
00000000
00000000
00033000
00000000
00000000
00000000
00000000
00000000
00000000
01000000
00010000
00200000
00000000
00300000
00000000
,
01100000
00000000
00000000
00000000
20020000
00000000
00000000
30030000
01000000
00000000
00000000
00000000
00010000
00100000
00001000
00000000
,
00022000
00000000
00000000
00000000
00000000
00033000
00000000
00000000
00000000
00000000
00010000
00001000
00020000
00000000
00000000
00000000
,
00030000
00000000
00011000
00000000
00100000
00000000
00101000
00100000
,
00101000
00000000
01000000
00000000
01100000
00000000
00000000
00010000
,
01010000
10010000
01100000
01010000
,
01100000
01000000
00010000
00001000
,
00010000
00000000
00001000
00000010
00000100
00000001
00000010
00000001
,
00000010
00000000
00000000
00000001
00000000
00000000
00000010
00000000
00000001
00000000
00001000
00000000
00000010
00000000
00000100
00000000
00000001
00000000
00000010
00000000
00000100
00000000
00001000
00000000
,
00000020
00000030
00000000
00001100
00000000
00000000
00100000
00000000
00000000
00010000
00000000
00000000
,
00010000
20000000
30020000
00032000
,
00003002
00000000
00000000
00000003
00000010
00000001
00000010
00000001
00000100
00000010
00000100
00000010
00001000
00000000
00000100
00000000
,
00010000
00000000
00001000
00000000
00100000
00010000
00100000
00010000
01000000
00100000
01000000
00100000
10000000
00000000
01000000
00000000
,
01100000
00000000
00010000
00000000
00011000
00000000
00000000
00001000
,
00001100
00000000
00000100
00000000
00000100
00000000
00000000
00000010
,
00000011
00000000
00000001
00000010
00001000
00000001
00000100
00001000
,
00000010
00000000
00000000
00000100
00000000
00000000
00000010
00000000
00010000
00000000
00001000
00000000
00010000
00000000
00001000
00000000
01000000
00000000
00010000
00000000
00100000
00000000
00010000
00000000
,
10000000
00100000
10000000
00000000
00000000
00000000
00000000
00000000
00000000
00000000
00000000
00000000
;
