#VERSION:0.83;
#TITLE:Beat Juggling Mix;
#SUBTITLE:;
#ARTIST:Hommarju;
#TITLETRANSLIT:;
#SUBTITLETRANSLIT:;
#ARTISTTRANSLIT:;
#GENRE:;
#ORIGIN:;
#CREDIT:;
#BANNER:;
#BACKGROUND:beat_juggling_mix-bg.jpg;
#PREVIEWVID:;
#JACKET:beat_juggling_mix_jacket.png;
#CDIMAGE:;
#DISCIMAGE:;
#LYRICSPATH:;
#CDTITLE:;
#MUSIC:beat juggling mix.ogg;
#OFFSET:1.243000;
#SAMPLESTART:70.236000;
#SAMPLELENGTH:15.319000;
#SELECTABLE:YES;
#DISPLAYBPM:94.000000:188.000000;
#BPMS:0.000=105.000,
4.000=100.000,
6.000=105.000,
53.000=66.000,
54.000=94.000,
89.000=198.000,
90.000=192.000,
91.000=186.000,
92.000=170.000,
93.000=188.000,
275.000=176.000,
276.000=170.000,
277.000=164.000,
278.000=156.000,
279.000=142.000,
280.000=130.000,
281.000=120.000;
#STOPS:;
#DELAYS:;
#WARPS:;
#TIMESIGNATURES:0.000=4=4;
#TICKCOUNTS:0.000=4;
#COMBOS:0.000=1;
#SPEEDS:0.000=1.000=0.000=0;
#SCROLLS:0.000=1.000;
#FAKES:;
#LABELS:0.000=Song Start;
#BGCHANGES:0.000=beat_juggling_mix-bg.jpg=1.000=0=0=1=====,
3.063=Beat Juggling Mix.mp4=1.000=0=0=1=====,
99999=-nosongbg-=1.000=0=0=0 // don't automatically add -songbackground-
;
#KEYSOUNDS:;
#ATTACKS:
;

//---------------dance-single - kaya----------------
#NOTEDATA:;
#CHARTNAME:;
#STEPSTYPE:dance-single;
#DESCRIPTION:kaya;
#CHARTSTYLE:;
#DIFFICULTY:Beginner;
#METER:5;
#RADARVALUES:0.168618,0.230328,0.090164,0.016393,0.000000,144.000000,133.000000,11.000000,2.000000,0.000000,0.000000,0.000000,0.000000,0.000000,0.168618,0.230328,0.090164,0.016393,0.000000,144.000000,133.000000,11.000000,2.000000,0.000000,0.000000,0.000000,0.000000,0.000000;
#CREDIT:;
#DISPLAYBPM:94.000000:188.000000;
#NOTES:
0000
0000
0000
0000
,
0000
0000
0000
0000
,
0000
0000
0001
0000
,
0001
0000
0001
0001
,
0001
0000
1000
0100
,
0001
0000
0001
0100
,
1000
0000
1000
1000
,
0010
0000
0001
0001
,
0010
0000
0100
1000
,
0001
0000
0100
0001
,
1000
0000
1001
0000
,
0001
0000
1001
0000
,
1000
0000
0020
0000
,
0000
0000
0000
0000
,
0030
0100
0100
0100
,
0000
0001
0001
0010
,
0000
1000
1000
0010
,
0000
0001
0001
0100
,
0000
1000
1000
0100
,
0000
0010
0010
0001
,
0000
0010
0010
1000
,
0000
0110
0000
0000
,
0000
0002
0000
0000
,
0000
0003
0000
0000
,
0000
0000
1000
0000
,
1000
0000
0100
0000
,
0100
0000
0001
0000
,
0001
0000
0100
0000
,
0100
0000
1000
0000
,
1000
0000
0010
0000
,
0010
0000
0001
0000
,
0001
0000
0010
0000
,
0010
1000
0000
1000
,
0000
0001
0000
0001
,
0000
0100
0000
0010
,
0000
1001
0000
0000
,
0000
1000
0000
0100
,
0000
0001
0000
0000
,
0000
0001
0000
0100
,
0000
1000
0000
0000
,
0000
1000
0000
0010
,
0000
0001
0000
0000
,
0000
0001
0000
0010
,
0000
1000
0000
0000
,
0000
1001
0000
1001
,
0000
1001
0000
0000
,
0000
1000
0000
0100
,
0000
0010
0000
0000
,
0000
0100
0000
0010
,
0000
0001
0000
0000
,
0000
0001
0000
1000
,
0000
1001
0000
0000
,
0000
0001
0000
0100
,
0000
1000
0000
0100
,
0000
0001
0000
0100
,
0000
1000
0000
0100
,
0000
0001
0000
0010
,
0000
1000
0000
0010
,
0000
0001
0000
0010
,
0000
1000
0000
0010
,
0000
0001
0000
0001
,
0000
1000
0000
1000
,
0000
0100
0000
0001
,
0000
0100
0000
1000
,
0000
0001
0000
0001
,
0000
1000
0000
1000
,
0000
0010
0000
0001
,
0000
0010
0000
1000
,
0000
1001
0000
0000
,
0000
1001
0000
0000
,
0000
1001
0000
0000
;

//---------------dance-single - kaya----------------
#NOTEDATA:;
#CHARTNAME:;
#STEPSTYPE:dance-single;
#DESCRIPTION:kaya;
#CHARTSTYLE:;
#DIFFICULTY:Easy;
#METER:10;
#RADARVALUES:0.357143,0.460656,0.270492,0.098361,0.008197,305.000000,272.000000,33.000000,12.000000,0.000000,0.000000,0.000000,0.000000,0.000000,0.357143,0.460656,0.270492,0.098361,0.008197,305.000000,272.000000,33.000000,12.000000,0.000000,0.000000,0.000000,0.000000,0.000000;
#CREDIT:;
#DISPLAYBPM:94.000000:188.000000;
#NOTES:
// measure 0
0000
0000
0000
0000
,  // measure 1
0000
0000
0000
0000
,  // measure 2
0000
0000
0001
0000
,  // measure 3
0001
0000
0001
0001
,  // measure 4
1000
0000
0002
0003
0000
0000
0000
0000
0100
0000
0000
0000
1010
0000
0000
0000
,  // measure 5
0100
0000
0011
0000
0010
0100
1000
0000
,  // measure 6
0010
0100
0001
0000
0010
0000
1100
0000
,  // measure 7
0010
0000
0101
0000
1000
1000
0100
0000
,  // measure 8
0001
0001
0100
0000
1000
0000
0101
0000
,  // measure 9
0001
0000
1100
0000
0001
1000
1000
0000
,  // measure 10
1000
0000
0001
0000
0001
0000
0000
0000
0001
0000
1000
0000
0010
0000
0200
0300
,  // measure 11
0001
1000
0010
0000
0110
0000
0110
0000
,  // measure 12
1001
1001
2000
0000
,  // measure 13
0000
0000
3000
0000
,  // measure 14
0000
0010
0010
0010
,  // measure 15
1001
0000
1000
0100
0001
0100
1000
1000
,  // measure 16
0001
0000
0001
0100
1000
0100
0001
0001
,  // measure 17
1000
0000
1000
0100
0001
0100
1000
1000
,  // measure 18
0001
0011
1100
0011
,  // measure 19
1100
0000
0100
1000
0010
1000
0100
0100
,  // measure 20
0010
0000
0010
0001
0100
0001
0010
0010
,  // measure 21
0100
0000
0000
0000
0011
0000
0000
0010
0000
0000
0001
0000
0000
0100
0000
0000
,  // measure 22
1000
0000
0000
0020
0000
0000
0000
0000
,  // measure 23
0000
0000
0000
0000
,  // measure 24
0030
0000
0001
0000
,  // measure 25
0001
0000
1000
0000
,  // measure 26
1000
0000
0010
0000
,  // measure 27
0010
0000
0100
0000
,  // measure 28
0100
0000
0001
0000
,  // measure 29
0101
0000
1000
0000
,  // measure 30
1100
0000
0001
0000
,  // measure 31
0011
0000
1000
0000
,  // measure 32
1010
0010
0010
0010
,  // measure 33
0010
0010
0010
0010
,  // measure 34
0010
0000
0100
0000
0001
0000
1000
0001
,  // measure 35
1000
0001
1000
0000
0000
0000
0000
0000
,  // measure 36
0000
0100
1000
0010
,  // measure 37
0100
0000
0001
0000
0010
0000
0100
0010
,  // measure 38
0100
0010
0001
0100
,  // measure 39
0010
0000
1000
0000
0100
0000
1000
0100
,  // measure 40
1000
0010
1000
0001
,  // measure 41
1000
0000
0100
0000
0010
0000
0001
0010
,  // measure 42
0001
0010
0100
0001
,  // measure 43
0100
0000
0010
0000
0001
0000
1000
0001
,  // measure 44
1000
0010
0010
0010
,  // measure 45
0010
0000
0100
0000
0001
0000
1000
0001
,  // measure 46
1000
0001
0100
0010
,  // measure 47
1000
0000
0100
0000
0010
0000
0100
0010
,  // measure 48
0100
1000
1000
0001
,  // measure 49
0001
0100
0100
0010
,  // measure 50
0010
0110
0110
0110
,  // measure 51
0110
2002
0000
3003
,  // measure 52
0000
1000
0001
0100
,  // measure 53
0010
0000
1000
0000
0100
0000
0010
0100
,  // measure 54
0010
0000
0100
0000
1000
0000
0010
0100
,  // measure 55
0010
0000
0100
0000
0001
0000
0010
0100
,  // measure 56
0010
0001
1000
0010
,  // measure 57
0100
0001
0010
0100
,  // measure 58
1000
0000
0011
0000
0010
0100
0000
1100
,  // measure 59
0000
0000
1000
0000
0001
0000
1000
0001
,  // measure 60
1000
0100
0100
0100
,  // measure 61
0100
0100
0010
0001
,  // measure 62
1000
0000
0010
0000
0100
0000
1000
0100
,  // measure 63
0001
0000
0010
0000
0100
0000
0001
0100
,  // measure 64
1000
0100
0100
0010
,  // measure 65
0010
0001
0001
1000
,  // measure 66
1000
0100
0100
0100
,  // measure 67
0100
0220
0000
0330
,  // measure 68
0001
0000
1100
0000
0002
0003
1100
0000
,  // measure 69
0002
0003
1100
0000
0002
0003
1100
0000
,  // measure 70
0002
0003
1100
0000
0000
0000
0000
0000
;

//---------------dance-single - kaya----------------
#NOTEDATA:;
#CHARTNAME:;
#STEPSTYPE:dance-single;
#DESCRIPTION:kaya;
#CHARTSTYLE:;
#DIFFICULTY:Medium;
#METER:13;
#RADARVALUES:0.528103,0.690984,0.360656,0.377049,0.110656,451.000000,407.000000,44.000000,46.000000,0.000000,0.000000,0.000000,0.000000,0.000000,0.528103,0.690984,0.360656,0.377049,0.110656,451.000000,407.000000,44.000000,46.000000,0.000000,0.000000,0.000000,0.000000,0.000000;
#CREDIT:;
#DISPLAYBPM:94.000000:188.000000;
#NOTES:
0000
0000
0000
0000
,
0000
0000
0000
0000
,
0000
0000
1000
0000
,
0001
0000
1000
0001
,
0100
0010
0100
0000
0000
0000
0000
0000
0001
0000
0100
0000
1000
0000
0000
0000
,
1000
0000
0000
0100
0000
0000
0001
0000
0000
0000
0000
0000
0010
0000
0000
0001
0000
1000
0001
0000
0000
0100
0000
0010
,
0100
0000
0000
0001
0000
1000
0001
0000
0000
0000
0000
0000
1000
0000
0000
0100
0000
0000
0001
0000
0000
0000
0000
0000
,
0001
0000
0000
0100
0000
0000
1000
0000
0000
0000
0000
0000
0010
0000
0000
1000
0000
0000
0100
0000
1000
0001
0000
0000
,
1000
0000
0000
0100
0000
0010
0001
0000
0000
0000
0000
0000
0001
0000
0000
0010
0000
0000
0100
0000
0000
0000
0000
0000
,
1000
0000
0010
0000
0100
0000
0000
0000
1000
0000
1000
0100
0001
0000
0000
0000
,
1000
0000
1000
0100
0001
0000
0000
0000
0200
0000
0310
0000
1001
0000
0000
0000
,
0020
0130
1001
0000
1100
0000
0101
0000
,
1100
0000
0000
0000
0101
0000
0000
0000
1000
0000
0000
0000
0001
0000
0000
0200
,
0000
0310
0000
0000
,
0000
0000
0000
0000
0000
0000
1001
0000
0000
0000
0000
0000
1001
0000
0000
0000
0000
0000
1001
0000
0000
0000
0000
1000
,
0010
0000
0010
0100
0000
0000
0202
0303
0000
0001
0000
1000
0010
0000
0000
0010
0000
0000
1000
0000
1000
0100
0000
0000
,
0001
0000
0000
0100
0000
0000
2200
3300
0000
1000
0000
0100
0010
0000
0000
0010
0000
0000
0001
0000
0001
0100
0000
0000
,
1000
0000
0000
0100
0000
0000
2002
3003
0000
0001
0000
1000
0001
0000
0000
0001
0000
0000
0010
0000
0010
0100
0000
0000
,
0001
0000
0000
0100
0000
0000
0220
0330
0000
0000
0000
0000
2002
3003
0000
0000
0000
0000
1000
0000
0010
0100
0000
0001
,
0010
0000
0000
0001
0000
0001
2000
0000
3000
0100
0000
0100
0010
0000
0000
0010
0000
0000
1000
0000
1000
0010
0000
0000
,
0001
0000
0000
0010
0000
0000
0002
0000
0000
0103
0000
0100
0010
0000
0000
0010
0000
0000
0001
0000
0001
0010
0000
0000
,
1000
0000
0010
0000
2020
3030
0000
0202
0303
0000
2200
3300
0000
0022
0033
0000
,
2002
3003
1000
0001
1000
0000
0000
0000
0000
0000
0000
0000
0000
0000
0000
0000
,
0000
0000
1000
0100
0010
0100
0001
0100
,
0010
0100
1000
0000
0001
1000
0000
1000
,
0100
0000
0000
0000
1000
0001
0000
0001
,
0100
0000
0000
0000
0010
1000
0000
1000
,
0100
0000
0000
0000
0010
0001
0000
0001
,
0100
0000
0010
0000
1000
0100
0000
0010
,
0001
0000
0100
0000
0001
0010
0000
0100
,
1000
0000
0001
0000
1000
0100
0000
0010
,
0001
0000
1000
0000
0001
0100
0000
0010
,
1000
0000
0001
0100
0001
0100
0001
0100
,
0001
0100
0001
0100
0001
0100
0001
0100
,
0001
0100
0010
1000
0100
0001
1000
0010
,
0001
0100
0010
0000
0000
0000
0110
0000
,
1001
0000
2000
0000
3100
0010
2000
0000
,
3010
0100
2000
0000
3010
0100
0010
1000
,
0001
0000
0100
0000
1000
0100
0000
0100
,
0010
1000
0000
1000
0100
0010
0100
1000
,
0001
0000
0002
0000
0103
0010
0002
0000
,
0013
0100
0002
0000
0013
0100
0010
0001
,
1000
0000
0100
0000
0001
0100
0000
0100
,
0010
0001
0000
0001
0100
0010
1000
0001
,
0100
0110
0110
0110
,
0110
0000
0001
1000
0001
0010
0100
1000
,
0010
0000
0100
0000
1000
0100
0000
0100
,
0001
1000
0000
1000
0100
0010
0001
0100
,
0010
1000
1010
0000
1010
0000
0101
0000
,
0101
1100
1100
0011
,
0011
0000
0001
0010
0100
1000
0001
0010
,
0100
1000
0000
0000
0000
0000
0000
0000
,
0000
0000
2000
0000
3100
0010
0100
1000
,
0100
0010
0100
1000
0000
1000
0010
0000
,
0010
0100
1000
0100
0010
0100
0001
0100
,
0010
0100
0001
0010
0100
1000
0010
0000
,
1000
0001
0010
0000
0100
0001
0100
0010
,
0001
0010
0100
1000
0010
0100
0001
0010
,
0001
0000
0200
0300
0010
1000
0000
0200
,
0300
1000
0001
1000
0010
1000
0001
0010
,
0001
0101
0101
1100
,
1100
0000
0101
0000
0100
0001
0010
0100
,
1000
0000
0001
0000
1000
0100
0001
0100
,
0010
0001
1000
0000
0001
0100
1000
0100
,
0010
0101
0101
1100
,
1100
0000
0200
0300
0200
0300
0200
0300
,
0200
0000
0300
0000
0200
0300
0200
0300
0200
0300
0200
0300
0200
0300
0200
0300
,
0200
0300
0200
0000
0000
0000
0000
0000
0000
0000
0000
0000
0300
0000
0000
0000
,
1001
0000
0110
0000
0001
1000
0100
0000
,
1000
0001
0100
0000
0001
1000
0100
0000
,
1000
0001
0100
0000
0000
0000
0000
0000
;

//---------------dance-single - kaya----------------
#NOTEDATA:;
#CHARTNAME:kaya;
#STEPSTYPE:dance-single;
#DESCRIPTION:kaya;
#CHARTSTYLE:;
#DIFFICULTY:Hard;
#METER:16;
#RADARVALUES:0.765808,0.950102,0.377049,0.696721,0.676230,654.000000,608.000000,46.000000,85.000000,0.000000,0.000000,0.000000,0.000000,0.000000,0.765808,0.950102,0.377049,0.696721,0.676230,654.000000,608.000000,46.000000,85.000000,0.000000,0.000000,0.000000,0.000000,0.000000;
#CREDIT:kaya;
#DISPLAYBPM:94.000000:188.000000;
#NOTES:
0000
0000
0000
0000
,
0000
0000
0000
0000
,
0000
0000
1001
0000
,
1001
0000
0011
1100
,
0001
1000
0001
0000
0000
0000
0000
0000
0010
0000
0001
0000
0100
0000
0001
0000
,
0010
0000
0000
0001
0000
0000
0100
0000
0000
0001
0000
0000
0010
0000
0000
0001
0000
0001
2000
3000
0000
0010
0000
0010
,
0001
0000
0001
0010
0000
0010
2000
3000
0000
2000
3000
0000
0010
0000
0000
1000
0000
0000
0100
0000
0000
1000
0000
0000
,
0001
0000
0000
0100
0000
0000
0010
0000
0000
1000
0000
0000
0100
0000
0000
0000
0000
0000
1000
0000
0000
0000
0000
0000
0010
0000
0000
0000
0000
0000
1000
0000
0000
0000
0000
0000
0001
0000
0100
0000
0010
0000
0100
0000
0000
0000
0001
0000
,
1000
0000
0000
0000
1000
0000
0100
0000
0000
0000
0100
0000
0002
0000
0003
0000
0000
0000
0001
0000
0000
0100
0000
0000
0010
0000
0000
0000
0000
0000
0001
0000
0000
0000
0000
0000
0100
0000
0000
0000
0000
0000
0001
0000
0000
0000
0000
0000
,
0010
0000
0000
0000
0000
0000
0000
0000
0000
0000
0000
0000
0001
0000
0000
0000
0000
0000
0000
0000
0000
0000
0000
0000
0100
0000
0000
0000
0000
0000
0010
0000
0000
0000
0000
0000
2000
0000
0000
3000
0000
0000
0000
0000
0000
0000
0000
0000
0001
0000
0000
0000
0000
0000
0010
0000
0000
0001
0000
0000
2000
0000
0000
3000
0000
0000
0000
0000
0000
0000
0000
0000
0001
0000
0000
0000
0010
0000
0000
0000
0001
0000
0000
0000
2000
0000
0000
3000
0000
0000
2000
0000
0000
3000
0000
0000
,
0100
0000
0010
0000
0001
0000
0010
0000
0100
0000
0000
0000
1001
0000
0000
0000
2200
3300
0000
0000
1000
0000
0000
0000
0010
0000
0000
0000
0000
0000
0000
0000
,
0202
0000
0000
0303
0000
0000
0000
0000
0000
0000
0000
0000
0001
0000
0000
0000
0000
0000
0000
0000
0000
0000
0000
0000
0010
0000
0000
0000
0000
0000
0000
0000
0000
0000
0000
0000
0000
0000
0000
0000
0000
0000
0000
0000
0000
0000
0000
0000
1002
0000
0000
0000
0003
0000
0000
0000
0000
0000
0000
0000
0100
0000
0000
0000
0000
0000
0000
0000
0000
0000
0000
0000
0012
0000
0000
0000
0003
0000
0000
0000
0000
0000
0000
0000
0100
0000
0000
0000
0000
0000
0000
0000
0000
0000
0000
0000
,
1002
0000
0003
0000
0000
0000
0010
0000
0000
0000
0000
0000
0102
0000
0003
0000
0000
0000
0010
0000
0000
0000
0000
0000
2002
0000
0000
0000
0000
0000
3000
0000
0000
0000
0000
0000
0023
0000
0000
0000
0000
0000
0000
0000
0000
0230
0000
0000
,
0000
0000
0000
0000
2300
0000
0000
0000
3020
0000
0000
0200
0030
0000
0000
0000
0300
0000
0000
0000
0000
0000
0000
0000
0000
0000
0000
0000
0000
0000
0000
0000
,
0000
0000
0000
0000
0000
0000
0001
0000
0000
0000
0000
0000
0001
0000
0000
0000
0000
0000
0001
0000
0000
0000
0000
1000
,
0001
0000
0100
0010
0000
0000
2000
0000
0000
3100
0010
0100
1000
0000
0000
2001
0000
0000
3010
0000
0001
0010
0000
0010
,
1000
0000
1000
0100
0000
1000
0002
0000
0000
0103
0010
0100
0001
0000
0000
1002
0000
0000
0013
0000
1000
0010
0000
0010
,
0001
0000
0001
0100
0000
0001
2000
0000
0000
3100
0010
0100
1000
0000
0000
2001
0000
0000
3010
0000
0001
0010
0000
0010
,
1000
0000
1000
0100
0000
0010
0002
0000
0000
0103
0010
0100
2000
0000
0000
3100
0010
0100
0001
0000
0001
0010
0000
0010
,
1000
0000
1000
0010
0000
0010
0002
0000
0000
0013
0100
0010
0001
0000
0000
1002
0000
0000
0013
0000
1000
0010
0000
0010
,
0001
0000
0001
0100
0000
0001
2000
0000
0000
3010
0100
0010
1000
0000
0000
2001
0000
0000
3010
0000
0001
0010
0000
0010
,
1000
0000
0000
0000
0000
0000
0000
0000
0001
0000
0000
0000
1000
0000
0000
0000
0000
0000
0000
0000
1000
0000
0000
0000
0200
0000
0000
0300
0000
0000
0000
0000
0000
0000
0000
0000
1000
0000
0000
0010
0000
0000
0200
0000
0000
0300
0000
0000
0000
0000
0000
0000
0000
0000
0001
0000
0000
0010
0000
0000
0200
0000
0000
0300
0000
0000
0000
0000
0000
0000
0000
0000
1000
0000
0000
0010
0000
0000
0200
0000
0000
0300
0000
0000
0000
0000
0000
0000
0000
0000
0001
0000
0000
0010
0000
0000
,
0200
0300
0000
0000
0010
0100
0010
0100
2000
0000
0000
0000
0000
0000
0000
0000
0000
0000
0000
0000
0000
0000
0000
0000
0000
0000
0000
0000
0000
0000
0000
0000
,
3000
0000
0000
0000
1000
0100
1000
0100
0010
0001
0010
0001
1000
0100
1000
0100
,
0010
0001
0010
0001
0000
0000
0000
0000
1000
0000
0010
0000
0000
0000
0100
0000
,
0000
0001
0000
0001
0010
0001
1000
0100
,
1000
0000
0000
0000
0001
0010
0000
0100
,
0000
1000
0000
1000
0010
1000
0001
0100
,
0001
0000
0000
0000
0001
0010
0000
0010
,
0100
1000
0000
1000
0010
1000
0001
0100
,
0001
0000
0000
0000
1000
0010
0000
0010
,
0100
0001
0000
0001
0010
0001
1000
0100
,
1000
0001
0100
0010
0100
0010
0100
0010
,
0100
0010
1000
0001
1000
0001
1000
0001
,
1000
0000
0001
0000
1000
0001
1000
0001
1000
0001
1000
0001
0100
0010
0100
0010
,
0100
0010
0100
0010
1000
0000
0100
0010
0100
0000
1000
0000
1010
0000
0000
0000
,
0101
0000
0000
0000
0022
0000
0033
0000
0010
0000
0100
0000
1000
0010
1000
0010
,
1000
0000
0100
0000
0010
1000
0010
1000
0010
0000
0100
0000
1000
0000
0010
0000
,
1010
0000
0010
1000
0001
0010
0000
1000
,
0010
0000
0001
0000
0000
0000
0001
0000
0010
0000
0010
0100
0010
0000
0100
0000
,
1000
0000
0010
0000
2020
0000
3030
0000
0010
0000
0100
0000
0001
0010
0001
0010
,
0001
0000
0100
0000
0010
0001
0010
0001
0010
0000
0100
0000
0001
0000
0010
0000
,
0011
0000
0010
0001
1000
0010
0000
0001
,
0010
0000
1000
0000
0000
0000
1000
0000
0010
0000
0010
0100
0010
0000
0001
0000
,
0010
0000
1000
0000
2200
3300
0000
0000
2200
3300
0000
0000
2200
3300
0000
0000
,
2200
3300
0000
0000
1000
0100
0010
0001
0100
0000
0010
0000
1000
0000
0100
0000
,
0110
0000
0010
0001
1000
0010
0000
0001
,
0010
0000
1000
0000
0000
0000
1000
0000
0100
0000
0010
0100
0010
0000
0001
0000
,
0100
0010
1000
1000
0001
0001
0100
0100
,
0010
0010
1000
1000
0100
0100
0010
0010
,
0001
0000
0001
0000
1000
0001
1000
0001
0010
0100
0010
0100
1000
0001
1000
0001
,
0100
0010
0100
0010
2000
3000
0001
0010
0100
0010
0001
0010
0100
0000
0000
0000
,
0110
0000
0000
0000
2000
3000
0000
0000
0010
0100
0010
0100
1000
0000
0100
0010
,
0100
0010
1000
0000
0001
0000
2000
3000
0100
0010
0100
0000
2000
3000
0100
0010
,
0100
0000
0001
0000
0100
0010
0000
0010
0001
0000
0010
0000
0100
0010
0100
0000
,
1000
0001
0000
0001
0010
0000
0100
0010
0000
0100
1000
0000
0200
0300
0000
0000
,
0010
0001
0100
0010
2000
0000
3000
0000
0001
0010
0100
0000
1000
0000
0100
0000
,
0010
0100
0010
0001
1000
0000
0010
0000
0100
0010
0100
0001
1000
0000
0001
0000
,
1000
0000
0010
1000
0200
0300
0000
0000
0010
0001
0010
0001
0000
0000
0200
0300
,
0001
0000
1000
0001
0000
0001
0010
0000
0100
0000
1000
0001
0100
0000
0010
0000
,
0110
0000
0000
0000
1200
0300
0002
0003
1200
0300
0002
0003
1200
0300
0002
0003
,
1200
0300
0002
0003
1200
0300
0000
0000
1000
0000
0100
0010
0001
1000
0100
0000
,
0010
0000
0100
0000
0002
0003
0100
0020
0031
0000
0010
0000
0100
1000
0002
0003
,
0010
0100
0010
0100
0002
0003
0100
0020
0031
0000
1000
0000
0010
0100
0010
0000
,
1001
0000
0000
0000
1200
0300
0000
0000
0210
0300
0000
0000
0201
0300
0000
0000
,
0210
0000
0300
0000
0000
0000
0000
0000
1200
0300
0000
0000
0100
0000
0000
0000
0210
0300
0000
0000
0100
0000
0000
0000
0201
0300
0000
0000
0100
0000
0000
0000
,
0210
0300
0000
0000
0100
0000
0000
0000
1000
0000
0100
0000
1000
0000
0100
0000
0010
0000
0100
0000
0010
0000
0100
0000
0001
0000
0100
0000
0001
0000
0100
0000
,
0010
0100
0010
0002
2000
0000
0000
0000
0000
0000
0000
0000
3003
0000
0000
0000
,
1001
0000
0000
0000
0101
0000
0000
0000
0001
1000
0001
1000
0100
0000
0000
0000
,
1000
0001
1000
0001
0100
0000
0000
0000
0001
0010
0001
1000
0100
0000
0000
0000
,
1000
0010
1000
0001
0100
0000
0000
0000
0000
0000
0000
0000
0000
0000
0000
0000
;

//---------------dance-single - kaya----------------
#NOTEDATA:;
#CHARTNAME:;
#STEPSTYPE:dance-single;
#DESCRIPTION:kaya;
#CHARTSTYLE:;
#DIFFICULTY:Challenge;
#METER:15;
#RADARVALUES:0.617096,0.872951,0.270492,0.959016,0.446721,527.000000,494.000000,33.000000,117.000000,108.000000,0.000000,0.000000,0.000000,0.000000,0.617096,0.872951,0.270492,0.959016,0.446721,527.000000,494.000000,33.000000,117.000000,108.000000,0.000000,0.000000,0.000000,0.000000;
#CREDIT:;
#DISPLAYBPM:94.000000:188.000000;
#NOTES:
0000
0000
0000
0000
,
0000
0000
0000
0000
,
0000
0000
0000
0000
0000
0000
0000
0000
2200
3300
0000
0000
0000
0000
0000
0000
,
0022
0033
0000
0000
0000
0000
0000
0000
2200
3300
0000
0000
0022
0033
0000
0000
,
1000
0100
1000
0000
MMMM
0000
0002
0000
1003
0000
0100
0000
0010
0000
0001
0000
,
1000
0000
0000
0000
0000
0000
0100
0000
0000
0000
0000
0000
0010
0000
0000
0000
0000
0000
0001
0000
0000
0000
0000
0000
MMMM
0000
0000
0000
0000
0000
0002
0003
0000
0000
0200
0300
0020
0030
0000
0000
0000
0000
0200
0300
0000
0000
0200
0300
,
0000
0000
0000
0000
0002
0000
0203
0300
0000
0000
0002
0003
2000
3000
0000
0000
0000
0000
MMMM
0000
0000
0000
0000
0000
1000
0000
0000
0000
0000
0000
0010
0000
0000
0000
0000
0000
0100
0000
0000
0000
0000
0000
0001
0000
0000
0000
0000
0000
,
1000
0000
0000
0000
0000
0000
0010
0000
0000
0000
0000
0000
0100
0000
0000
0000
0000
0000
0001
0000
0000
0000
0000
0000
MMMM
0000
0000
0000
0000
0000
0002
0003
0000
0000
0000
0000
0020
0030
0000
0000
0200
0300
0020
0030
0000
0000
0002
0003
,
0020
0030
0000
0000
0200
0300
0020
0030
0000
0000
0002
0003
2000
3000
0000
0000
0000
0000
MMMM
0000
0000
0000
0000
0000
1000
0000
0000
0000
0000
0000
0100
0000
0000
0000
0000
0000
0010
0000
0000
0000
0000
0000
0001
0000
0000
0000
0000
0000
,
1000
0000
0000
0000
0100
0000
0000
0000
0010
0000
0000
0000
0001
0000
0000
MMMM
0000
0000
0002
0003
0020
0030
0000
0000
0020
0030
2000
3000
0020
0030
0000
0000
,
0020
0030
0200
0300
2000
3000
0000
0000
0002
0003
0000
0000
MMMM
0000
0000
0000
0001
0000
0000
0000
0100
0000
0000
0000
0010
0000
0000
0000
MMMM
0000
0000
0000
,
0001
0000
0000
0000
0100
0000
0000
0000
0010
0000
0000
0000
MMMM
0000
0000
0000
0002
0003
0000
0000
MMMM
0000
0000
0000
0002
0003
0000
0000
MMMM
0000
0000
0000
,
0002
0003
0000
0000
MMMM
0000
0000
0000
0002
0003
0000
0000
MMMM
0000
0000
0000
0010
0000
0000
0000
0000
0000
0000
0000
0020
0000
0000
0000
0000
0000
0200
0000
,
0000
0000
0330
MMMM
,
MMMM
0000
0000
0000
0000
0000
0001
0000
0000
0000
0000
0000
0001
0000
0000
0000
0000
0000
0001
0000
0000
0000
0000
0100
,
0010
0000
0100
0100
0000
0000
2000
0000
0000
3100
0010
0100
0010
0000
0000
0010
0000
0000
1000
0000
1000
0100
0000
0100
,
0010
0000
0010
0100
0000
0100
0002
0000
0000
0103
0010
0100
0010
0000
0000
0010
0000
0000
0001
0000
0001
0100
0000
0100
,
0010
0000
0010
0100
0000
0100
2000
0000
0000
3100
0010
0100
0010
0000
0000
0010
0000
0000
1000
0000
1000
0100
0000
0100
,
0010
0000
0010
0001
0000
0001
2000
0000
3000
1000
0010
0100
0002
0000
0003
0001
0000
0000
0011
0000
0000
1100
0000
0000
,
0011
0000
0000
1100
0000
0000
0002
0000
0000
0103
0010
0100
0010
0000
0000
0010
0000
0000
0001
0000
0001
0010
0000
0010
,
0100
0000
0100
0010
0000
0010
2000
0000
0000
3100
0010
0100
0010
0000
0000
0010
0000
0000
1000
0000
1000
0010
0000
0010
,
0100
0000
0000
0000
0100
0000
0010
0000
0000
0000
0010
0000
0002
0000
0000
0000
0000
0000
0100
0000
0000
2003
0000
0000
0000
0000
0000
0100
0000
0000
3002
0000
0000
0000
0000
0000
0010
0000
0000
2003
0000
0000
0000
0000
0000
0010
0000
0000
,
3001
0000
0000
0000
1000
0100
0010
0000
0002
0000
0000
0000
0000
0000
0000
0000
0003
0000
0000
0000
0000
0000
0000
0000
MMMM
0000
0000
0000
0000
0000
0000
0000
,
MMMM
0000
0000
0000
0001
1000
0001
1000
0001
1000
0001
1000
0001
1000
0001
1000
,
0001
1000
0001
1000
0000
0000
0000
0000
1000
0000
0010
0000
0000
0000
0100
0000
,
0000
1000
0000
0001
0010
0100
0010
1000
,
0000
0000
0000
0000
0001
0010
0000
0100
,
0000
0001
0000
1000
0010
0100
0010
0001
,
0000
0000
0000
0000
0001
0100
0000
0010
,
0000
0001
0000
1000
0100
0010
0100
0001
,
0000
0000
0000
0000
1000
0100
0000
0010
,
0000
1000
0000
0001
0100
0010
0100
1000
,
0000
0000
0010
0100
0010
0100
0010
0100
,
0010
0100
0010
0100
0010
0100
0010
0100
,
0010
0000
0100
0000
0010
0100
0010
0100
0010
0100
0010
0100
0010
0100
0010
0100
,
0010
0100
0010
0100
0000
0000
0000
0000
0000
0000
0000
0000
MMMM
0000
0000
0000
,
MMMM
0000
1200
0000
0301
0100
0020
0030
,
0001
0010
0200
0300
0001
0100
1000
0010
,
0001
0000
0010
1000
0001
0010
0000
0010
,
0001
0000
0100
0000
0000
0000
0100
0000
0001
0000
1000
0010
1000
0000
1000
0000
,
0001
0000
0201
0000
1300
0100
0020
0030
,
1000
0010
0200
0300
1000
0100
0001
0010
,
1000
0000
0010
0001
1000
0010
0000
0010
,
1000
0000
0100
0000
0000
0000
0100
0000
1000
0000
0001
0100
0001
0000
0001
0000
,
1000
1100
1100
0011
,
0021
0000
0230
0300
1000
0001
0200
0300
,
1000
0000
0001
0010
1000
0010
0000
0010
,
1000
0000
0100
0000
0000
0000
0100
0000
1000
0000
0100
0010
0001
0000
0001
0000
,
1000
0011
1010
0011
,
1010
0000
0001
0010
1000
0010
0001
0010
,
1000
0000
0010
0000
0100
0010
0100
0010
0100
0010
0100
0010
0100
0010
0100
0010
,
0100
0010
0100
0010
0000
0000
0000
0000
0000
0000
0000
0000
MMMM
0000
0000
0000
,
MMMM
0000
0000
0000
1001
0000
0000
0000
1000
0000
0100
0000
0010
0100
0010
0000
,
1000
0010
0100
1000
0010
0100
0001
0000
,
MMMM
0000
0000
0000
0002
0003
0000
0000
0200
0300
0020
0030
0000
0000
0200
0300
0020
0030
0000
0000
0002
0003
0000
0000
0020
0030
0000
0000
0200
0300
0000
0000
,
0002
0003
0200
0300
0002
0003
0000
0000
0020
0030
0000
0000
0002
0003
0020
0030
0000
0000
0020
0030
0200
0300
0000
0000
1000
0000
0000
0000
0000
0000
0000
0000
,
MMMM
0000
1000
0010
0100
0000
0010
0000
1000
0000
0010
1000
0010
0000
1000
0000
,
0100
0000
0010
0100
0010
0000
0100
0000
0010
0001
1000
0000
0002
0000
0003
0000
,
MMMM
0000
0000
0000
0002
0003
0020
0030
0200
0300
0000
0000
0000
0000
0000
0000
0020
0030
0200
0300
0020
0030
0002
0003
0000
0000
0000
0000
0200
0300
0000
0000
,
0002
0003
0000
0000
0200
0300
0020
0030
0000
0000
0020
0030
0200
0300
0000
0000
0020
0030
0000
0000
0200
0300
0002
0003
0200
0300
0000
0000
0020
0030
0000
0000
,
1000
MMMM
1100
0110
,
1100
0000
0000
0000
0110
0000
0100
0000
1000
0000
0010
0000
0100
0010
0100
0000
,
0002
0000
0003
0000
0000
0000
0000
0000
MMMM
0000
0000
0000
0000
0000
0002
0003
0020
0030
0000
0000
0200
0300
0000
0000
0020
0030
0000
0000
0002
0003
0000
0000
,
0200
0300
0020
0030
0200
0300
0000
0000
0002
0003
0000
0000
0020
0030
0200
0300
0020
0030
0000
0000
0200
0300
0000
0000
1000
0000
0000
0000
0000
0000
0000
0000
,
MMMM
1100
1100
0101
,
0101
0000
1000
0100
0001
0100
1000
0100
,
0001
0000
0100
0000
1000
0100
1000
0100
1000
0100
1000
0100
1000
0100
1000
0100
,
1000
0100
2000
0200
0000
0000
0000
0000
0000
0000
0000
0000
3300
0000
0000
0000
,
0011
0000
1100
0000
0001
0010
1100
0000
,
0001
0010
1100
0000
0001
0010
1100
0000
,
0001
0010
2200
0000
0000
0000
0000
0000
,
3300
0000
0000
0000
;
