#TITLE:Beach House;
#SUBTITLE:;
#ARTIST:Carly Rae Jepsen;
#TITLETRANSLIT:;
#SUBTITLETRANSLIT:;
#ARTISTTRANSLIT:;
#GENRE:;
#CREDIT:;
#BANNER:;
#BACKGROUND:;
#LYRICSPATH:;
#CDTITLE:;
#MUSIC:Beach House.ogg;
#OFFSET:-1.424000;
#SAMPLESTART:52.297283;
#SAMPLELENGTH:12.000000;
#SELECTABLE:YES;
#BPMS:0.000000=118.000000
;
#STOPS:
;
#BGCHANGES:;
#KEYSOUNDS:;
#ATTACKS:;

//---------------dance-single - DS XO FS-----------------
#NOTES:
     dance-single:
     :
     Challenge:
     13:
     0.495100,0.556354,0.083971,0.656499,0.427487,454.000000,443.000000,11.000000,86.000000,13.000000,0.000000,0.495100,0.556354,0.083971,0.656499,0.427487,454.000000,443.000000,11.000000,86.000000,13.000000,0.000000:
// measure 0
0000
0000
0000
0000
,  // measure 1
0000
0000
0000
0000
,  // measure 2
0000
0000
0000
0000
,  // measure 3
1000
0100
1000
0001
0100
0010
1000
0001
0020
0100
0000
0000
,  // measure 4
0031
0100
0001
1000
0100
0010
0001
1000
0020
0100
0000
1030
,  // measure 5
0001
0010
0100
1000
0001
0100
1000
0100
0010
2000
0000
0000
,  // measure 6
3200
0000
0000
0000
0000
0000
0310
0001
0010
0000
0100
0000
1100
0000
0000
0000
,  // measure 7
0001
0100
0001
1000
0100
0010
0001
1000
0020
0100
0000
0000
,  // measure 8
1030
0100
1000
0001
0100
0010
1000
0001
0020
0100
0000
0031
,  // measure 9
1000
0010
0100
0001
1000
0100
0001
0100
0010
0002
0000
0000
,  // measure 10
0203
0000
0000
0000
0000
0000
0310
1000
0010
0000
0100
0000
0001
0000
1000
0000
,  // measure 11
0200
0010
0000
0000
0000
0000
1300
0001
,  // measure 12
0200
0010
0000
0000
0000
0301
1000
0100
,  // measure 13
0010
0002
0000
0000
0000
1003
0001
0100
,  // measure 14
0010
2000
0000
0000
0000
0001
3001
0200
,  // measure 15
0000
0000
0310
0000
0001
0000
0010
0000
1000
0000
0001
0100
0001
0000
0020
0000
,  // measure 16
0000
0000
0130
M000
0100
0000
0001
0000
0200
0000
1000
0000
0000
0000
0302
0000
,  // measure 17
0000
0000
0013
0000
1000
0000
0010
0000
0001
0000
1000
0100
1000
0000
0020
0000
,  // measure 18
0000
0000
0130
000M
0100
0000
1000
0000
0200
0000
0001
0000
0000
0000
2300
0000
,  // measure 19
0000
0000
3010
0000
0001
0000
1000
0000
0100
0000
0001
1000
0001
0000
0020
0000
,  // measure 20
0000
0000
0130
M000
0100
0000
0001
0000
0100
0000
1000
0000
0100
0001
0100
0001
,  // measure 21
0100
0000
0101
0000
0000
0000
1000
0000
0010
0000
1000
0100
00M0
0100
0001
0000
,  // measure 22
0100
1000
0001
0020
0100
2030
0000
0100
,  // measure 23
0000
3002
0000
0203
0000
0320
0000
1030
,  // measure 24
0100
0001
1000
0020
0100
0032
0000
0100
,  // measure 25
0000
2003
0000
3200
0000
0320
0000
0031
,  // measure 26
0100
1000
0001
0020
0100
1030
1001
0001
,  // measure 27
1000
0010
1000
0001
0010
0100
1000
0001
0200
0010
0000
0000
,  // measure 28
0301
0010
0001
1000
0010
0100
0001
1000
0200
0010
0000
0000
,  // measure 29
1300
0001
0100
0010
1000
0001
0100
1000
0100
0020
0000
0000
,  // measure 30
2030
0000
0001
3001
0000
0110
2001
0000
,  // measure 31
3200
0000
0320
0032
,  // measure 32
2003
3020
0230
0302
,  // measure 33
0013
0100
0010
0001
0100
0001
1000
0010
1000
0200
0000
0000
,  // measure 34
0310
0000
0001
1000
0001
0000
0100
0000
0000
0000
0001
0000
0001
0000
0010
0000
,  // measure 35
0200
0001
0000
0000
0000
0000
1300
0010
,  // measure 36
0200
1000
0000
0000
0000
0301
1000
0100
,  // measure 37
1000
0020
0000
0000
0000
1030
0001
0100
,  // measure 38
0001
0020
0000
0000
0000
0100
0130
2000
,  // measure 39
0000
0000
3010
0000
0001
0000
0010
0100
0001
0000
0100
0010
1000
0000
0002
0000
,  // measure 40
0000
0000
0103
M000
0100
0000
1000
0001
2000
0000
0010
0000
0000
0000
3002
0000
,  // measure 41
0000
0000
0013
0000
1000
0000
0010
0100
1000
0000
0100
0010
0001
0000
2000
0000
,  // measure 42
0000
0000
3100
000M
0100
0000
0001
1000
0002
0000
0010
0000
0000
0000
2003
0000
,  // measure 43
0000
0000
3010
0000
0001
0000
1000
0000
0100
0000
0001
1000
0001
0000
0020
0000
,  // measure 44
0000
0000
0130
M000
0100
0000
0001
1000
0001
0000
0010
0000
0100
1000
0100
1000
,  // measure 45
0100
0000
1100
0000
0000
0000
0001
0000
0010
0000
0001
0100
00M0
0100
1000
0000
,  // measure 46
0100
0001
1000
0020
0100
0032
0000
0100
,  // measure 47
0000
2003
0000
3200
0000
0320
0000
0031
,  // measure 48
0100
0000
1000
0000
0001
0000
0020
0000
0100
0000
2030
0000
0000
0000
3100
0010
,  // measure 49
0001
0000
0011
0000
0000
0000
1000
0000
0100
0000
1000
0010
0M00
0010
0001
0000
,  // measure 50
0010
1000
0001
0200
0010
2300
0000
0010
,  // measure 51
0000
3002
0000
0023
0000
0230
0000
1300
,  // measure 52
0100
0000
0001
0000
1000
0000
0020
0000
0100
0000
0032
0000
0000
1003
0010
0000
,  // measure 53
1010
0000
0000
0101
0000
1000
0001
0000
0010
0M00
0010
1000
0000
0000
0001
1000
,  // measure 54
0100
0001
1000
0020
0100
0032
0010
2003
,  // measure 55
0000
0000
3020
0000
0000
0000
0130
000M
0100
0000
1000
0001
1000
0000
0010
0000
,  // measure 56
0100
0000
1000
0000
0001
0000
0020
0000
0100
0000
2030
0000
0000
3001
0010
0001
,  // measure 57
0010
0000
0011
0000
0000
0000
1000
0000
0100
0000
1000
0002
0000
0000
1003
0010
,  // measure 58
0100
1000
0001
0020
0100
2030
0010
3002
,  // measure 59
0000
0000
0023
0000
0000
0000
0130
M000
0100
0000
0001
1000
0001
0000
0010
0000
,  // measure 60
0100
0000
0001
0000
1000
0000
0020
0000
0100
0000
0032
0000
0000
1003
0100
1000
,  // measure 61
0100
0000
1100
0000
0000
0000
0001
0000
0010
0000
0001
0100
00M0
0100
1000
0000
,  // measure 62
0100
0000
0001
0000
1000
0000
0020
0000
0100
0000
0031
1000
0002
0000
0100
0000
,  // measure 63
0000
2000
0000
3003
0000
0000
0000
0000
;
