#VERSION:0.83;
#TITLE:Bazookistan;
#SUBTITLE:;
#ARTIST:Mad Cow & The Royal Eurobeat Orchestra of Bazookistan;
#TITLETRANSLIT:;
#SUBTITLETRANSLIT:;
#ARTISTTRANSLIT:;
#GENRE:;
#CREDIT:;
#MUSIC:Bazookistan.ogg;
#BANNER:Bazookistan-bn.png;
#BACKGROUND:Bazookistan-bg.png;
#CDTITLE:cdtitle.png;
#SAMPLESTART:47.547;
#SAMPLELENGTH:12.075;
#SELECTABLE:YES;
#OFFSET:-0.377;
#BPMS:0.000=159.000;
#STOPS:;
#SPEEDS:0.000=1.000=0.000=0;
#SCROLLS:0.000=1.000;
#TICKCOUNTS:0.000=4;
#TIMESIGNATURES:0.000=4=4;
#LABELS:0.000=Song Start;
#COMBOS:0.000=1;
#ORIGIN:;
#PREVIEWVID:;
#JACKET:Bazookistan-jacket.png;
#CDIMAGE:;
#DISCIMAGE:;
#BGCHANGES:32.000=Bazookistan.mp4=1.000=1=0=0=StretchNoLoop==CrossFade==,
293.000=Bazookistan-bg.png=1.000=0=0=0=StretchNoLoop====,
99999.000=-nosongbg-=1.000=0=0=0=StretchNoLoop====
;
#FGCHANGES:;

//--------------- dance-single - ----------------
#NOTEDATA:;
#STEPSTYPE:dance-single;
#DESCRIPTION:;
#DIFFICULTY:Beginner;
#METER:2;
#RADARVALUES:0.109617,0.189459,0.120702,0.017243,0,89,75,14,2,0,0,0,0,0,0.109617,0.189459,0.120702,0.017243,0,89,75,14,2,0,0,0,0,0;
#CHARTNAME:;
#CHARTSTYLE:;
#CREDIT:djfipu;
#NOTES:
0000
0000
0000
0000
,
0000
0000
0000
0000
,
0000
0000
0000
0000
,
0000
0000
0000
0000
,
1000
0000
0000
0000
,
0001
0000
0000
0000
,
0010
0000
0000
0000
,
0001
0000
1001
0000
,
1000
0000
0000
0000
,
0010
0000
0000
0000
,
0100
0000
0000
0000
,
0010
0000
0000
0110
,
0001
0000
0000
0000
,
0010
0000
0000
0000
,
0100
0000
0000
0000
,
1000
0000
0000
1001
,
0001
0000
0000
0000
,
1000
0000
0000
0000
,
0100
0000
0000
0000
,
0010
0000
0000
0000
,
0100
0000
0000
0000
,
1000
0000
0000
0000
,
0001
0000
0000
0000
,
0100
0000
0200
0000
,
0310
0000
0000
0000
,
0110
0000
0000
0000
,
1000
0000
0000
0000
,
1001
0000
0000
0000
,
0001
0000
0000
0000
,
0100
0000
0000
0000
,
0001
0000
0000
0000
,
1000
0000
0000
0000
,
1001
0000
0000
0000
,
0100
0000
0000
0000
,
1001
0000
0000
0000
,
0010
0000
0000
0000
,
1001
0000
0000
0000
,
0010
0000
0000
0000
,
0100
0000
0000
0000
,
0110
0000
0000
1001
,
1000
0000
0000
0000
,
0100
0000
0000
0000
,
0010
0000
0000
0000
,
0001
0000
0000
0000
,
0100
0000
0000
0000
,
0010
0000
0000
0000
,
0100
0000
0000
0000
,
0001
0000
0000
0000
,
1000
0000
0000
0000
,
1000
0000
0000
0000
,
0001
0000
0000
0000
,
0001
0000
0000
0000
,
0010
0000
0000
0000
,
0100
0000
0000
0000
,
0010
0000
0000
0000
,
0010
0000
0000
0000
,
0000
0000
0110
0000
,
0000
0000
1000
0000
,
0000
0000
0110
0000
,
0000
0000
0001
0000
,
0000
0000
0110
0000
,
0000
0000
1000
0000
,
0000
0000
0001
0000
,
0000
0000
0010
0000
,
0000
0000
0200
0000
,
0000
0000
0310
0000
,
0000
0000
0001
0000
,
0000
0000
1000
0000
,
0000
0000
0010
0000
,
0000
0000
0100
0000
,
0000
0000
0010
0000
,
0000
0000
0100
0000
,
0000
0000
0001
0000
,
0000
1001
0000
0000
;

//--------------- dance-single - ----------------
#NOTEDATA:;
#STEPSTYPE:dance-single;
#DESCRIPTION:;
#DIFFICULTY:Easy;
#METER:7;
#RADARVALUES:0.322693,0.315765,0.094837,0.16381,0,262,251,11,19,0,0,0,0,0,0.322693,0.315765,0.094837,0.16381,0,262,251,11,19,0,0,0,0,0;
#CHARTNAME:;
#CHARTSTYLE:;
#CREDIT:djfipu;
#NOTES:
0000
0000
0000
0000
,
0000
0000
0000
0000
,
0000
0000
0000
0000
,
0000
0000
0000
0000
,
0001
0100
0001
0100
,
0001
0010
0001
0010
,
0100
1000
0100
1000
,
0100
0010
0110
0000
,
2000
3010
2000
3001
,
1000
0100
0010
0100
,
1000
0001
0200
0310
,
0100
0001
1000
1001
,
0002
0103
0002
1003
,
0001
0010
0100
0010
,
0001
1000
0020
0130
,
0010
1000
0001
1001
,
1000
0100
2000
3000
,
0001
0100
0001
0010
,
0100
0010
0002
0003
,
1000
0010
0200
0300
,
0010
1000
0020
0130
,
0000
0001
1000
0100
,
0010
0100
2000
3000
,
0001
1000
0200
0300
,
0110
0000
0000
0000
,
1001
0001
0100
0010
,
1000
0000
0000
0000
,
1000
0010
0100
0001
,
1000
1000
0000
0001
,
1000
1000
0000
0100
,
0010
0001
1000
0010
,
0110
0010
0010
0010
,
0010
1000
0001
1000
,
0100
0010
0010
0010
,
0010
0001
1000
0001
,
0100
0010
0010
0010
,
0010
1000
0100
1000
,
0001
0000
0100
0100
,
0010
0010
1000
0001
,
1001
0000
0000
0110
,
0002
0103
0002
1003
,
0001
0010
0100
0010
,
0001
1000
0020
0130
,
0010
1000
0001
0001
,
2000
3010
2000
3001
,
1000
0100
0010
0100
,
1000
0001
0200
0310
,
0100
0001
1000
0000
,
1000
0001
0100
0001
,
0010
0010
0100
0100
,
0000
1000
0001
1000
,
0010
0010
0100
0100
,
0010
1000
0001
0100
,
0010
1000
1000
0001
,
0000
1000
0100
0010
,
0100
1000
1001
0001
,
0001
0001
0001
1000
,
0010
0100
0010
1000
,
1000
1000
1000
0001
,
0010
0100
1000
0001
,
0001
0001
0001
1000
,
0010
0100
0010
1000
,
0001
0001
1000
1000
,
0100
0010
0110
0000
,
0000
0000
2000
0000
,
0000
0000
3001
0010
,
0001
0100
0001
0010
,
0100
1000
0010
0100
,
0010
1000
0010
0100
,
0001
0001
1000
0100
,
1000
0010
1000
0100
,
0010
0001
1000
1000
,
0001
0001
0100
0010
,
0100
1001
0000
0000
;

//--------------- dance-single - offbeat+ XO- ----------------
#NOTEDATA:;
#STEPSTYPE:dance-single;
#DESCRIPTION:offbeat+ XO-;
#DIFFICULTY:Medium;
#METER:11;
#RADARVALUES:0.445859,0.536801,0.241404,0.560403,0,362,334,28,65,0,0,0,0,0,0.445859,0.536801,0.241404,0.560403,0,362,334,28,65,0,0,0,0,0;
#CHARTNAME:;
#CHARTSTYLE:;
#CREDIT:djfipu;
#NOTES:
0000
0000
0000
0000
,
0000
0000
0000
0000
,
0000
0000
0000
0000
,
0000
0000
0000
0000
,
0000
2000
3000
0020
0030
0200
0300
0020
,
0030
2000
3000
0002
0003
0020
0030
0200
,
0300
0020
0030
0002
0003
2000
3000
0020
,
0030
0100
0001
1000
0001
0000
0000
0000
,
2000
0000
3001
0010
0002
0000
1003
0100
,
0010
0001
2000
3010
,
0000
0200
0000
0301
0010
0000
0100
0000
,
1000
0001
1000
0010
2000
0000
3100
0000
,
0020
0000
0031
1000
0200
0000
1300
0001
,
0100
0010
2000
3001
,
0000
2000
0000
3010
0100
0000
0001
0010
,
0001
1000
0001
0100
0010
0000
0110
0000
,
0020
0000
2030
0000
3002
0000
0003
1000
,
0100
1000
0001
1000
0020
0000
0230
0000
,
0302
0000
2003
0000
3200
0000
0300
0010
,
0001
0010
0001
1000
0002
0000
0103
0000
,
0010
1000
1001
0001
,
0010
0100
0010
0001
0010
0100
1000
0000
,
0001
0100
0110
0010
,
1000
0100
0010
0001
0200
0000
0310
0000
,
1000
0000
0000
0000
,
1000
0100
1000
0100
0010
0001
0010
0001
,
1000
0000
0000
0000
,
0001
0100
0001
0100
0010
1000
0010
1000
,
0002
0000
0013
0000
0010
0100
1000
0100
,
2000
3010
0010
0100
,
0001
0000
1000
0000
0001
0100
0010
1000
,
0001
1100
1100
1100
,
0101
0000
0001
0100
0001
1000
0001
0100
,
0001
0011
0011
0011
,
1010
0000
1000
0100
1000
0001
1000
0100
,
1000
1010
1010
0101
,
0101
0000
0001
1000
0100
1000
0001
1000
,
0010
0100
0020
0032
,
0203
0000
2300
0000
3010
0100
0010
0100
,
0020
0000
0000
0130
,
0002
0000
1003
0100
2000
0000
3001
0010
,
0100
1000
0002
0103
,
0000
0020
0000
1030
0100
0000
0010
0000
,
0001
1000
0001
0100
0002
0000
0013
0000
,
0200
0000
1300
0001
0020
0000
0031
1000
,
0010
0100
0002
1003
,
0000
0002
0000
0103
0010
0000
1000
0100
,
1000
0001
1000
0010
0100
0000
0000
0000
,
0001
1000
0100
1000
,
0010
0100
0001
0100
,
0010
1000
0100
0010
,
0001
1000
0010
0100
,
0010
2000
3000
0002
0003
0200
0300
0020
,
0030
0200
0300
0002
0003
2000
3000
0200
,
0300
0020
0030
0002
0003
2000
3000
0200
,
0310
0001
0010
0001
1000
0000
0101
0000
,
1010
0000
1100
0000
0011
0000
0001
0010
,
1000
0010
0001
1000
0001
0000
0101
0000
,
1010
0000
0011
0000
1100
0000
1000
0100
,
0001
0100
1000
0001
1000
0000
1100
0000
,
1010
0000
0011
0000
0101
0000
0001
0100
,
1000
0100
0001
1000
0001
0000
0010
0000
,
0200
0302
0023
2030
,
3100
1000
0100
1000
0002
0000
0000
0000
,
0000
0000
0200
0000
,
0000
0000
0303
0000
0001
0000
1000
0100
,
1000
0000
0001
0010
0100
0000
1000
0000
,
0010
0000
0100
0000
0000
0010
0000
0010
,
1000
0000
1000
0001
1000
0000
0100
0000
,
0010
0000
0001
0000
1000
0000
0001
0100
,
0001
0000
1000
0100
0010
0000
0001
0000
,
1000
0000
0001
0000
0000
0001
0000
0001
,
0100
0000
0010
0000
0010
1000
0010
0100
,
0001
1001
0000
0000
;

//--------------- dance-single - XO DT ----------------
#NOTEDATA:;
#STEPSTYPE:dance-single;
#DESCRIPTION:XO DT;
#DIFFICULTY:Hard;
#METER:13;
#RADARVALUES:0.545623,0.536801,0.336242,0.646619,0.05604,443,404,39,75,0,0,4,0,0,0.545623,0.536801,0.336242,0.646619,0.05604,443,404,39,75,0,0,4,0,0;
#CHARTNAME:;
#CHARTSTYLE:;
#CREDIT:djfipu;
#NOTES:
0000
0000
0000
0000
,
0000
0000
0000
0000
,
0000
0000
0000
0000
,
0000
0000
0000
0000
,
2000
0000
3010
0010
2000
0000
3001
0001
,
1000
1000
0100
0100
2000
0000
3002
0000
,
0003
0100
0010
0100
0002
0000
0103
0100
,
0010
0000
1000
0100
1000
0000
0001
0000
0100
0000
0000
0000
0000
0000
0000
0000
,
2001
0000
3001
0010
2000
0000
3010
0001
,
1000
1000
0010
0100
0002
0000
0103
0000
,
0001
0010
0001
1000
0200
0000
1300
1000
,
0001
0001
0100
0010
1000
0000
0110
0000
,
1002
0000
1003
0100
0002
0000
0103
0010
,
0001
0000
0000
1000
0100
1000
0100
0000
0000
0010
0000
0000
0200
0000
0000
0000
0000
0000
1300
0000
0000
0000
0000
0000
,
1000
0002
2003
3200
0320
0000
0031
0001
,
1000
0000
0001
0010
0001
0000
0010
0000
0100
0000
0000
0000
0110
0000
0000
0000
,
1001
0001
0100
0001
0020
0000
0130
1000
,
0001
0100
0010
1000
0100
1000
0020
0000
,
0230
0000
0302
0000
2003
0000
3100
1000
,
0100
0010
1000
0010
0200
0000
0310
0000
,
0001
0100
0010
0100
0002
0000
1003
0000
,
0010
0000
0100
0001
0100
0000
0010
0000
1000
0000
0100
0000
0020
0000
0000
0000
,
0031
1000
0020
0100
0130
0000
1001
0000
,
0011
0000
0001
0010
0100
0000
1000
0000
0200
0000
0000
0000
0310
0000
0000
0000
,
0000
0000
0000
0000
,
0001
0000
1000
0000
0100
0000
0010
0000
0001
0000
1000
0000
0010
0100
0010
0100
,
0010
0000
0000
0000
,
1000
0001
0010
0100
1000
0001
0100
1000
,
0200
0000
0302
0000
1003
1000
0100
0001
,
0200
0000
2300
0000
3001
0100
0010
0100
,
0001
0000
1010
0000
1000
0100
0010
0001
,
1000
1001
1100
1010
,
0101
0000
0100
1000
0100
0010
0100
0001
,
1000
0110
1001
0011
,
1100
0000
0100
0001
0100
0010
0100
1000
,
0001
0011
0101
1100
,
1010
0000
0010
0001
0010
0100
0010
1000
,
0001
0110
0002
0023
,
2030
0000
3020
0000
0031
1000
0001
0100
,
0004
4000
0000
0000
0000
0000
0000
0000
3003
0000
0000
0000
0110
0000
0000
0000
,
1002
0000
1003
0100
0002
0000
0103
1000
,
0001
0001
0100
0010
2000
0000
3010
0000
,
1000
0100
1000
0001
0020
0000
0031
0001
,
1000
1000
0010
0100
0001
0000
0010
0000
,
2001
0000
3001
0010
2000
0000
3010
0100
,
1000
0000
0000
0001
0010
0001
0010
0000
0000
0100
0000
0000
0020
0000
0000
0000
0000
0000
0031
0000
0000
0000
0000
0000
,
0001
2000
3002
0023
0230
0000
1300
1000
,
0001
0000
1000
0100
1000
0000
0001
0000
0010
0000
0000
0000
0000
0000
0000
0000
,
0002
0000
0013
0010
0002
0000
0103
0100
,
0010
0010
1000
1000
0002
0000
0203
0000
,
0300
0001
1000
0100
0020
0000
0130
0100
,
1000
1000
0001
0001
0020
0000
0230
0000
,
2300
0000
3010
0010
2000
0000
3100
0100
,
0010
0010
0001
0001
2000
0000
3002
0000
,
0003
0100
0010
0100
0002
0000
0103
0100
,
0010
0000
1000
0100
0010
0000
0001
0000
0100
0000
0000
0000
1001
0000
0000
0000
,
0110
0000
1010
0000
0101
0000
0001
0100
,
1000
0001
0010
1000
0001
0000
0011
0000
,
1001
0000
0110
0000
1100
0000
1000
0100
,
0001
1000
0010
0001
1000
0000
0101
0000
,
0110
0000
1001
0000
1010
0000
0001
0100
,
1000
0001
0010
1000
0001
0000
0110
0000
,
2000
3020
0032
0023
,
1030
0000
1000
0000
0001
0000
0100
0000
0004
4000
0000
0000
0000
0000
0000
0000
,
0000
3003
0020
0000
,
0000
0000
0030
0000
2001
0000
3100
0010
,
0002
0000
0103
0010
1000
1000
0001
0001
,
0020
0000
0230
0000
0300
1000
0010
0001
,
0020
0000
0130
0100
0010
0010
0001
0001
,
0020
0000
2030
0000
3002
0000
0013
0100
,
2000
0000
3010
0100
0001
0001
1000
1000
,
0200
0000
0320
0000
0030
0001
0100
1000
,
0200
0000
0000
0000
0310
0000
0010
0000
0100
0000
0001
1000
0100
0000
0010
0000
,
0200
0300
1001
0000
0000
0000
0000
0000
;
