#VERSION:0.83;
#TITLE:万物快楽理論;
#SUBTITLE:;
#ARTIST:あさき;
#TITLETRANSLIT:Banbutsu kairaku riron;
#SUBTITLETRANSLIT:;
#ARTISTTRANSLIT:Asaki;
#GENRE:Glossolalia;
#ORIGIN:;
#CREDIT:;
#BANNER:Banbutsu kairaku riron.png;
#BACKGROUND:Banbutsu kairaku riron-bg.png;
#PREVIEWVID:;
#JACKET:Banbutsu kairaku riron-jacket.png;
#CDIMAGE:;
#DISCIMAGE:;
#LYRICSPATH:;
#CDTITLE:cdtitle.png;
#MUSIC:Banbutsu kairaku riron.ogg;
#OFFSET:-0.352400;
#SAMPLESTART:89.765518;
#SAMPLELENGTH:11.111115;
#SELECTABLE:YES;
#BPMS:0.000=128.000,
8.000=121.000,
22.000=120.000,
25.000=110.000,
28.000=135.000,
191.000=128.000,
194.000=120.000,
195.000=114.000,
196.500=135.000,
221.500=130.000,
227.500=135.000;
#STOPS:112.250=0.444;
#DELAYS:;
#WARPS:;
#TIMESIGNATURES:0.000=4=4;
#TICKCOUNTS:0.000=4;
#COMBOS:0.000=1;
#SPEEDS:0.000=1.000=0.000=0;
#SCROLLS:0.000=1.000;
#FAKES:24.750=3.000;
#LABELS:0.000=Song Start;
#BGCHANGES:;
#KEYSOUNDS:;
#ATTACKS:
;

//---------------dance-single - ----------------
#NOTEDATA:;
#CHARTNAME:;
#STEPSTYPE:dance-single;
#DESCRIPTION:;
#CHARTSTYLE:;
#DIFFICULTY:Challenge;
#METER:16;
#RADARVALUES:0.800026,0.855670,0.445825,0.469289,0.958132,716.000000,659.000000,57.000000,60.000000,15.000000,0.000000,0.000000,0.000000,18.000000,0.800026,0.855670,0.445825,0.469289,0.958132,716.000000,659.000000,57.000000,60.000000,15.000000,0.000000,0.000000,0.000000,18.000000;
#CREDIT:;
#NOTES:
// measure 0
0000
0000
0000
0000
,  // measure 1
0000
0000
0000
0000
,  // measure 2
1000
0000
0010
0000
0100
0010
1000
0000
0001
0010
0100
1000
0100
0010
0001
0000
,  // measure 3
1000
0001
0100
0002
0010
0000
0000
0000
1003
0000
0000
0000
0001
0100
0010
1000
,  // measure 4
0010
0100
0001
0000
1000
0000
0000
0000
0001
1000
0100
2000
0010
0000
0000
0000
,  // measure 5
3001
0000
1000
0100
0001
0000
0220
0000
,  // measure 6
0330
0000
0000
0000
0000
0000
0000
0000
0000
0000
0000
0000
0000
0000
0000
0000
0000
0000
0000
0000
0000
0000
0000
0000
0000
0000
0000
0000
0000
0000
0000
0000
0000
0000
0000
0000
0000
0000
0000
0000
0000
0000
0000
0000
0000
0000
0000
0000
M000
0000
0000
0000
0000
0000
0000
0M00
0000
0000
0000
0000
0000
0000
00M0
0000
0000
0000
0000
0000
0000
000M
0000
0000
0000
0000
0000
M000
0000
0000
0000
0000
0000
0000
00M0
0000
0000
0000
0000
0000
0000
0M00
0000
0000
0000
0000
0000
0000
000M
0000
0000
0000
0000
0000
00M0
0000
0000
0000
0000
0000
M000
0000
0000
0000
0000
0000
0M00
0000
0000
0000
0000
0000
000M
0000
0000
0000
0000
0000
00M0
0000
0000
0000
0000
0000
M000
0000
0000
0000
0000
0000
0000
0000
0000
0000
0000
0000
M000
0000
0000
0000
0000
0000
0000
0000
0000
0000
0000
0000
0M00
0000
0000
0000
0000
0000
00M0
0000
0000
0000
0000
0000
0000
0000
0000
0000
0000
0000
000M
0000
0000
0000
0000
0000
0000
0000
0000
0000
0000
0000
0000
0000
0000
0000
0000
0000
,  // measure 7
1000
0000
0010
0000
0100
0010
0100
2000
0000
3100
0000
0010
1000
0010
0100
0001
,  // measure 8
1000
0000
0100
0000
0010
0100
0010
2000
0000
3010
0000
0100
0010
0100
1000
0001
,  // measure 9
1000
0010
1000
0010
0100
0010
0000
0002
0000
0013
0000
0100
0010
0000
1000
0000
,  // measure 10
0001
1000
0001
1000
0100
0010
0100
0002
0000
0000
0103
0010
0100
1000
0001
0000
,  // measure 11
1000
0001
0100
0001
0010
0001
0100
0001
1000
0001
0010
0001
0100
0001
0010
0001
,  // measure 12
1000
0001
0100
0001
0010
0001
0100
0001
1000
0001
0010
0000
0001
0000
0100
0000
,  // measure 13
1002
0000
0013
0000
2001
0000
3010
0200
0000
0000
2300
0000
0000
0000
3100
0010
,  // measure 14
2000
0000
0001
0000
3100
0010
0100
0002
0000
0000
0103
0010
0100
1000
0001
1000
,  // measure 15
0001
0100
0010
M000
0011
0000
1000
0100
,  // measure 16
0010
0000
000M
0000
1010
0000
0000
0000
0001
0000
0100
00M0
0100
0000
1000
0000
,  // measure 17
0010
1000
0001
1000
0100
0000
1000
0000
0001
0000
1000
0010
0000
0010
1000
0000
,  // measure 18
0001
1000
0100
1000
0001
2002
3003
1000
,  // measure 19
0010
0000
0000
0000
0000
0000
1000
0000
0000
0000
0000
0000
0001
0000
0000
0000
0000
0000
0010
0000
0000
0100
0000
0000
0010
0000
0000
0000
0000
0000
1000
0000
0000
0000
0000
0000
0010
0000
0000
0000
0100
0000
0000
0000
0010
0000
0000
0000
,  // measure 20
0001
1000
0010
0100
0010
0001
0010
0100
0010
1000
0001
0000
2000
0000
3200
0000
,  // measure 21
0310
0001
1000
0001
0100
0000
0101
0000
0101
0000
1000
0010
0000
1000
0010
0000
,  // measure 22
2010
0000
0001
0000
3100
0000
1100
0000
1100
0000
0001
0010
0000
0001
0010
0000
,  // measure 23
0012
0000
1000
0000
0103
0000
0101
0000
1010
0000
0001
0100
0000
0010
1000
0000
,  // measure 24
2001
0000
0010
0000
3100
0000
1100
0000
0011
0000
0001
1000
0000
0001
0100
0010
,  // measure 25
0001
0010
0100
0010
2000
0000
3010
0000
MM11
0000
0000
0000
0001
0010
0100
1000
,  // measure 26
0010
0100
0001
0000
1000
0002
0000
0000
0010
0000
0013
0000
1M1M
0000
0000
0000
,  // measure 27
1000
0010
0100
0001
0010
0100
1000
0000
0002
0000
0100
0000
2003
0000
0010
0000
,  // measure 28
0001
3001
0000
0000
0001
0000
0010
0000
0100
0010
0100
0002
0000
0103
0000
0010
,  // measure 29
0001
0010
0100
1000
0001
0000
0100
0000
0010
0100
0010
0002
0000
0013
0000
0100
,  // measure 30
0010
0100
0001
1000
0001
0010
0001
0010
0100
0010
0000
2000
0000
3010
0000
0100
,  // measure 31
0010
0000
0001
0000
1000
0010
0100
0001
0010
0100
1000
1001
0000
0000
0000
0000
,  // measure 32
0000
0000
0000
0000
1000
0010
0100
0000
0101
0000
0001
0010
0100
0000
1100
0000
,  // measure 33
1000
0001
0100
0010
2000
0000
0010
0000
0010
0000
3001
0100
0000
0010
1000
0000
,  // measure 34
0001
0000
1000
0000
0001
0010
0000
0100
0010
0000
1000
0010
0000
0100
0010
0001
,  // measure 35
1000
0000
1001
0000
0002
0100
0000
2003
0010
0000
3002
0100
0000
1003
0010
0100
,  // measure 36
0001
0000
1001
0000
0001
0010
0100
0000
1100
0000
1000
0010
0100
0000
0101
0000
,  // measure 37
0001
1000
0100
0010
0002
0000
0010
0000
0010
0000
1003
0100
0000
0010
0001
0000
,  // measure 38
1001
0000
1001
0000
1000
0010
0000
0100
0010
0000
0001
0010
0000
0100
0010
0100
,  // measure 39
0001
0000
1000
0000
0001
0010
0000
0100
0010
0000
1000
0010
0000
0100
0010
0100
,  // measure 40
1000
0001
0100
0010
1000
0000
0010
0000
0001
0000
M000
0000
0101
0000
0000
0000
,  // measure 41
0001
0000
0010
0000
1000
0000
000M
0000
1100
0000
0000
0000
1000
0000
0010
0M00
,  // measure 42
0010
0000
0001
0000
0100
00M0
0100
0000
1000
0000
0010
0M00
0010
0000
0001
0000
,  // measure 43
1001
0000
1000
0010
0100
0010
0100
0001
1000
0001
0010
0000
0100
1000
0001
1000
,  // measure 44
0010
0000
0001
0000
0010
0000
1000
0000
1010
0M00
0011
0000
0010
0000
1000
0000
,  // measure 45
0010
0000
0001
0000
0011
0M00
1010
0000
0001
0000
0100
00M0
0100
0000
1000
0000
,  // measure 46
2010
0000
3001
0000
2001
0000
3100
0000
1100
0000
1100
0000
0001
1000
0001
0000
,  // measure 47
1000
0010
0100
0010
0001
1000
0100
0010
0100
0001
1000
0000
0001
0010
0001
1000
,  // measure 48
0010
0000
0000
1000
0000
0000
0001
0000
0000
0010
0000
0000
0001
0000
0000
0100
0000
0000
0010
0000
0000
0100
0000
0000
0001
0000
0000
0000
0001
0000
0000
0000
0001
0000
0000
0000
1000
0000
0000
0000
0000
0000
1000
0000
0000
0000
0000
0000
,  // measure 49
1000
0000
2001
0000
0001
0000
3100
0010
1000
0020
0000
0130
1000
0000
0001
0010
,  // measure 50
0100
1000
0002
0000
1000
0000
0103
0010
0001
0020
0000
0130
0010
0000
1010
0000
,  // measure 51
1001
0021
0100
0100
0032
1000
0103
0101
,  // measure 52
0110
0000
1010
0000
0001
1000
0100
0000
0020
0000
0000
0000
0130
0000
1000
0001
,  // measure 53
0100
0010
1000
0000
1010
0000
0001
0010
0001
0020
0000
0000
0130
0000
0010
0001
,  // measure 54
1000
0001
0100
0010
0100
0010
0100
1000
0100
0001
1000
0100
0010
0100
0001
0100
,  // measure 55
1000
0001
0100
0010
0100
0010
2000
0000
0000
0000
0010
0000
0000
0000
0001
0000
,  // measure 56
0000
0000
3100
0000
0010
0000
0002
0000
0000
0000
0010
0000
0000
0000
1003
0010
,  // measure 57
0100
0010
0002
0000
0000
0000
0013
0000
1000
0000
0001
0000
0010
0000
0100
0000
,  // measure 58
0010
0000
2000
0000
0000
0000
3010
0000
0001
0000
1000
0000
1001
0000
0001
0100
,  // measure 59
0010
1000
2010
0000
0001
0000
0001
0000
3100
0010
0001
0000
1000
0001
0100
0001
,  // measure 60
0010
0000
0000
0000
0000
0000
0012
0000
0000
0000
0000
0000
1003
0000
0000
0001
0000
0000
0100
0000
0000
0000
0010
0000
0000
0000
1000
0000
0000
0000
2020
0000
0000
0000
0000
0000
0000
0000
0000
0000
0000
0000
3030
0000
0000
0000
0000
0000
,  // measure 61
0000
0000
1001
0000
0000
0000
1000
0100
0010
0200
0001
0000
0000
0000
0310
0000
,  // measure 62
0001
0000
1000
0001
1000
0001
0100
0010
0200
1000
0000
0000
0000
0000
0310
1000
,  // measure 63
0001
0000
1000
0100
0010
0100
2000
0000
0010
0000
3001
0100
0010
0100
0002
0000
,  // measure 64
0010
0000
1003
0100
1000
0100
0010
1000
0010
0001
0100
0000
0010
0000
1020
0000
,  // measure 65
0000
0000
0031
0010
1000
0100
0002
0000
0000
0000
1003
0010
0001
0100
2000
0000
,  // measure 66
0000
0000
3001
0010
0001
0010
1000
0000
0000
0000
2002
0000
0000
0000
0000
0000
,  // measure 67
0000
0000
0000
0000
0000
0000
3003
0000
0000
0000
1000
0100
0010
0001
1000
0001
,  // measure 68
0100
0010
1010
0000
0011
0000
1010
0000
0000
0000
0000
0000
0000
0000
0000
0000
;

//---------------dance-single - ----------------
#NOTEDATA:;
#CHARTNAME:;
#STEPSTYPE:dance-single;
#DESCRIPTION:;
#CHARTSTYLE:;
#DIFFICULTY:Hard;
#METER:14;
#RADARVALUES:0.644714,0.641753,0.320681,0.500575,0.559236,577.000000,536.000000,41.000000,64.000000,0.000000,0.000000,0.000000,0.000000,18.000000,0.644714,0.641753,0.320681,0.500575,0.559236,577.000000,536.000000,41.000000,64.000000,0.000000,0.000000,0.000000,0.000000,18.000000;
#CREDIT:;
#NOTES:
// measure 0
0000
0000
0000
0000
,  // measure 1
0000
0000
0000
0000
,  // measure 2
1000
0010
0100
0000
0001
0010
0100
0000
,  // measure 3
1000
0001
2000
0000
0010
0000
0000
0000
3001
0000
0000
0000
0001
0000
0100
0000
,  // measure 4
1000
0000
0100
0000
0001
0000
0000
0000
0001
1000
0002
0000
0010
0000
0000
0000
,  // measure 5
1003
0000
1000
0100
0001
0000
0220
0000
,  // measure 6
0330
0000
0000
0000
0000
0000
0000
0000
0000
0000
0000
0000
0000
0000
0000
0000
0000
0000
0000
0000
0000
0000
0000
0000
0000
0000
0000
0000
0000
0000
0000
0000
0000
0000
0000
0000
0000
0000
0000
0000
0000
0000
0000
0000
0000
0000
0000
0000
M000
0000
0000
0000
0000
0000
0000
0M00
0000
0000
0000
0000
0000
0000
00M0
0000
0000
0000
0000
0000
0000
000M
0000
0000
0000
0000
0000
M000
0000
0000
0000
0000
0000
0000
00M0
0000
0000
0000
0000
0000
0000
0M00
0000
0000
0000
0000
0000
0000
000M
0000
0000
0000
0000
0000
00M0
0000
0000
0000
0000
0000
M000
0000
0000
0000
0000
0000
0M00
0000
0000
0000
0000
0000
000M
0000
0000
0000
0000
0000
00M0
0000
0000
0000
0000
0000
M000
0000
0000
0000
0000
0000
0000
0000
0000
0000
0000
0000
M000
0000
0000
0000
0000
0000
0000
0000
0000
0000
0000
0000
0M00
0000
0000
0000
0000
0000
00M0
0000
0000
0000
0000
0000
0000
0000
0000
0000
0000
0000
000M
0000
0000
0000
0000
0000
0000
0000
0000
0000
0000
0000
0000
0000
0000
0000
0000
0000
,  // measure 7
1000
0000
0010
0000
0100
0000
0010
0002
0000
0000
0013
0000
0100
0010
1000
0000
,  // measure 8
0001
0000
0010
0000
0100
0000
0010
2000
0000
0000
3010
0000
0001
1000
0001
1000
,  // measure 9
0001
0000
0100
0000
0010
0100
0000
2000
0000
0000
3100
0000
0010
0100
0001
0000
,  // measure 10
1000
0000
0100
0000
0010
0100
0000
0002
0000
0000
0103
0000
0010
0000
0001
1000
,  // measure 11
0001
0000
0100
0000
0010
0000
2000
0010
0000
3002
0100
0000
1003
0001
1000
0001
,  // measure 12
1000
0000
0100
0000
0010
0000
0002
0010
0000
2003
0100
0000
3001
0000
0100
0000
,  // measure 13
0202
0000
0303
0000
1010
0000
0000
1001
0000
0000
1200
0000
0000
0000
0310
0001
,  // measure 14
1000
0000
0001
0000
0100
0010
0000
2000
0000
0000
3001
1000
0001
1000
0001
0000
,  // measure 15
1000
0100
0020
0000
1000
0000
0031
0100
,  // measure 16
0020
0000
0001
0000
1030
0010
0100
0001
,  // measure 17
0010
0100
0010
0100
1000
0000
0001
0000
1000
0000
0001
0100
0000
0100
0001
0000
,  // measure 18
1000
0001
0010
0001
1000
2002
3003
0001
,  // measure 19
0100
0000
0001
0000
1000
0000
0100
0010
0100
0000
1000
0000
0002
0000
0100
0000
,  // measure 20
2003
0000
0010
0000
3001
0000
1000
0100
0010
0001
0000
0000
2000
0000
3200
0000
,  // measure 21
0302
0000
0203
0000
2300
0000
0001
0000
0001
0000
3010
0100
0000
0010
1000
0000
,  // measure 22
1010
0000
1000
0000
0002
0000
1000
0000
1000
0000
0013
0100
0000
0010
0001
0000
,  // measure 23
0011
0000
0001
0000
1000
0000
0010
0000
0100
0000
1000
0100
0000
0010
1000
0000
,  // measure 24
1010
0000
1000
0000
0001
0000
0010
0000
0100
0000
0001
0100
0000
0010
0001
0000
,  // measure 25
1000
0010
0100
0001
2000
0000
3000
0000
1010
0000
0000
0000
0001
0010
0001
0010
,  // measure 26
0001
0100
0001
0000
2000
0000
3000
0000
0011
0000
0011
0000
2000
0000
3000
0000
,  // measure 27
0001
0100
0001
0100
0001
0010
0001
0000
2000
0000
0010
0000
3002
0000
0100
0000
,  // measure 28
1003
0001
0000
0000
0001
0000
0010
0000
0100
0000
0010
2000
0000
0000
3010
0000
,  // measure 29
0100
0010
0001
0000
1000
0000
0010
0000
0100
0000
0010
0002
0000
0000
0013
0000
,  // measure 30
1000
0001
1000
0001
1000
0000
0100
0000
0010
0100
0000
0002
0000
0000
0103
0000
,  // measure 31
0010
0100
1000
0000
0001
0000
0100
0000
0010
1000
0001
0010
0000
0000
0000
0000
,  // measure 32
0000
0000
0000
0000
0001
0010
0001
0000
1000
0000
0001
0100
0001
0000
0010
0000
,  // measure 33
0012
0000
0000
0000
1003
0000
1000
0000
1000
0000
0001
0100
0000
1000
0100
0000
,  // measure 34
0001
0000
1000
0000
0001
0010
0000
0100
1000
0000
0001
0100
0000
0010
1000
0000
,  // measure 35
0001
0000
0010
0000
1100
0000
0000
1010
0000
0000
0101
0000
0000
0011
0000
0000
,  // measure 36
1001
0000
1001
0000
1000
0010
1000
0000
0001
0000
1000
0100
1000
0000
0010
0000
,  // measure 37
2010
0000
0000
0000
3001
0000
0001
0000
0001
0000
1000
0100
0000
0001
0100
0000
,  // measure 38
1000
0000
0001
0000
1000
0010
0000
1000
0100
0000
1000
0010
0000
0100
0001
0000
,  // measure 39
1000
0000
1000
0000
0001
0010
0000
0001
0100
0000
0001
0010
0000
0100
1000
0000
,  // measure 40
0001
1000
0001
0000
1000
0000
0010
0000
0200
0000
0000
0000
1000
0000
0000
0000
,  // measure 41
0301
0010
0200
0000
0001
0000
1300
0001
,  // measure 42
0100
0010
0001
1000
0100
0010
1000
0001
,  // measure 43
0010
0000
0001
0010
0001
0000
1000
0000
1000
0000
0001
0100
0001
0000
1000
0000
,  // measure 44
0001
0020
1000
0030
0011
0001
1000
0020
,  // measure 45
0001
0030
1010
1000
0001
0010
0100
0001
,  // measure 46
1000
0010
0100
1000
1001
0000
0001
1000
,  // measure 47
0010
0100
0010
0100
0001
1000
0100
0000
0010
0000
0001
0000
0011
0000
0000
0101
,  // measure 48
0000
0000
0000
0000
0000
0000
1100
0000
0000
0000
0000
0000
0000
0000
0000
1010
0000
0000
0000
0000
0000
0000
0000
0000
1000
0000
0000
0000
0001
0000
0000
0000
1000
0000
0000
0000
0001
0000
0000
0000
0000
0000
1000
0000
0000
0000
0000
0000
,  // measure 49
0001
0000
2002
0000
3003
0000
0001
0010
0100
0002
0000
0000
0103
0000
0010
0000
,  // measure 50
0001
0000
2002
0000
3003
0000
1000
0010
0100
2000
0000
0000
3100
0000
0010
0000
,  // measure 51
1000
2010
0000
0001
3002
0000
1003
0100
,  // measure 52
0010
0000
0011
0000
0000
1001
0000
0000
0201
0000
0000
0000
0310
0000
1000
0010
,  // measure 53
0100
0001
1000
0000
0000
0000
0001
0010
0100
2000
0000
0000
3010
0000
0100
0000
,  // measure 54
0001
0000
1000
0000
1000
0000
0001
0010
0001
0000
1000
0010
1000
0000
0001
0100
,  // measure 55
0001
0000
1000
0100
1000
0100
0020
0000
0000
0000
0100
0000
0000
0000
0100
0000
,  // measure 56
0000
0000
0031
0000
1000
0000
0020
0000
0000
0000
0100
0000
0000
0000
0130
0001
,  // measure 57
1000
0001
0020
0000
0000
0000
1000
0000
0000
0000
0130
0000
1000
0000
0001
0000
,  // measure 58
0100
0000
0020
0000
0000
0000
0001
0000
0000
0000
0130
0000
0010
0000
1000
0001
,  // measure 59
1000
0001
0020
0000
0100
0000
0100
0000
0031
1000
0001
0000
1000
0010
0000
0010
,  // measure 60
0100
0002
1000
0013
0000
2002
0000
3003
,  // measure 61
0000
0000
1000
0000
0000
0000
1000
0010
1000
0100
0000
0000
0000
0000
1100
0000
,  // measure 62
0000
0000
0001
0000
0001
0000
0001
0010
0001
0100
0000
0000
0000
0000
0101
0000
,  // measure 63
0000
0000
1000
0000
1000
0000
0100
0000
0010
0000
0001
0100
0001
0100
0010
0000
,  // measure 64
1000
0000
0001
0000
0010
0000
0100
1000
0001
1000
0010
0000
0000
0000
1001
0000
,  // measure 65
0000
0000
1000
0100
0010
0100
2000
0000
0000
0000
3001
0100
0010
0100
0002
0000
,  // measure 66
0000
0000
1003
0001
1000
0001
1000
0000
0000
0000
2002
0000
0000
0000
0000
0000
,  // measure 67
0000
0000
0000
0000
0000
0000
3003
0000
0000
0000
0001
0010
0100
1000
0010
0100
,  // measure 68
0001
1001
0110
1001
0000
0000
0000
0000
;

//---------------dance-single - ----------------
#NOTEDATA:;
#CHARTNAME:;
#STEPSTYPE:dance-single;
#DESCRIPTION:;
#CHARTSTYLE:;
#DIFFICULTY:Medium;
#METER:11;
#RADARVALUES:0.488284,0.481314,0.234644,0.469289,0.168162,437.000000,407.000000,30.000000,60.000000,0.000000,0.000000,0.000000,0.000000,18.000000,0.488284,0.481314,0.234644,0.469289,0.168162,437.000000,407.000000,30.000000,60.000000,0.000000,0.000000,0.000000,0.000000,18.000000;
#CREDIT:;
#NOTES:
// measure 0
0000
0000
0000
0000
,  // measure 1
0000
0000
0000
0000
,  // measure 2
1000
0010
0100
0000
0001
0010
0100
0000
,  // measure 3
2000
0010
0010
0000
3001
0000
1000
0100
,  // measure 4
1000
0100
0010
0000
0002
0010
0010
0000
,  // measure 5
1000
0000
0103
0010
1000
0000
2002
0000
,  // measure 6
3003
0000
0000
0000
0000
0000
0000
0000
0000
0000
0000
0000
0000
0000
0000
0000
0000
0000
0000
0000
0000
0000
0000
0000
0000
0000
0000
0000
0000
0000
0000
0000
0000
0000
0000
0000
0000
0000
0000
0000
0000
0000
0000
0000
0000
0000
0000
0000
M000
0000
0000
0000
0000
0000
0000
0M00
0000
0000
0000
0000
0000
0000
00M0
0000
0000
0000
0000
0000
0000
000M
0000
0000
0000
0000
0000
M000
0000
0000
0000
0000
0000
0000
00M0
0000
0000
0000
0000
0000
0000
0M00
0000
0000
0000
0000
0000
0000
000M
0000
0000
0000
0000
0000
00M0
0000
0000
0000
0000
0000
M000
0000
0000
0000
0000
0000
0M00
0000
0000
0000
0000
0000
000M
0000
0000
0000
0000
0000
00M0
0000
0000
0000
0000
0000
M000
0000
0000
0000
0000
0000
0000
0000
0000
0000
0000
0000
M000
0000
0000
0000
0000
0000
0000
0000
0000
0000
0000
0000
0M00
0000
0000
0000
0000
0000
00M0
0000
0000
0000
0000
0000
0000
0000
0000
0000
0000
0000
000M
0000
0000
0000
0000
0000
0000
0000
0000
0000
0000
0000
0000
0000
0000
0000
0000
0000
,  // measure 7
1000
0000
0010
0000
0100
0000
0000
0020
0000
0030
1000
0000
1000
0000
0000
0000
,  // measure 8
0001
0000
0010
0000
0100
0000
0000
0020
0000
0030
0001
0000
0001
0000
0000
0000
,  // measure 9
1000
0000
0010
0000
0001
0000
0000
0020
0000
0030
1000
0000
1000
0000
0000
0000
,  // measure 10
1000
0000
0100
0000
0001
0000
0000
0200
0000
0300
1000
0000
1000
0000
0000
0000
,  // measure 11
0001
0100
0010
1000
0001
0010
0100
1000
,  // measure 12
0001
0100
0010
1000
0001
0010
0100
0010
,  // measure 13
2000
0000
0000
0000
3020
0000
0000
0032
0000
0000
0203
0000
0000
0000
2300
0000
,  // measure 14
3200
0000
0001
0000
0301
0000
0000
2000
0000
3000
0001
0000
0010
0000
0100
0000
,  // measure 15
1000
0002
0010
0000
1003
0000
0001
2000
,  // measure 16
0010
0000
3001
0000
1000
0100
0010
0001
,  // measure 17
0100
0000
0010
0000
1000
0000
0001
0000
1000
0000
0000
0100
0000
0000
1000
0000
,  // measure 18
0001
1000
0001
0100
0001
0020
0000
0130
,  // measure 19
1000
0000
0001
0100
0010
1000
0001
0010
,  // measure 20
0100
0010
1000
0010
0001
0000
1000
0001
,  // measure 21
0100
0010
2010
0000
3001
1000
0100
0010
,  // measure 22
0012
0000
1003
0010
0100
1000
0100
0010
,  // measure 23
1000
0000
0001
0010
0100
0001
0100
0010
,  // measure 24
0001
0000
0000
0000
1000
0000
0010
0000
0100
0000
0001
1000
0000
0000
0001
0000
,  // measure 25
0010
0100
2100
0000
3001
0000
1000
0010
,  // measure 26
0001
0010
2000
0000
3001
1001
2001
0000
,  // measure 27
3001
0010
1000
0010
0001
0100
1000
0100
,  // measure 28
0101
0000
0000
0000
0001
0000
0010
0000
0100
0000
0000
0020
0000
0030
0001
0000
,  // measure 29
0001
0000
0000
0000
1000
0000
0010
0000
0100
0000
0000
0020
0000
0030
1000
0000
,  // measure 30
1000
0000
0000
0000
0001
0000
0010
0000
1000
0000
0000
0020
0000
0030
0001
0000
,  // measure 31
0001
0000
0000
0000
0001
0000
0100
0000
1000
0000
0000
0110
0000
0000
0000
0000
,  // measure 32
0000
0000
0002
0010
0010
2003
0100
0100
,  // measure 33
3002
0000
0013
0100
1000
0001
0100
0010
,  // measure 34
1000
0000
0001
0000
0010
0000
0000
0100
0000
0000
1000
0000
0000
0001
0000
0000
,  // measure 35
0100
0000
0010
0000
1010
0000
0000
0001
0000
0000
0011
0000
0000
1000
0000
0000
,  // measure 36
0001
0001
2000
0010
0010
3002
0100
0100
,  // measure 37
2003
0000
3010
0100
0001
1000
0100
0010
,  // measure 38
0001
0000
1000
0000
0010
0000
0000
0001
0000
0000
0010
0000
0000
1000
0000
0000
,  // measure 39
0001
0000
0001
0000
0010
0000
0000
1000
0000
0000
0010
0000
0000
0001
0000
0000
,  // measure 40
1000
1000
0001
0200
0010
0000
0301
0000
,  // measure 41
1000
0200
0010
0000
1300
0000
0001
0100
,  // measure 42
0010
1000
0100
1000
0010
0100
0001
0001
,  // measure 43
1000
0100
0010
0000
0001
0100
0010
0000
,  // measure 44
2000
0010
3001
0000
1001
0000
0002
0010
,  // measure 45
1003
0000
1001
0000
0002
0100
2003
0100
,  // measure 46
3001
1000
1001
0000
0001
0001
1000
0010
,  // measure 47
0001
0000
1000
0000
0100
0000
0001
0000
1000
0000
0000
0000
1100
0000
0000
0001
,  // measure 48
0000
0000
0011
0000
0000
1000
0000
0000
0002
0000
0000
0000
2003
0000
0000
0000
,  // measure 49
3000
0000
1002
0000
0000
0000
1003
0000
0010
0002
0000
0000
0013
0000
1000
0000
,  // measure 50
0001
0000
2001
0000
0000
0000
3001
0000
0010
2000
0000
0000
3010
0000
0001
0000
,  // measure 51
1000
0020
0000
0100
0230
0000
0310
1000
,  // measure 52
0001
0000
0011
0000
0000
0110
0000
0000
2100
0000
0000
0000
0000
0000
3001
0000
,  // measure 53
0100
0000
0010
0000
1000
0000
0100
0000
0010
0002
0000
0000
1003
0000
0001
0000
,  // measure 54
0100
0010
0010
1000
0010
0001
0010
1000
,  // measure 55
0100
0001
0100
2000
0000
0100
0000
0001
,  // measure 56
0000
3010
0100
0002
0000
0100
0000
1003
,  // measure 57
0100
0020
0000
1000
0000
0130
1000
0001
,  // measure 58
0100
0020
0000
0001
0000
0130
0010
1000
,  // measure 59
0001
0000
2000
0000
0100
0000
0100
0000
3001
0000
0011
0000
0000
1100
0000
0000
,  // measure 60
0002
0100
0100
1003
0000
2020
0000
3030
,  // measure 61
0000
0001
0000
0001
0010
1000
0000
0011
,  // measure 62
0000
1000
0010
1000
0010
0001
0000
1010
,  // measure 63
0000
0001
0100
1000
0000
0100
0001
0010
,  // measure 64
0000
0100
0001
0100
1000
0001
0000
1001
,  // measure 65
0000
2000
0010
0100
0000
3002
0010
0100
,  // measure 66
0000
0000
1003
0001
1000
0001
1000
0000
0000
0000
2002
0000
0000
0000
0000
0000
,  // measure 67
0000
0000
0000
0000
0000
3003
0000
0000
,  // measure 68
0000
1001
0110
1001
0000
0000
0000
0000
;

//---------------dance-single - ----------------
#NOTEDATA:;
#CHARTNAME:;
#STEPSTYPE:dance-single;
#DESCRIPTION:;
#CHARTSTYLE:;
#DIFFICULTY:Easy;
#METER:8;
#RADARVALUES:0.356436,0.401095,0.179894,0.492753,0.000000,319.000000,296.000000,23.000000,63.000000,0.000000,0.000000,0.000000,0.000000,0.000000,0.356436,0.401095,0.179894,0.492753,0.000000,319.000000,296.000000,23.000000,63.000000,0.000000,0.000000,0.000000,0.000000,0.000000;
#CREDIT:;
#NOTES:
// measure 0
0000
0000
0000
0000
,  // measure 1
0000
0000
0000
0000
,  // measure 2
1000
0010
0100
0001
,  // measure 3
2000
0010
3001
1000
,  // measure 4
0100
0010
0002
0010
,  // measure 5
1003
0010
0100
0220
,  // measure 6
0330
0000
0000
0000
,  // measure 7
0001
1000
0001
0000
0010
0000
0100
0000
,  // measure 8
1000
0001
1000
0000
0010
0000
0100
0000
,  // measure 9
0010
1000
0100
0000
0001
0000
0100
0000
,  // measure 10
0010
0001
0100
0000
1000
0000
0100
0000
,  // measure 11
0001
0001
1000
0000
1000
1000
0001
0000
,  // measure 12
0001
0001
1000
0000
1000
0100
0010
0001
,  // measure 13
2000
0000
0010
0000
3001
0000
1000
1000
,  // measure 14
0002
0000
0010
0000
1003
0000
0001
0100
,  // measure 15
0010
0000
1000
0000
,  // measure 16
0001
0000
1000
0100
,  // measure 17
0010
0001
1000
0001
0000
0100
0000
0001
,  // measure 18
0000
1000
0000
0100
0000
2002
0000
0000
,  // measure 19
3003
0000
1000
0010
1000
0000
0001
0000
,  // measure 20
0010
0000
0001
0010
0100
0000
1000
0001
,  // measure 21
0100
0010
2000
0000
0010
0000
0001
0000
,  // measure 22
3100
0010
0002
0000
0010
0000
1000
0000
,  // measure 23
0103
0010
1000
0000
1010
0000
0001
0000
,  // measure 24
0011
1000
1100
0001
,  // measure 25
0001
0100
0020
0000
1000
0000
0130
0001
,  // measure 26
0020
0000
0001
0000
0130
1000
0010
0000
,  // measure 27
0100
0001
1000
0001
0010
0000
1100
0000
,  // measure 28
0101
0000
1000
0001
1000
0000
0010
0000
,  // measure 29
0100
0000
0001
1000
0001
0000
0010
0000
,  // measure 30
0100
0000
0010
0001
0100
0000
1000
0000
,  // measure 31
0100
0000
0010
1000
0100
0000
0011
0000
,  // measure 32
0000
0000
1000
0010
1000
0010
0100
0000
,  // measure 33
1010
0000
0001
0001
0100
0000
0001
0001
,  // measure 34
1000
0002
0010
2003
,  // measure 35
0010
0002
0000
3003
,  // measure 36
1001
0000
0001
0010
0001
0010
0100
0000
,  // measure 37
0011
0000
1000
1000
0100
0000
1000
1000
,  // measure 38
0001
0000
2000
0000
0010
0000
3001
0100
,  // measure 39
0001
0000
0002
0000
0010
0000
1003
0100
,  // measure 40
1000
0002
0203
0320
,  // measure 41
0230
0302
0023
0230
,  // measure 42
0302
0203
0320
0032
,  // measure 43
1003
0010
0100
0000
0010
0100
0001
0000
,  // measure 44
2000
3200
0320
0230
,  // measure 45
2300
3020
0230
2300
,  // measure 46
3200
0000
0320
0000
1000
1000
1030
0000
,  // measure 47
0001
0010
0100
1000
0001
0000
2002
0000
,  // measure 48
0000
0000
3003
0000
,  // measure 49
0000
1002
0000
0103
0010
1000
0000
0001
,  // measure 50
0001
2000
0000
3100
0010
0001
0000
1000
,  // measure 51
1000
0002
0000
0000
0203
0000
0000
0310
,  // measure 52
1000
0200
0000
0000
0320
0000
0000
0031
,  // measure 53
0000
1001
0000
1000
0010
0200
0000
0300
,  // measure 54
0000
0100
0000
0001
1000
0100
1000
0001
,  // measure 55
0000
0100
0010
2000
0000
0000
0000
0010
,  // measure 56
0000
3001
1000
0002
0000
0000
0000
1003
,  // measure 57
0100
0020
0000
0000
0000
1000
0000
0031
,  // measure 58
0100
0020
0000
0000
0000
0001
0000
1030
,  // measure 59
0010
0220
0000
0330
0000
1000
0000
0001
,  // measure 60
0010
0220
0000
0330
0000
2002
0000
3003
,  // measure 61
0000
0001
0000
0010
0001
0100
0000
0001
,  // measure 62
0000
1000
0000
0010
1000
0100
0000
0010
,  // measure 63
0000
0001
0000
0001
0000
0010
0001
0100
,  // measure 64
0010
1000
0000
0010
1000
0100
0000
0010
,  // measure 65
0000
0022
0000
0033
0000
2020
0000
3030
,  // measure 66
0000
0101
0000
1100
0000
2002
0000
0000
,  // measure 67
0000
0000
0000
0000
0000
3003
0000
0000
,  // measure 68
0000
0010
0010
1001
0000
0000
0000
0000
;

//---------------dance-single - ----------------
#NOTEDATA:;
#CHARTNAME:;
#STEPSTYPE:dance-single;
#DESCRIPTION:;
#CHARTSTYLE:;
#DIFFICULTY:Beginner;
#METER:5;
#RADARVALUES:0.242466,0.267397,0.132965,0.414539,0.000000,217.000000,200.000000,17.000000,53.000000,0.000000,0.000000,0.000000,0.000000,0.000000,0.242466,0.267397,0.132965,0.414539,0.000000,217.000000,200.000000,17.000000,53.000000,0.000000,0.000000,0.000000,0.000000,0.000000;
#CREDIT:;
#NOTES:
// measure 0
0000
0000
0000
0000
,  // measure 1
0000
0000
0000
0000
,  // measure 2
1000
0000
0001
0000
,  // measure 3
1000
0100
0010
0000
,  // measure 4
0001
0000
0001
0100
,  // measure 5
0010
0000
2000
3000
,  // measure 6
0000
0000
0000
0000
,  // measure 7
1000
0100
0001
0000
,  // measure 8
0001
0100
1000
0000
,  // measure 9
1000
0010
0001
0000
,  // measure 10
0001
0010
1000
0000
,  // measure 11
0001
1000
0001
1000
,  // measure 12
0100
0010
0100
0010
,  // measure 13
2002
3003
0001
0100
,  // measure 14
0020
0030
1000
0001
,  // measure 15
0010
0000
0001
0000
,  // measure 16
1000
0000
0001
0100
,  // measure 17
0010
1000
0000
0001
,  // measure 18
0000
1000
0000
0001
,  // measure 19
0000
0010
0010
0100
,  // measure 20
0100
1000
0001
0100
,  // measure 21
0010
2000
3000
0020
,  // measure 22
0030
0010
1000
0100
,  // measure 23
0100
0010
0001
0100
,  // measure 24
0100
0010
1000
0001
,  // measure 25
0010
0220
0330
0001
,  // measure 26
0100
0010
1000
1000
,  // measure 27
0100
0010
0002
2003
,  // measure 28
3001
0001
0100
1000
,  // measure 29
0000
1000
0100
0001
,  // measure 30
0000
0001
0010
1000
,  // measure 31
0000
1000
0010
0001
,  // measure 32
0000
2002
3003
0002
,  // measure 33
0203
0320
0030
1000
,  // measure 34
1000
0001
0010
0001
,  // measure 35
0010
0200
0000
0300
,  // measure 36
0110
2002
3003
2000
,  // measure 37
3020
0230
0300
0001
,  // measure 38
0001
1000
0100
0010
,  // measure 39
0001
1000
0010
0100
,  // measure 40
0001
0020
0000
0130
,  // measure 41
0000
2000
0000
3001
,  // measure 42
0100
0010
1000
0000
,  // measure 43
0001
0010
0100
1000
,  // measure 44
2002
3003
0010
0010
,  // measure 45
2002
3003
1000
0100
,  // measure 46
0010
0001
0100
0010
,  // measure 47
2000
3200
0320
0032
,  // measure 48
0000
0000
0003
0000
,  // measure 49
0000
1001
0000
0001
0000
0200
0000
0300
,  // measure 50
0000
1001
0000
0001
0000
0020
0000
0030
,  // measure 51
0000
2002
0000
3003
0000
1000
0000
0010
,  // measure 52
0000
1000
0000
0100
0000
2000
0000
3000
,  // measure 53
0000
0001
0000
0100
0000
1000
0000
0000
,  // measure 54
0000
1000
0000
0100
0000
0001
0000
1000
,  // measure 55
0000
0001
0000
0020
0000
0000
0000
0030
,  // measure 56
0000
0100
0000
2000
0000
3000
0000
0001
,  // measure 57
0000
0200
0000
0310
0000
0010
0000
1000
,  // measure 58
0000
0200
0000
0310
0000
0010
0000
0001
,  // measure 59
0000
2002
0000
3003
0000
1000
0000
0010
,  // measure 60
0000
2002
0000
3003
0000
0220
0000
0330
,  // measure 61
0000
0001
0000
0001
0000
0010
0000
0000
,  // measure 62
0000
1000
0000
1000
0000
0010
0000
0000
,  // measure 63
0000
0001
0000
0100
0000
0010
0000
1000
,  // measure 64
0000
0100
0000
0010
0000
0001
0000
0100
,  // measure 65
0000
0220
0000
0330
0000
2002
0000
3003
,  // measure 66
0000
2000
0000
3200
0000
0320
0000
0000
,  // measure 67
0000
0000
0000
0000
0000
0030
0000
0000
,  // measure 68
0000
1001
0000
1001
0000
0000
0000
0000
;
