#VERSION:0.83;
#TITLE:Backstage;
#SUBTITLE:;
#ARTIST:lapix feat. 水槽;
#TITLETRANSLIT:;
#SUBTITLETRANSLIT:;
#ARTISTTRANSLIT:lapix feat. Suisoh;
#GENRE:;
#CREDIT:;
#MUSIC:backstage.ogg;
#BANNER:bn.png;
#BACKGROUND:bg.png;
#CDTITLE:cdtitle-sorae.png;
#SAMPLESTART:31.875;
#SAMPLELENGTH:15.000;
#SELECTABLE:YES;
#OFFSET:0.000;
#BPMS:0.000=128.000;
#STOPS:;
#JACKET:jk.png;
#BGCHANGES:;
#FGCHANGES:;

//--------------- dance-single - sorae ----------------
#NOTEDATA:;
#STEPSTYPE:dance-single;
#DESCRIPTION:XO;
#DIFFICULTY:Hard;
#METER:13;
#RADARVALUES:0,0,0,0,0;
#CREDIT:sorae;
#NOTES:
0000
0000
0000
0000
,
0000
0000
0000
0000
,
0000
0000
0000
0000
,
0000
0000
0000
0000
,
0000
0000
0000
0000
,
0001
1000
0010
1000
0100
1000
0001
0000
,
0000
1000
0001
0010
0001
0100
0001
0000
,
1000
0010
1000
0001
0010
0001
1000
0010
,
0000
0000
0100
0000
0001
0000
0010
0000
0100
1000
0100
0000
0110
0000
0000
0000
,
1001
0000
0000
0000
1000
0000
0010
0000
0100
0000
0001
1000
0000
0200
0000
0000
,
0310
0000
0001
0200
0000
0000
0310
0000
1000
0000
0001
0000
0010
0000
0000
0000
,
0001
0100
0001
0100
1000
0100
0001
1000
,
0100
0000
0000
0000
0110
0000
0000
0000
0010
0000
0001
1000
0000
0010
0000
0000
,
1001
0000
0000
0000
0001
0000
0010
0000
0100
0000
1000
0001
0000
0200
0000
0000
,
0310
0000
1000
0200
0000
0000
0310
0000
0001
0000
1000
0000
0010
0000
0000
0000
,
1000
0100
1000
0100
0001
0100
1000
0001
,
0100
0000
0000
0010
0000
0000
0100
0000
0001
0000
0010
0000
0110
0000
0000
0000
,
1001
0000
0001
0000
0100
0000
0010
0000
1000
0000
0001
0010
0000
0001
0000
1000
,
0000
0010
0100
0000
1000
0000
0001
0000
0010
0000
0000
0000
0100
0000
0000
0001
,
0000
1000
0100
0000
1000
0000
0100
0000
0010
0000
0000
0000
0001
0000
0000
1000
,
0000
0000
0001
0100
0000
0001
0000
0100
0010
0000
1000
0000
0001
0000
0000
0000
,
1001
0000
1000
0000
0100
0000
0010
0000
0001
0000
1000
0010
0000
1000
0000
0001
,
0000
0010
0100
0000
0001
0000
1000
0000
0010
0000
0000
0000
0100
0000
0000
1000
,
0000
0001
0100
0000
0001
0000
0100
0000
0010
0000
0000
0000
1000
0000
0000
0100
,
0000
1000
0100
0000
0100
0000
0100
0000
1000
0000
0010
0000
0110
0000
0000
0000
,
1001
0000
0000
0000
0001
0000
1000
0000
0010
0000
0100
0001
0000
0000
0010
0000
,
1000
0000
0010
0000
0100
0000
0010
0001
0000
0000
1000
0000
0010
0000
1000
0000
,
0100
0000
0010
0000
0001
0000
1000
0000
0010
0000
0000
0000
1000
0100
0000
2000
,
0000
3001
0100
1000
0001
0010
1000
0000
,
1001
0000
0000
0000
1000
0000
0001
0000
0010
0000
0100
1000
0000
0000
0010
0000
,
0001
0000
0010
0000
0100
0000
0010
1000
0000
0000
0001
0000
0010
0000
0001
0000
,
0100
0000
0010
0000
1000
0000
0001
0000
0010
0000
0000
0000
0001
0000
0000
0100
,
0000
0001
0100
0000
0100
0000
0100
0000
0001
0000
0010
0000
0110
0000
0000
0000
,
0002
0010
0000
0010
,
2003
0010
0000
0010
,
3002
0010
0000
0010
,
1003
0100
1000
0001
0010
0001
0100
0010
,
1000
0001
0010
0001
0100
0001
1000
0000
,
0000
0001
1000
0010
1000
0100
1000
0000
,
0001
0010
0001
1000
0010
1000
0001
0010
,
0000
0000
0100
0000
1000
0000
0010
0000
0100
0001
0100
0000
0110
0000
0000
0000
,
0101
0000
0000
0000
0001
0000
0000
0000
1000
0000
0000
0100
0000
1000
0000
0000
,
1100
0000
0000
0000
1000
0000
0000
0000
0001
0000
0000
0100
0000
0001
0000
0000
,
1000
0000
0000
0000
0100
0000
0000
0000
1000
0000
0000
0000
0100
0000
0000
0000
0000
0000
0010
0000
0000
0000
0000
0000
0001
0000
0000
0000
0000
0000
0000
0000
0000
1000
0000
0000
0000
0000
0000
0000
0000
0000
0010
0000
0000
0000
0000
0000
,
1000
0000
0000
0100
0000
0000
0010
0000
0001
0000
0000
0100
0000
0000
0010
0000
,
1010
0000
0000
0000
1000
0000
0001
0000
0010
0000
0000
0100
0000
0010
0000
0000
,
0001
0000
1000
0000
0010
0000
0100
0010
0000
1000
0000
0001
0000
0010
0000
0000
,
0001
0000
0000
0000
0100
0000
0000
0000
0001
0000
0000
0000
0100
0000
0000
0000
0000
0000
0010
0000
0000
0000
0000
0000
1000
0000
0000
0000
0000
0000
0000
0000
0000
0001
0000
0000
0000
0000
0000
0000
0000
0000
0010
0000
0000
0000
0000
0000
,
0100
0000
0000
1000
0000
0000
0010
0000
0100
0000
0000
0001
0000
0000
0000
0000
,
1001
0000
1000
0000
0100
0000
0010
0000
1000
0000
0010
0100
0000
0000
1000
0000
,
0001
0000
0100
0000
0010
0000
0100
0000
1000
0000
0100
0010
0000
0000
1000
0000
,
0001
0000
0000
0000
0010
0000
0000
0100
0010
0000
0000
0000
0001
0000
0000
0100
,
0010
0000
0000
0000
0100
0000
0000
0001
0010
0000
0000
0000
0001
0000
0000
0000
,
1001
0000
0001
0000
0100
0000
0010
0000
0001
0000
0010
0100
0000
0000
0001
0000
,
1000
0000
0100
0000
0010
0000
0100
0000
0001
0000
0100
0010
0000
0000
0001
0000
,
1000
0000
0000
0000
0010
0000
0000
0100
0010
0000
0000
0000
1000
0000
0100
0000
,
0010
0000
0001
1000
0000
0000
0010
0000
0200
0000
0000
0000
0001
0000
0000
0000
,
0310
1000
0100
0010
0001
0100
0110
0000
,
1001
0000
0000
0000
0001
0000
0000
0000
0010
0000
0000
0100
0000
1000
0000
0100
,
0000
0000
0010
0000
0001
0000
1000
0000
0010
0000
0000
0000
0110
0000
0000
1000
,
0000
0001
0010
0000
0001
0000
0010
0000
0100
0000
0000
0000
1000
0000
0000
0001
,
0000
0000
1000
0010
0000
1000
0000
0010
0100
0000
0001
0000
1000
0000
0000
0000
,
1001
0000
0001
0000
0010
0000
0100
0000
1000
0000
0001
0100
0000
0001
0000
1000
,
0000
0100
0010
0000
1000
0000
0001
0000
0100
0000
0000
0000
0010
0000
0000
0001
,
0000
1000
0010
0000
1000
0000
0010
0000
0100
0000
0000
0000
0001
0000
0000
0010
,
0000
0001
0010
0000
0010
0000
0010
0000
0001
0000
0100
0000
0110
0000
0000
0000
;

//--------------- dance-single - sorae ----------------
#NOTEDATA:;
#STEPSTYPE:dance-single;
#DESCRIPTION:DS FS SS;
#DIFFICULTY:Challenge;
#METER:16;
#RADARVALUES:0,0,0,0,0;
#CREDIT:sorae;
#NOTES:
0000
0000
0000
0000
,
0000
0000
0000
0000
,
0000
0000
0000
0000
,
0000
0000
0000
0000
,
0000
0000
0000
0000
,
0001
0000
1000
0010
1000
0000
0001
0000
1000
0000
0100
0010
0000
0000
0000
0000
,
0000
0000
0001
0000
0100
0000
0001
0000
0010
0000
0100
1000
0001
0000
0000
0000
,
0000
0000
1000
0010
1000
0000
0001
0000
0020
0000
0000
0130
0000
0010
0001
0000
,
0000
1000
0010
1000
0001
0000
0010
0001
0100
0001
1000
0010
1000
0000
0100
0000
,
1100
0000
1000
0001
1000
0000
0010
0100
0002
0000
0013
0100
M000
0100
0000
0001
,
2000
0000
3010
0100
000M
0100
1000
0001
0010
0000
0100
0000
1000
0001
1000
0000
,
0001
0000
0001
0000
0100
0010
0100
0010
1000
0000
1000
0001
0010
0000
0100
0000
,
1000
0000
0010
0000
0110
0000
0100
0000
0001
0000
1000
0100
0000
1000
0001
0000
,
0101
0000
0100
0000
0001
0000
0010
0100
2000
0000
3010
0100
000M
0100
0000
1000
,
0002
0000
0013
0100
M000
0100
0001
1000
0010
0000
0100
0000
0001
1000
0001
0000
,
1000
0100
1000
0000
1000
0000
0001
0100
0001
0000
0001
0000
1000
0100
1000
0000
,
0001
0000
0100
0002
0000
0000
1003
0000
0010
1000
0100
0000
0110
0000
0000
0000
,
1100
0000
1000
0000
0010
0000
0100
0000
0001
0000
2000
0001
0000
3100
0000
0010
,
0000
0100
0001
M000
0001
0000
0010
M000
0020
0000
1030
0000
0001
0100
0000
0210
,
0000
0000
0301
0000
0100
00M0
0100
0000
2000
0000
0000
0000
0100
0000
0000
0000
3002
0000
0000
0000
0000
0000
0000
0000
1003
0000
0100
0000
0000
0000
0210
0000
,
0000
1300
0100
0010
0000
0001
0000
0100
0010
0000
1000
0000
0010
0100
0000
0000
,
0101
0000
0001
0000
0010
0100
0000
0000
1000
0000
0002
1000
0000
0103
0000
0010
,
0000
0100
1000
000M
1000
0000
0010
000M
0020
0000
0031
0000
1000
0100
0000
0210
,
0000
0000
1300
0000
0100
00M0
0100
0000
0002
0000
0000
0000
0100
0000
0000
0000
2003
0000
0000
0000
0000
0000
0000
0000
3001
0000
0100
0000
0000
0000
0210
0000
,
0000
0301
1000
0000
1100
0000
0110
0000
0011
0000
0001
1000
0020
0000
0030
0000
,
1010
0000
0000
1000
0001
0000
0010
0000
0001
0000
0100
0010
M000
0010
0100
0000
,
2000
0000
0001
0000
3010
0000
0100
0001
0000
0001
1000
0000
0100
1000
0001
1000
,
0010
000M
0010
0000
0100
M000
0100
0000
0002
1000
0000
0013
0001
1000
0000
0020
,
0000
0130
0010
0000
0001
M000
0001
0000
0100
0000
0010
0000
1000
0001
0010
0000
,
0011
0000
0000
0001
1000
0000
0010
0000
1000
0000
0100
0010
000M
0010
0100
0000
,
0002
0000
1000
0000
0013
0000
0100
1000
0000
1000
0001
0000
0100
0001
1000
0001
,
0010
M000
0010
0000
0100
000M
0100
0000
2000
0001
0000
3010
1000
0000
0100
0010
,
0000
0001
0100
0000
0101
0000
0110
0000
1010
0000
1000
0000
0100
0010
0100
0010
,
0002
0100
0000
0100
,
2003
0100
0000
0100
,
3002
0100
0000
0100
,
1003
0100
0010
0000
0001
0000
1000
0000
0010
0000
1000
0000
0100
0000
0010
0000
,
0001
0000
1000
0010
1000
0000
0001
0000
1000
0000
0100
0010
0100
0000
0000
0000
,
0000
1000
0001
0000
0100
0000
0001
1000
0100
0000
0010
0000
0001
0000
0000
0000
,
0000
0000
1000
0010
1000
0000
0001
0000
0020
0000
0000
0130
0000
0010
0001
0000
,
0000
1000
0010
1000
0001
0000
0010
0001
0100
0001
1000
0010
1000
0000
0100
0000
,
1100
0000
0000
0000
1000
0000
0000
0001
0010
0000
0002
1000
0000
0103
0000
0000
,
0101
0000
0000
0000
0001
0000
0000
1000
0010
0000
2000
0001
0000
3100
0000
0000
,
1000
0000
0000
0000
0010
0000
0000
0000
1000
0000
0000
0000
0010
0000
0000
0000
0000
0000
0100
0000
0000
000M
0000
0000
0100
0000
0000
0000
0000
0000
1000
0000
0000
0100
0000
0000
0010
0000
0000
0001
0000
0000
1000
0000
0000
0000
0000
0000
,
0010
0000
0100
0001
0000
0100
0001
0000
0010
0M00
0010
1000
0001
0000
0100
0000
,
0101
0000
0001
0000
1000
0100
0010
0100
1000
0000
0002
0100
0000
0013
0100
0000
,
1000
0001
0100
0010
1000
0000
0001
0010
0001
2000
0000
0100
0000
3010
0100
0000
,
0001
0000
0000
0000
0010
0000
0000
0000
0001
0000
0000
0000
0010
0000
0000
0000
0000
0000
0100
0000
0000
M000
0000
0000
0100
0000
0000
0000
0000
0000
0001
0000
0000
0100
0000
0000
0010
0000
0000
1000
0000
0000
0001
0000
0000
0000
0000
0000
,
0010
0000
0100
1000
0000
0100
1000
0000
0010
0M00
0010
0001
0200
0000
0000
0300
,
0101
0000
0000
0000
0000
0000
0001
0000
1000
0000
0000
0000
0100
0000
0010
0000
1000
0000
000M
0000
1000
0000
0100
0000
0000
0000
0010
0000
0100
M000
0100
0000
,
0001
0000
1000
0000
0010
0000
0100
0010
0001
M000
0001
0200
0000
0000
0310
1000
,
0100
0000
0010
0000
0000
0000
0000
0000
0001
0000
0000
0100
0000
0000
0001
0000
1000
0000
0100
0000
1000
0000
0000
0000
0001
0000
0000
0100
0000
0000
0010
0000
,
1000
0000
0000
0000
0001
0000
0010
0000
0001
0000
0000
1000
0000
0000
0010
0000
1000
0000
0001
0000
0000
0000
0001
0000
0010
0000
0000
0000
0100
0000
0000
0000
,
1100
0000
0000
0000
1000
0000
0001
0000
0100
0000
0000
0000
0010
0000
0000
0000
0001
0000
M000
0000
0001
0000
0100
0000
0000
0000
0010
0000
0100
000M
0100
0000
,
1000
0000
0001
0000
0010
0000
0100
0010
1000
000M
1000
0200
0000
0000
0310
0001
,
0100
0000
0000
0000
0000
0000
0010
0000
1000
0000
0000
0100
0000
0000
1000
0000
0001
0000
0100
0000
0001
0000
0000
0000
1000
0000
0000
0000
0100
0000
0000
0000
,
0010
0000
0001
1000
0001
0000
0100
0010
1000
0001
1000
0001
0010
0100
0010
0100
,
1000
0001
0100
0001
0010
0100
1000
0010
1000
0000
0100
0000
0110
0000
0000
0000
,
1001
0000
0000
0000
1000
0000
0000
0000
0001
0000
2000
0001
0000
3010
0000
0100
,
0000
0010
0001
M000
0001
0000
0100
M000
0200
0000
1300
0000
2001
0000
0000
3100
,
0010
0000
0001
0000
0010
0M00
0010
0000
2000
0000
0000
0000
0010
0000
0000
0000
3002
0000
0000
0000
0000
0000
0000
0000
1003
0000
0010
0000
0000
0000
0120
0000
,
0000
1030
0010
0100
0000
0001
0000
0010
0100
0000
1000
0000
0100
0010
0000
0000
,
0011
0000
0001
0000
0100
0010
0000
0000
1000
0000
0002
1000
0000
0013
0000
0100
,
0000
0010
1000
000M
1000
0000
0100
000M
0200
0000
0301
0000
1000
0010
0000
0120
,
0000
0000
1030
0000
0010
0M00
0010
0000
0002
0000
0000
0000
0010
0000
0000
0000
2003
0000
0000
0000
0000
0000
0000
0000
3001
0000
0010
0000
0000
0000
0120
0000
,
0000
0031
1000
0000
1010
0000
0110
0000
0101
0000
0001
1000
0200
0000
0300
0000
,
0110
0000
0000
0000
;
