#TITLE:Backflow;
#SUBTITLE:;
#ARTIST:lapix;
#TITLETRANSLIT:;
#SUBTITLETRANSLIT:;
#ARTISTTRANSLIT:;
#GENRE:;
#CREDIT:;
#BANNER:bn.png;
#BACKGROUND:bg.png;
#LYRICSPATH:;
#CDTITLE:;
#MUSIC:audio.ogg;
#OFFSET:-1.680000;
#SAMPLESTART:57.125000;
#SAMPLELENGTH:12.000000;
#SELECTABLE:YES;
#BPMS:0.000000=145.000000
;
#STOPS:
;
#BGCHANGES:;
#FGCHANGES:0.000=lua=0.000=0=0=1=====,
;
#KEYSOUNDS:;
#ATTACKS:;

//---------------dance-single - TaroNuke vs. Ama-tan----------------
#NOTES:
     dance-single:
     TaroNuke vs. Ama-tan:
     Challenge:
     16:
     0.707806,0.857819,0.238283,0.673766,0.912049,603.000000,574.000000,29.000000,82.000000,0.000000,0.000000,0.707806,0.857819,0.238283,0.673766,0.912049,603.000000,574.000000,29.000000,82.000000,0.000000,0.000000:
0000
0000
0000
0000
,
1000
0001
1000
0001
1000
0100
0040
0000
,
0031
0000
1000
0000
0010
0000
0000
0100
0001
1000
0100
1000
0001
0010
0100
0010
,
0002
0000
0010
0000
1003
0000
0010
0000
0100
0000
0001
0000
1000
0010
1000
0000
,
0001
0000
0010
0100
0000
0010
0100
0000
1000
0000
0001
0000
1000
0001
0100
0001
,
1000
0000
0000
0000
0000
0000
0000
0000
0000
0000
0000
0000
0000
0000
0000
0000
0000
0000
0000
0000
0000
0000
0000
0000
0100
0000
0000
0000
0000
0000
0000
0000
0000
0000
0000
0000
0000
0000
0000
0000
0000
0000
0000
0000
0000
0000
0000
0000
0010
0000
0000
0000
0000
0000
0000
0000
0000
0000
0000
0000
0000
0000
0000
0000
0000
0000
0000
0000
0000
0000
0000
0000
0001
0000
0000
0000
0000
0000
0000
0000
0000
0000
0000
0000
1000
0000
0000
0000
0000
0000
0000
0000
0000
0000
0000
0000
0000
0000
0000
0000
0000
0000
0000
0000
0000
0000
0000
0000
0000
0000
0000
0000
0000
0000
0000
0000
0000
0000
0000
0000
0010
0000
0000
0000
0000
0000
0000
0000
0000
0000
0000
0000
0000
0000
0000
0000
0000
0000
0000
0000
0000
0000
0000
0000
0100
0000
0000
0000
0000
0000
0000
0000
0000
0000
0000
0000
0000
0000
0001
0000
0000
0000
0000
0000
0000
0000
0000
0000
0100
0000
0000
0000
0000
0000
0000
0000
0000
0000
0000
0000
0000
0000
0001
0000
0000
0000
0000
0000
0000
0000
0000
0000
,
1000
0000
0001
0000
0010
0000
0000
0100
1000
0001
0100
0001
1000
0100
0010
0100
,
2000
0000
0010
0000
3001
0000
0010
0000
0100
0000
1000
0000
0001
0010
0001
0000
,
1000
0010
0000
1000
0010
0000
0100
0000
0001
0000
1000
0000
0100
0000
0010
0000
,
0002
0003
2000
3000
0002
0003
2000
3000
0002
0003
0100
0000
0001
1000
0010
1000
,
0001
0000
1000
0000
0100
0000
0000
0010
0001
1000
0100
1000
0001
0100
0010
0100
,
0002
0000
0100
0000
1003
0000
0010
0000
0100
0000
0001
0000
1000
0100
1000
0000
,
0001
0000
0100
0010
0000
0100
0010
0000
1000
0000
0001
0000
0010
0100
1000
0100
,
0010
0000
0000
0000
0000
0000
0000
0000
0000
0000
0000
0000
0000
0000
0000
0000
0000
0000
0000
0000
0000
0000
0000
0000
0002
0000
0000
0000
0000
0000
0000
0000
0000
0000
0000
0000
0000
0000
0000
0000
0000
0000
0000
0000
0000
0000
0000
0000
0103
0000
0000
0000
0000
0000
0000
0000
0000
0000
0000
0000
0000
0000
0000
0000
0000
0000
0000
0000
0000
0000
0000
0000
0010
0000
0000
0000
0000
0000
0000
0000
0000
0000
0000
0000
1000
0000
0000
0000
0000
0000
0000
0000
0000
0000
0000
0000
0000
0000
0000
0000
0000
0000
0000
0000
0000
0000
0000
0000
1000
0000
0000
0000
0000
0000
0000
0000
0000
0000
0000
0000
0100
0000
0000
0000
0000
0000
0000
0000
0000
0000
0000
0000
0000
0000
0000
0000
0000
0000
0000
0000
0000
0000
0000
0000
0010
0000
0000
0000
0000
0000
0000
0000
0000
0000
0000
0000
0000
0000
0001
0000
0000
0000
0000
0000
0000
0000
0000
0000
0010
0000
0000
0000
0000
0000
0000
0000
0000
0000
0000
0000
0000
0000
0001
0000
0000
0000
0000
0000
0000
0000
0000
0000
,
1000
0000
0001
0000
0100
0000
0000
0010
1000
0001
0010
0001
1000
0010
0100
0010
,
2000
0000
0100
0000
3001
0000
0100
0000
0010
0000
0000
0000
0000
1001
0000
0000
,
1000
0100
0000
1000
0100
0000
0010
0000
0001
0000
1000
0000
0010
0000
0100
0000
,
0001
0000
0010
0100
0000
0010
0100
0000
1000
0010
0100
0001
1000
0100
0010
0001
,
2000
0000
0000
0000
3100
0000
0000
0201
0000
0000
0000
0000
0301
0000
0000
0012
,
0000
0000
0000
0000
0013
0000
0000
2010
0000
0000
3200
0000
0000
0320
0000
0000
,
0032
0000
0000
0200
0000
0300
0000
2000
,
0000
3000
0000
0020
0000
0000
0033
0000
,
0102
0000
0000
0000
0103
0000
0000
1200
0000
0000
0000
0000
1300
0000
0000
2010
,
0000
0000
0000
0000
3010
0000
0000
0012
0000
0000
0203
0000
0000
0320
0000
0000
,
2030
0000
0000
0200
0000
0300
0000
0002
,
0000
0003
0000
0020
0000
0000
3030
0000
,
1001
0000
1001
0000
0000
1001
0000
0000
1000
0100
0010
0001
1000
0010
0100
0000
,
0101
0000
0101
0000
0000
0101
0000
0000
0001
1000
0100
1000
0002
0000
0103
0000
,
1001
0000
1001
0000
0000
1001
0000
0000
0001
0100
0010
1000
0001
0010
0100
0000
,
1100
0000
0000
0000
0000
0000
1100
0000
0000
0000
0000
0000
0000
0000
0000
1100
0000
0000
0000
0000
0000
0000
0000
0000
1000
0000
0000
0000
0010
0000
0000
0000
0100
0000
0000
0000
0001
0000
0000
0000
0100
0000
0000
0000
0010
0000
0000
0000
,
1000
0000
1000
0000
0001
0010
0100
1000
0010
0000
0010
0000
1000
0100
0010
0001
,
0100
0000
0100
0000
0001
0100
0010
1000
0100
0000
0100
0000
1000
0010
0100
0001
,
0010
0001
0010
0001
1000
0001
1000
0001
1000
0010
1000
0010
0100
0010
0100
0010
,
0400
0000
0301
0000
,
1000
0100
0010
0002
0000
0000
0000
0000
0100
0000
0000
0100
0000
0000
2003
0000
,
0100
0000
0000
0100
0000
0000
3002
0000
0100
0000
0000
0103
0000
0000
0000
0000
,
1001
0000
0000
0110
0000
0000
2000
0000
0010
0000
0000
0010
0000
0000
3002
0000
,
0010
0000
0000
0013
0000
0100
1000
0001
0200
0000
0000
0010
0000
0000
0301
0000
,
1000
0100
0010
0002
0000
0000
0203
0000
0010
0000
0000
0010
0000
0000
0302
0000
,
0010
0000
0000
0010
0000
0000
0203
0000
0010
0000
0000
0010
0000
0000
0301
0000
,
1000
0100
0010
0001
0010
0100
2000
0000
3001
0100
0010
1000
0010
0100
0002
0000
,
1003
0100
0010
0001
1000
0001
0100
0010
2000
0000
0001
0000
0010
0000
3100
0000
,
0001
1000
0010
0200
0000
0000
0000
0000
1000
0000
0000
1000
0000
0000
0320
0000
,
0001
0000
0000
0001
0000
0000
0230
0000
1000
0000
0000
1300
0000
0000
0000
0000
,
0110
0000
0000
2001
0000
0000
3200
0000
0001
0000
0000
0001
0000
0000
0320
0000
,
1000
0000
0000
1000
0000
0130
1000
0001
0200
0000
0000
1000
0000
0000
0301
0000
,
1000
0001
0010
0200
0000
0000
0000
0000
0001
0000
0000
0001
0000
0000
2300
0000
,
0010
0000
0000
0010
0000
0000
3200
0000
0001
0000
0000
0001
0000
0000
2300
0000
,
0000
0000
0000
0000
,
3000
0000
0000
0000
0000
0000
0000
0000
0001
1000
0001
1000
0001
0000
0000
0000
,
2002
0000
0000
0000
,
0000
0000
0000
0000
,
0000
0000
0000
0000
,
0000
0000
0000
0000
3003
0000
0000
0000
0001
0010
0100
1000
0001
0000
0000
0000
,
1000
0010
0100
0000
0001
0010
0100
1000
0000
0001
0000
1000
0010
0000
0100
0001
,
1000
0100
0010
0100
1000
0001
0100
0001
0020
0000
0230
0000
0000
1300
0001
0100
,
0010
0100
0001
1000
0100
0000
0010
0001
2000
3000
0000
0020
0030
0000
0100
0001
,
1000
0000
0100
0000
0010
0001
0000
0010
0100
1000
0100
0010
0001
1000
0010
1000
,
0001
0010
0100
0000
1000
0010
0000
0002
0000
0003
0010
0000
0100
0001
0000
0020
,
0000
0230
0000
0300
0000
1000
0001
1000
0100
0010
0100
0010
0001
1000
0001
0200
,
0000
0300
0000
0001
0010
0100
1000
0000
0001
0100
0010
1000
0001
0010
0100
1000
,
0001
0000
0000
1100
0000
0000
0101
0000
0000
0100
0020
0000
2030
0000
0000
0000
,
3001
0010
0100
0000
1000
0010
0100
0001
1000
0001
0100
0001
1000
0100
0000
0010
,
0002
0000
0023
0000
0230
0000
1300
0001
2000
0000
3020
0000
0130
0001
0000
0010
,
0000
0100
0010
0100
0000
1000
0001
1000
0020
0000
1030
0001
0100
0001
1000
0100
,
0010
0001
0010
0001
0000
1000
0010
1000
0010
0000
0100
0001
0010
0200
0000
0000
,
1300
0000
0010
0000
0100
0001
0010
2000
0000
3000
0010
0000
0100
1000
0000
0020
,
0000
0230
0000
0300
0000
0001
1000
0001
0100
0010
0100
0010
1000
0001
1000
0200
,
0000
0300
0000
1000
0010
0100
0001
0000
1000
0100
0010
0001
1000
0010
0100
0001
,
1000
0000
0000
0101
0000
0000
1100
0000
0000
0100
0020
0000
0032
0000
0000
0000
,
2003
0000
0000
0020
0000
0000
0000
0000
,
0000
0000
0000
0000
,
3030
0000
0000
0000
;

//---------------dance-single - TaroNuke----------------
#NOTES:
     dance-single:
     TaroNuke:
     Hard:
     12:
     0.477740,0.591599,0.287583,0.377966,0.295800,407.000000,372.000000,35.000000,46.000000,0.000000,0.000000,0.477740,0.591599,0.287583,0.377966,0.295800,407.000000,372.000000,35.000000,46.000000,0.000000,0.000000:
0000
0000
0000
0000
,
0000
0000
0000
0000
,
1001
0000
0000
0000
1100
0000
0000
0100
0010
0000
0001
0000
1000
0000
0010
0000
,
0200
0010
0301
0010
0100
1000
0001
0001
,
1000
0000
0010
0100
0000
0010
0100
0000
0001
0000
0010
0000
0100
0000
1000
0000
,
0001
0000
0000
0000
0000
0000
0000
0000
0000
0000
0000
0000
0000
0000
0000
0000
0000
0000
0000
0000
0000
0000
0000
0000
0100
0000
0000
0000
0000
0000
0000
0000
0000
0000
0000
0000
0000
0000
0000
0000
0000
0000
0000
0000
0000
0000
0000
0000
0010
0000
0000
0000
0000
0000
0000
0000
0000
0000
0000
0000
0000
0000
0000
0000
0000
0000
0000
0000
0000
0000
0000
0000
1000
0000
0000
0000
0000
0000
0000
0000
0000
0000
0000
0000
0000
0000
0000
0000
0000
0000
0000
0000
0000
0000
0000
0000
0001
0000
0000
0000
0000
0000
0000
0000
0000
0000
0000
0000
0000
0000
0000
0000
0000
0000
0000
0000
0000
0000
0000
0000
1000
0000
0000
0000
0000
0000
0000
0000
0000
0000
0000
0000
0000
0000
0000
0000
0000
0000
0000
0000
0000
0000
0000
0000
0100
0000
0000
0000
0000
0000
0000
0000
0000
0000
0000
0000
0000
0000
0010
0000
0000
0000
0000
0000
0000
0000
0000
0000
0100
0000
0000
0000
0000
0000
0000
0000
0000
0000
0000
0000
0000
0000
0010
0000
0000
0000
0000
0000
0000
0000
0000
0000
,
0001
0000
0000
0000
0011
0000
0000
0010
0100
0000
1000
0000
0010
0000
0200
0000
,
0302
0203
0310
1000
0001
0010
0100
0100
,
1000
0001
0000
1000
0001
0000
0100
0000
0010
0000
1000
0000
0010
0000
0100
0000
,
0002
0003
2000
3000
0002
0003
2000
3000
0001
0000
0010
0000
0100
1000
0100
1000
,
0001
0000
0000
0000
0101
0000
0000
0100
0010
0000
1000
0000
0001
0000
0010
0000
,
0200
0010
1300
0010
0100
0001
1000
1000
,
0001
0000
0010
0100
0000
0010
0100
0000
1000
0000
0010
0000
0100
0000
0001
0000
,
1000
0000
0000
0000
0000
0000
0000
0000
0000
0000
0000
0000
0000
0000
0000
0000
0000
0000
0000
0000
0000
0000
0000
0000
0100
0000
0000
0000
0000
0000
0000
0000
0000
0000
0000
0000
0000
0000
0000
0000
0000
0000
0000
0000
0000
0000
0000
0000
0010
0000
0000
0000
0000
0000
0000
0000
0000
0000
0000
0000
0000
0000
0000
0000
0000
0000
0000
0000
0000
0000
0000
0000
0001
0000
0000
0000
0000
0000
0000
0000
0000
0000
0000
0000
1000
0000
0000
0000
0000
0000
0000
0000
0000
0000
0000
0000
0000
0000
0000
0000
0000
0000
0000
0000
0000
0000
0000
0000
0000
0000
0000
0000
0000
0000
0000
0000
0000
0000
0000
0000
0001
0000
0000
0000
0000
0000
0000
0000
0000
0000
0000
0000
0000
0000
0000
0000
0000
0000
0000
0000
0000
0000
0000
0000
0100
0000
0000
0000
0000
0000
0000
0000
0000
0000
0000
0000
0000
0000
0010
0000
0000
0000
0000
0000
0000
0000
0000
0000
0100
0000
0000
0000
0000
0000
0000
0000
0000
0000
0000
0000
0000
0000
0010
0000
0000
0000
0000
0000
0000
0000
0000
0000
,
1000
0000
0000
0000
1010
0000
0000
0010
0100
0000
0001
0000
0010
0000
0200
0000
,
2300
0000
3200
0000
0310
0000
0001
0000
1000
0000
0000
0000
0000
1001
0000
0000
,
0001
1000
0000
0001
1000
0000
0100
0000
0010
0000
0001
0000
0010
0000
0100
0000
,
1000
0000
0010
0100
0000
0010
0100
0000
0002
0000
0023
0000
0230
0000
2300
0000
,
3002
0000
0000
0000
0100
0000
0000
0203
0000
0000
0000
0000
1000
0000
0000
2300
,
0000
0000
0000
0000
0010
0000
0000
3020
0000
0000
0000
0000
0000
0000
0000
0000
,
0032
0000
0000
0023
0000
0000
0000
0230
,
0000
0000
0000
2300
0000
0000
3001
0000
,
2000
0000
0000
0000
0100
0000
0000
3200
0000
0000
0000
0000
0001
0000
0000
0302
,
0000
0000
0000
0000
0010
0000
0000
0023
0000
0000
0000
0000
0000
0000
0000
0000
,
2030
0000
0000
3020
0000
0000
0000
0230
,
0000
0000
0000
0302
0000
0000
0000
0000
,
1003
0000
0100
0000
0000
1100
0000
0000
0000
0000
0000
0000
0000
0000
0000
0000
,
0001
0000
0100
0000
0000
0101
0000
0000
0000
0000
0000
0000
0000
0000
0000
0000
,
1000
0000
0010
0000
0000
1010
0000
0000
0000
0000
0000
0000
0000
0000
0000
0000
,
0001
0000
0000
0000
0000
0000
0010
0000
0000
0000
0000
0000
0000
0000
0000
0011
0000
0000
0000
0000
0000
0000
0000
0000
0001
0000
0000
0000
1000
0000
0000
0000
0001
0000
0000
0000
1000
0000
0000
0000
0001
0000
0000
0000
1000
0000
0000
0000
,
0010
1010
0000
0000
0001
0011
0000
0000
,
1000
1100
0000
0000
0001
0101
0000
0000
,
0001
0010
0100
1000
0001
0100
0010
1000
,
0002
0000
1003
0000
,
1001
0000
0000
2001
0000
0000
0000
0000
0100
0000
0000
0100
0000
0000
0000
0000
,
0001
0000
0000
0001
0000
0000
0000
0000
0100
0000
0000
0100
3000
0000
0000
0000
,
1001
0000
0000
1002
0000
0000
0000
0000
0100
0000
0000
0100
0000
0000
0000
0000
,
1000
0000
0000
1000
0000
0000
0000
0000
0010
0000
0000
0010
0000
0000
1003
0000
,
1001
0000
0000
2001
0000
0000
0000
0000
0010
0000
0000
0010
0000
0000
0000
0000
,
0001
0000
0000
0001
0000
0000
0000
0000
0100
0000
0000
3100
0000
0000
0000
0000
,
1000
0100
0010
0001
1000
0010
0001
0010
,
1000
0001
0010
0100
1000
0001
1000
0000
,
1001
0000
0000
0201
0000
0000
0000
0000
0010
0000
0000
0010
0000
0000
0000
0000
,
1000
0000
0000
1000
0000
0000
0000
0000
0010
0000
0000
0310
0000
0000
0000
0000
,
1001
0000
0000
1200
0000
0000
0000
0000
0010
0000
0000
0010
0000
0000
0000
0000
,
0001
0000
0000
0001
0000
0000
0000
0000
0010
0000
0000
0010
0000
0000
1300
0000
,
1001
0000
0000
1020
0000
0000
0000
0000
0100
0000
0000
0100
0000
0000
0000
0000
,
0001
0000
0000
0001
0000
0000
0000
0000
0100
0000
0000
0100
0000
0000
2030
0000
,
0000
0000
0000
0000
,
0000
0000
3001
0000
,
2002
0000
0000
0000
,
0000
0000
0000
0000
,
0000
0000
0000
0000
,
0000
0000
0000
3003
,
1000
0100
1000
0001
1000
0010
1000
0000
,
0100
0010
0100
0000
1001
0000
0000
0000
0010
0000
0100
0000
1001
0000
0000
0000
,
1000
0010
0100
0000
0001
0010
0100
0000
,
1000
0000
0001
0000
1000
0000
0001
0000
0100
0010
0100
0010
0100
0000
0000
0000
,
0001
0100
0001
1000
0001
0010
0001
1000
,
0010
0100
1001
0000
0100
0010
1001
0000
,
1000
0010
0100
0000
0001
0010
0100
0000
,
1000
0000
0000
0010
0000
0000
0001
0000
0000
0100
0000
0000
2000
0000
0000
0000
,
3001
0100
0001
1000
0001
0010
0001
0000
,
0100
0010
0100
0000
1001
0000
0000
0000
0010
0000
0100
0000
1001
0000
0000
0000
,
0001
0010
0100
0000
1000
0010
0100
0000
,
0001
1000
0001
0000
1000
0001
1000
0000
0100
0010
0100
0010
0100
0000
0000
0000
,
1000
0100
1000
0001
1000
0010
1000
0001
,
0010
0100
1001
0000
0100
0010
1001
0000
,
1000
0010
0100
0000
0001
0010
0100
0000
,
1000
0000
0000
0100
0000
0000
0001
0000
0000
0010
0000
0000
2000
0000
0000
0000
,
3002
0000
0000
0200
0000
0000
0000
0000
,
0000
0000
0000
0000
,
0303
0000
0000
0000
;

//---------------dance-single - Get Shrek'd----------------
#NOTES:
     dance-single:
     Get Shrek'd:
     Edit:
     16:
     0.707806,0.857819,0.238283,0.673766,0.912049,603.000000,574.000000,29.000000,82.000000,0.000000,0.000000,0.707806,0.857819,0.238283,0.673766,0.912049,603.000000,574.000000,29.000000,82.000000,0.000000,0.000000:
// measure 0
0000
0000
0000
0000
,  // measure 1
1000
0001
1000
0001
1000
0100
0040
0000
,  // measure 2
0031
0000
1000
0000
0010
0000
0000
0100
0001
1000
0100
1000
0001
0010
0100
0010
,  // measure 3
0002
0000
0010
0000
1003
0000
0010
0000
0100
0000
0001
0000
1000
0010
1000
0000
,  // measure 4
0001
0000
0010
0100
0000
0010
0100
0000
1000
0000
0001
0000
1000
0001
0100
0001
,  // measure 5
1000
0000
0000
0000
0000
0000
0000
0000
0000
0000
0000
0000
0000
0000
0000
0000
0000
0000
0000
0000
0000
0000
0000
0000
0100
0000
0000
0000
0000
0000
0000
0000
0000
0000
0000
0000
0000
0000
0000
0000
0000
0000
0000
0000
0000
0000
0000
0000
0010
0000
0000
0000
0000
0000
0000
0000
0000
0000
0000
0000
0000
0000
0000
0000
0000
0000
0000
0000
0000
0000
0000
0000
0001
0000
0000
0000
0000
0000
0000
0000
0000
0000
0000
0000
1000
0000
0000
0000
0000
0000
0000
0000
0000
0000
0000
0000
0000
0000
0000
0000
0000
0000
0000
0000
0000
0000
0000
0000
0000
0000
0000
0000
0000
0000
0000
0000
0000
0000
0000
0000
0010
0000
0000
0000
0000
0000
0000
0000
0000
0000
0000
0000
0000
0000
0000
0000
0000
0000
0000
0000
0000
0000
0000
0000
0100
0000
0000
0000
0000
0000
0000
0000
0000
0000
0000
0000
0000
0000
0001
0000
0000
0000
0000
0000
0000
0000
0000
0000
0100
0000
0000
0000
0000
0000
0000
0000
0000
0000
0000
0000
0000
0000
0001
0000
0000
0000
0000
0000
0000
0000
0000
0000
,  // measure 6
1000
0000
0001
0000
0010
0000
0000
0100
1000
0001
0100
0001
1000
0100
0010
0100
,  // measure 7
2000
0000
0010
0000
3001
0000
0010
0000
0100
0000
1000
0000
0001
0010
0001
0000
,  // measure 8
1000
0010
0000
1000
0010
0000
0100
0000
0001
0000
1000
0000
0100
0000
0010
0000
,  // measure 9
0002
0003
2000
3000
0002
0003
2000
3000
0002
0003
0100
0000
0001
1000
0010
1000
,  // measure 10
0001
0000
1000
0000
0100
0000
0000
0010
0001
1000
0100
1000
0001
0100
0010
0100
,  // measure 11
0002
0000
0100
0000
1003
0000
0010
0000
0100
0000
0001
0000
1000
0100
1000
0000
,  // measure 12
0001
0000
0100
0010
0000
0100
0010
0000
1000
0000
0001
0000
0010
0100
1000
0100
,  // measure 13
0010
0000
0000
0000
0000
0000
0000
0000
0000
0000
0000
0000
0000
0000
0000
0000
0000
0000
0000
0000
0000
0000
0000
0000
0002
0000
0000
0000
0000
0000
0000
0000
0000
0000
0000
0000
0000
0000
0000
0000
0000
0000
0000
0000
0000
0000
0000
0000
0103
0000
0000
0000
0000
0000
0000
0000
0000
0000
0000
0000
0000
0000
0000
0000
0000
0000
0000
0000
0000
0000
0000
0000
0010
0000
0000
0000
0000
0000
0000
0000
0000
0000
0000
0000
1000
0000
0000
0000
0000
0000
0000
0000
0000
0000
0000
0000
0000
0000
0000
0000
0000
0000
0000
0000
0000
0000
0000
0000
1000
0000
0000
0000
0000
0000
0000
0000
0000
0000
0000
0000
0100
0000
0000
0000
0000
0000
0000
0000
0000
0000
0000
0000
0000
0000
0000
0000
0000
0000
0000
0000
0000
0000
0000
0000
0010
0000
0000
0000
0000
0000
0000
0000
0000
0000
0000
0000
0000
0000
0001
0000
0000
0000
0000
0000
0000
0000
0000
0000
0010
0000
0000
0000
0000
0000
0000
0000
0000
0000
0000
0000
0000
0000
0001
0000
0000
0000
0000
0000
0000
0000
0000
0000
,  // measure 14
1000
0000
0001
0000
0100
0000
0000
0010
1000
0001
0010
0001
1000
0010
0100
0010
,  // measure 15
2000
0000
0100
0000
3001
0000
0100
0000
0010
0000
0000
0000
0000
1001
0000
0000
,  // measure 16
1000
0100
0000
1000
0100
0000
0010
0000
0001
0000
1000
0000
0010
0000
0100
0000
,  // measure 17
0001
0000
0010
0100
0000
0010
0100
0000
1000
0010
0100
0001
1000
0100
0010
0001
,  // measure 18
2000
0000
0000
0000
3100
0000
0000
0201
0000
0000
0000
0000
0301
0000
0000
0012
,  // measure 19
0000
0000
0000
0000
0013
0000
0000
2010
0000
0000
3200
0000
0000
0320
0000
0000
,  // measure 20
0032
0000
0000
0200
0000
0300
0000
2000
,  // measure 21
0000
3000
0000
0020
0000
0000
0033
0000
,  // measure 22
0102
0000
0000
0000
0103
0000
0000
1200
0000
0000
0000
0000
1300
0000
0000
2010
,  // measure 23
0000
0000
0000
0000
3010
0000
0000
0012
0000
0000
0203
0000
0000
0320
0000
0000
,  // measure 24
2030
0000
0000
0200
0000
0300
0000
0002
,  // measure 25
0000
0003
0000
0020
0000
0000
3030
0000
,  // measure 26
1001
0000
1001
0000
0000
1001
0000
0000
1000
0100
0010
0001
1000
0010
0100
0000
,  // measure 27
0101
0000
0101
0000
0000
0101
0000
0000
0001
1000
0100
1000
0002
0000
0103
0000
,  // measure 28
1001
0000
1001
0000
0000
1001
0000
0000
0001
0100
0010
1000
0001
0010
0100
0000
,  // measure 29
1100
0000
0000
0000
0000
0000
1100
0000
0000
0000
0000
0000
0000
0000
0000
1100
0000
0000
0000
0000
0000
0000
0000
0000
1000
0000
0000
0000
0010
0000
0000
0000
0100
0000
0000
0000
0001
0000
0000
0000
0100
0000
0000
0000
0010
0000
0000
0000
,  // measure 30
1000
0000
1000
0000
0001
0010
0100
1000
0010
0000
0010
0000
1000
0100
0010
0001
,  // measure 31
0100
0000
0100
0000
0001
0100
0010
1000
0100
0000
0100
0000
1000
0010
0100
0001
,  // measure 32
0010
0001
0010
0001
1000
0001
1000
0001
1000
0010
1000
0010
0100
0010
0100
0010
,  // measure 33
0400
0000
0301
0000
,  // measure 34
1000
0100
0010
0002
0000
0000
0000
0000
0100
0000
0000
0100
0000
0000
2003
0000
,  // measure 35
0100
0000
0000
0100
0000
0000
3002
0000
0100
0000
0000
0103
0000
0000
0000
0000
,  // measure 36
1001
0000
0000
0110
0000
0000
2000
0000
0010
0000
0000
0010
0000
0000
3002
0000
,  // measure 37
0010
0000
0000
0013
0000
0100
1000
0001
0200
0000
0000
0010
0000
0000
0301
0000
,  // measure 38
1000
0100
0010
0002
0000
0000
0203
0000
0010
0000
0000
0010
0000
0000
0302
0000
,  // measure 39
0010
0000
0000
0010
0000
0000
0203
0000
0010
0000
0000
0010
0000
0000
0301
0000
,  // measure 40
1000
0100
0010
0001
0010
0100
2000
0000
3001
0100
0010
1000
0010
0100
0002
0000
,  // measure 41
1003
0100
0010
0001
1000
0001
0100
0010
2000
0000
0001
0000
0010
0000
3100
0000
,  // measure 42
0001
1000
0010
0200
0000
0000
0000
0000
1000
0000
0000
1000
0000
0000
0320
0000
,  // measure 43
0001
0000
0000
0001
0000
0000
0230
0000
1000
0000
0000
1300
0000
0000
0000
0000
,  // measure 44
0110
0000
0000
2001
0000
0000
3200
0000
0001
0000
0000
0001
0000
0000
0320
0000
,  // measure 45
1000
0000
0000
1000
0000
0130
1000
0001
0200
0000
0000
1000
0000
0000
0301
0000
,  // measure 46
1000
0001
0010
0200
0000
0000
0000
0000
0001
0000
0000
0001
0000
0000
2300
0000
,  // measure 47
0010
0000
0000
0010
0000
0000
3200
0000
0001
0000
0000
0001
0000
0000
2300
0000
,  // measure 48
0000
0000
0000
0000
,  // measure 49
3000
0000
0000
0000
0000
0000
0000
0000
0001
1000
0001
1000
0001
0000
0000
0000
,  // measure 50
2002
0000
0000
0000
,  // measure 51
0000
0000
0000
0000
,  // measure 52
0000
0000
0000
0000
,  // measure 53
0000
0000
0000
0000
3003
0000
0000
0000
0001
0010
0100
1000
0001
0000
0000
0000
,  // measure 54
1000
0010
0100
0000
0001
0010
0100
1000
0000
0001
0000
1000
0010
0000
0100
0001
,  // measure 55
1000
0100
0010
0100
1000
0001
0100
0001
0020
0000
0230
0000
0000
1300
0001
0100
,  // measure 56
0010
0100
0001
1000
0100
0000
0010
0001
2000
3000
0000
0020
0030
0000
0100
0001
,  // measure 57
1000
0000
0100
0000
0010
0001
0000
0010
0100
1000
0100
0010
0001
1000
0010
1000
,  // measure 58
0001
0010
0100
0000
1000
0010
0000
0002
0000
0003
0010
0000
0100
0001
0000
0020
,  // measure 59
0000
0230
0000
0300
0000
1000
0001
1000
0100
0010
0100
0010
0001
1000
0001
0200
,  // measure 60
0000
0300
0000
0001
0010
0100
1000
0000
0001
0100
0010
1000
0001
0010
0100
1000
,  // measure 61
0001
0000
0000
1100
0000
0000
0101
0000
0000
0100
0020
0000
2030
0000
0000
0000
,  // measure 62
3001
0010
0100
0000
1000
0010
0100
0001
1000
0001
0100
0001
1000
0100
0000
0010
,  // measure 63
0002
0000
0023
0000
0230
0000
1300
0001
2000
0000
3020
0000
0130
0001
0000
0010
,  // measure 64
0000
0100
0010
0100
0000
1000
0001
1000
0020
0000
1030
0001
0100
0001
1000
0100
,  // measure 65
0010
0001
0010
0001
0000
1000
0010
1000
0010
0000
0100
0001
0010
0200
0000
0000
,  // measure 66
1300
0000
0010
0000
0100
0001
0010
2000
0000
3000
0010
0000
0100
1000
0000
0020
,  // measure 67
0000
0230
0000
0300
0000
0001
1000
0001
0100
0010
0100
0010
1000
0001
1000
0200
,  // measure 68
0000
0300
0000
1000
0010
0100
0001
0000
1000
0100
0010
0001
1000
0010
0100
0001
,  // measure 69
1000
0000
0000
0101
0000
0000
1100
0000
0000
0100
0020
0000
0032
0000
0000
0000
,  // measure 70
2003
0000
0000
0020
0000
0000
0000
0000
,  // measure 71
0000
0000
0000
0000
,  // measure 72
3030
0000
0000
0000
;
