#VERSION:0.83;
#TITLE:BABY P;
#SUBTITLE:;
#ARTIST:Plus-tech Squeeze Box;
#TITLETRANSLIT:;
#SUBTITLETRANSLIT:;
#ARTISTTRANSLIT:;
#GENRE:PANIC POP;
#ORIGIN:;
#CREDIT:azureHaights;
#BANNER:BABY P-bn.png;
#BACKGROUND:BABY P-bg.png;
#PREVIEWVID:;
#JACKET:BABY P-jacket.png;
#CDIMAGE:;
#DISCIMAGE:;
#LYRICSPATH:BABY P.lrc;
#CDTITLE:BABY P-cdtitle.png;
#MUSIC:BABY P.ogg;
#OFFSET:0.104000;
#SAMPLESTART:59.896000;
#SAMPLELENGTH:14.118000;
#SELECTABLE:YES;
#BPMS:0.000=136.000,
72.000=68.000,
76.000=136.000;
#STOPS:;
#DELAYS:;
#WARPS:;
#TIMESIGNATURES:0.000=4=4;
#TICKCOUNTS:0.000=4;
#COMBOS:0.000=1;
#SPEEDS:0.000=1.000=0.000=0;
#SCROLLS:0.000=1.000;
#FAKES:;
#LABELS:0.000=Song Start;
#BGCHANGES:;
#KEYSOUNDS:;
#ATTACKS:
;

//---------------dance-single - ----------------
#NOTEDATA:;
#CHARTNAME:;
#STEPSTYPE:dance-single;
#DESCRIPTION:;
#CHARTSTYLE:XO RH XMOD- SPIN;
#DIFFICULTY:Hard;
#METER:14;
#RADARVALUES:0.565929,0.725940,0.085092,0.264730,0.458551,419.000000,410.000000,9.000000,28.000000,0.000000,12.000000,1.000000,0.000000,0.000000,0.565929,0.725940,0.085092,0.264730,0.458551,419.000000,410.000000,9.000000,28.000000,0.000000,12.000000,1.000000,0.000000,0.000000;
#CREDIT:azureHaights;
#NOTES:
// measure 0
0000
0000
0000
0000
,  // measure 1
0000
0000
0000
0000
,  // measure 2
0000
0000
0000
0000
,  // measure 3
0000
0000
0000
0000
,  // measure 4
0000
0000
0000
0000
,  // measure 5
0000
0000
0000
0000
,  // measure 6
1000
0000
0001
0000
0100
0000
0001
0010
0000
0010
0000
0001
1000
0000
1000
0000
,  // measure 7
0001
0000
1000
0000
0100
0000
1000
0010
0000
0010
0000
1000
0001
0000
0001
0000
,  // measure 8
0100
0010
0000
0001
0000
0010
0100
0001
0000
0100
0000
0010
1000
0010
1000
0000
,  // measure 9
0100
1000
0100
0000
0010
0100
0010
0000
0100
0000
1000
0001
0000
0000
0100
0000
,  // measure 10
0100
0000
0001
0000
1000
0000
0001
0000
0100
0000
0001
1000
0000
0000
1000
0000
,  // measure 11
0100
1000
0100
0100
1000
0100
0010
0001
,  // measure 12
0100
0000
0001
0000
1000
0000
0001
0000
0100
0000
0010
0100
0000
0000
0001
0000
,  // measure 13
1000
0000
0100
0010
0000
0010
0100
0000
1000
0000
0000
0010
0000
0000
1000
0000
,  // measure 14
0100
0000
0010
0000
0001
0000
0010
0000
0100
0000
0010
0001
0000
0000
0100
0000
,  // measure 15
0001
0100
0001
0001
1000
0010
1000
0100
,  // measure 16
0010
0000
0001
0000
0100
0000
0001
0000
1000
0000
0001
0100
0000
0000
0010
0000
,  // measure 17
1000
0100
1000
0000
0010
1000
0010
0000
1000
0000
0001
0000
1001
0000
0000
0000
,  // measure 18
2000
3000
0100
0000
0010
0000
0100
0000
1000
0000
0010
0000
0100
0000
0010
0000
1000
0000
0100
0000
0010
0000
0002
0000
0000
0000
0013
0000
0100
1000
0100
0000
,  // measure 19
2000
3000
0000
0000
0100
0000
0000
0000
0010
0000
0000
0000
0100
0000
0000
0000
0001
0000
0000
0000
0100
0000
1000
0000
0000
0000
0000
0000
0001
0000
0000
0000
,  // measure 20
0100
0000
0010
1000
0010
0000
0100
0001
0100
0000
0010
1000
0000
1000
0100
0000
,  // measure 21
1000
0001
0100
0001
0010
0001
1000
0010
,  // measure 22
0100
0001
1000
1000
0100
1000
0010
0010
,  // measure 23
1000
0000
0100
0000
0010
0000
0100
0000
1000
0000
0100
0010
0000
0000
0001
0000
,  // measure 24
0100
0010
0001
0000
0010
0100
0001
0000
1000
0000
0100
0000
0010
0000
0001
1000
,  // measure 25
0001
0000
0001
0000
0100
0000
0100
0000
0010
0100
0010
0100
0000
0000
0001
1000
,  // measure 26
0001
1000
0010
1000
0001
0100
1000
0100
,  // measure 27
0001
0000
0100
0000
0100
0000
0010
1000
0010
0000
1000
0400
0000
0300
1000
0000
,  // measure 28
0001
0000
0001
0000
0100
0000
0010
0000
1000
0100
0000
0001
0000
0000
0100
0000
,  // measure 29
1000
0000
0001
0000
0101
0000
0100
0010
0100
0010
0000
1000
0000
0000
0100
1000
,  // measure 30
0100
0000
0100
0000
0010
0000
0001
0010
0001
0000
0001
0000
0100
0000
0002
0000
,  // measure 31
0000
0000
1000
0000
1003
0000
0100
1000
0100
1000
0000
0010
0000
0000
0100
0000
,  // measure 32
0001
0000
1000
0100
0000
0010
0001
0000
0010
0000
0001
0100
0000
0000
0001
0000
,  // measure 33
0011
0000
0010
0001
0200
0000
2000
0000
,  // measure 34
0320
3002
2030
3003
,  // measure 35
1000
0000
0100
0000
0001
0000
0100
0000
0010
0000
0001
0010
0000
0000
0001
0000
,  // measure 36
0100
0001
0000
1000
0100
1000
0010
0010
,  // measure 37
1010
0000
0010
1000
0200
0000
0002
0000
,  // measure 38
0320
2003
0032
3003
,  // measure 39
0001
0000
0100
0000
1000
0000
0100
0000
0010
0000
1000
0010
0000
0000
0001
0000
,  // measure 40
0010
1000
0100
1000
2002
0000
3003
0000
,  // measure 41
0011
0000
0010
0001
0200
0000
2000
0000
,  // measure 42
0320
3002
2030
3003
,  // measure 43
1000
0000
0100
0000
0001
0000
1000
0000
0010
0000
0001
0010
0000
0000
0001
0000
,  // measure 44
0000
0100
0001
0100
1000
0100
0010
0100
,  // measure 45
1010
0000
0010
1000
0200
0000
0002
0000
,  // measure 46
0320
2003
0032
3003
,  // measure 47
0001
0010
1000
0001
0100
1000
0001
0100
,  // measure 48
0010
1000
0100
1000
2002
0000
3003
0000
,  // measure 49
0001
0000
0100
0000
0010
0000
0100
0001
0000
0001
0000
1000
0100
0000
0010
0000
,  // measure 50
1000
0000
0010
0000
0001
0000
0100
0010
0000
0010
0000
0001
0010
0000
1000
0000
,  // measure 51
0100
0000
0010
0001
0000
0100
0001
0100
0001
1000
0000
0100
0000
1000
0000
1000
,  // measure 52
0000
0100
0010
0000
0010
0001
0010
0000
0001
0100
0000
1000
0000
0000
0100
0000
,  // measure 53
0001
0000
0001
0000
0100
0000
0010
1000
0000
1000
0000
0001
0010
0000
0100
0000
,  // measure 54
1000
0000
0100
0000
0001
0000
0100
1000
0000
1000
0000
0001
0100
0000
0010
0000
,  // measure 55
1000
0100
0000
0010
0000
0100
1000
0100
0000
0010
0000
0100
1000
0001
0100
0000
,  // measure 56
0001
0100
0010
0000
0100
0001
1000
0000
0100
0000
1000
0001
0000
0000
1001
0000
;

//---------------dance-single - ----------------
#NOTEDATA:;
#CHARTNAME:;
#STEPSTYPE:dance-single;
#DESCRIPTION:;
#CHARTSTYLE:XO FS XMOD- RH STR SJ;
#DIFFICULTY:Challenge;
#METER:15;
#RADARVALUES:0.682086,0.806600,0.321458,0.075637,0.652371,505.000000,471.000000,34.000000,8.000000,6.000000,0.000000,0.000000,0.000000,0.000000,0.682086,0.806600,0.321458,0.075637,0.652371,505.000000,471.000000,34.000000,8.000000,6.000000,0.000000,0.000000,0.000000,0.000000;
#CREDIT:azureHaights;
#NOTES:
// measure 0
0000
0000
0000
0000
,  // measure 1
0000
0000
0000
0000
,  // measure 2
0000
0000
0000
0000
,  // measure 3
0000
0000
0000
0000
,  // measure 4
0000
0000
0000
0000
,  // measure 5
0000
0000
0000
0000
,  // measure 6
0001
0000
1000
0000
0100
0000
1000
0001
0000
0100
00M0
0100
1000
0000
0010
0000
,  // measure 7
1000
0000
0001
0000
0100
0000
0001
1000
0000
0100
00M0
0100
0001
0000
0001
0000
,  // measure 8
1000
0100
0010
0001
0000
0100
0001
0100
0010
1000
0000
0001
1000
0001
1000
0000
,  // measure 9
0100
1000
0100
1000
0100
0010
0100
0010
0100
0000
1000
0001
0000
0000
0100
0000
,  // measure 10
0010
0000
1000
0000
0100
0000
1000
0000
0010
0000
1000
0100
0000
0010
0001
0000
,  // measure 11
0010
0000
0001
0000
0100
0000
0001
0000
0010
0001
0010
0000
0001
0000
0100
0000
,  // measure 12
0001
0000
0100
0000
1000
0000
0100
0000
0001
0000
0100
0010
0000
0100
0001
0000
,  // measure 13
1000
0000
0100
0001
0000
0100
1000
0000
0100
0000
0001
0100
0000
1000
0010
0000
,  // measure 14
0100
0000
0001
0000
0010
0000
0001
0000
0100
0000
0001
0010
0000
0001
1000
0000
,  // measure 15
0100
0000
1000
0000
0010
0000
1000
0000
0010
1000
0010
0000
0100
0000
0001
0000
,  // measure 16
0010
0000
0001
0000
1000
0000
0100
0000
0001
0000
0100
1000
0000
0001
0010
0000
,  // measure 17
0001
0100
0010
0000
0010
0100
0001
0000
0101
0000
0001
0000
1001
0000
0000
0000
,  // measure 18
2000
3000
0010
0000
0100
0000
0010
0000
0001
0000
0010
0100
0000
0000
0010
0000
1000
0000
0100
0000
0001
0000
0100
0000
1000
0000
1000
0000
0001
1000
0001
1000
,  // measure 19
0002
0003
0000
0000
0100
0000
0000
0000
1000
0000
0000
0000
0100
0000
0000
0000
0001
0000
0000
0000
1000
0000
0100
0000
0000
0000
0010
0000
0100
0000
0000
0000
,  // measure 20
0010
0000
0001
0100
0010
0000
1000
0100
0010
0000
0100
1000
0000
1000
0010
0000
,  // measure 21
0100
0000
0001
0000
0010
0000
0001
0000
1000
0000
0100
0010
0000
0010
0001
0000
,  // measure 22
0100
0000
0010
0000
0001
0000
0010
0000
1000
0100
1000
0000
0100
0000
0010
0000
,  // measure 23
0100
1000
0100
0000
0010
0000
0001
0000
0100
0000
0001
0100
0000
0100
0001
0000
,  // measure 24
1000
0010
0100
0000
0001
0100
0010
0000
0110
0000
0100
0000
1001
0000
1000
0001
,  // measure 25
1000
0000
0100
0000
1000
0000
0100
0010
0001
0010
0100
1000
0000
0000
0100
1000
,  // measure 26
0001
1000
0001
1000
0010
0000
0100
0000
0001
0000
1000
0000
0001
0000
0100
0000
,  // measure 27
1000
0000
0100
0000
0001
0000
0010
0001
0010
0001
0100
0002
0000
0003
1000
0001
,  // measure 28
1000
0000
0010
0100
0010
0000
1000
0000
0100
0010
0000
0100
0000
0010
0000
0001
,  // measure 29
0010
0000
0001
0000
0100
0000
1000
0100
0001
1000
0000
0001
0000
0100
0001
0100
,  // measure 30
0010
0000
0010
0000
0010
1000
0010
1000
0100
0000
0100
0000
0010
0000
0002
0000
,  // measure 31
0000
0000
1003
0000
0100
0000
1000
0100
0010
0001
0000
1000
0000
1000
0100
1000
,  // measure 32
0001
0000
0010
0001
0000
0001
0100
0001
1000
0000
0010
1000
0000
0000
0001
0000
,  // measure 33
0011
0000
0011
0001
0101
0100
0110
0000
,  // measure 34
1001
0000
0011
0000
1100
1000
0100
1000
,  // measure 35
0010
0000
1000
0000
0001
0000
0001
0000
1000
0000
1000
0100
0000
0100
1000
0000
,  // measure 36
0001
0100
1000
0001
0010
1000
0100
1000
,  // measure 37
1100
0000
1100
1000
1010
0010
0110
0000
,  // measure 38
1001
0000
1010
0000
0101
0001
0100
0001
,  // measure 39
1000
0000
0100
0000
0010
0000
1000
0000
0010
0000
0100
1000
0000
0010
0001
0000
,  // measure 40
0010
1000
0100
1000
2002
0000
3003
0000
,  // measure 41
0011
0000
0011
0010
0110
0100
1100
0000
,  // measure 42
1001
0000
0101
0000
1100
1000
0100
0010
,  // measure 43
0001
0000
0100
0000
1000
0000
0100
0000
0010
0000
1000
0001
0000
0010
0001
0000
,  // measure 44
0100
0001
1000
0100
0001
0100
1000
1000
,  // measure 45
1100
0000
1001
1000
1100
0100
0110
0000
,  // measure 46
1001
0000
0101
0000
1010
1000
0100
1000
,  // measure 47
0001
0000
0010
0000
1000
0000
0010
0000
0100
0000
1000
0010
0000
0100
0010
0000
,  // measure 48
0001
0010
1000
0100
2002
0000
3003
0000
,  // measure 49
0001
0000
0100
0000
1000
0000
0100
0001
0000
0100
00M0
0100
1000
0000
0010
0000
,  // measure 50
1000
0000
0100
0000
0001
0000
0100
1000
0000
0100
00M0
0100
0001
0000
1000
0000
,  // measure 51
0100
0010
1000
0010
0000
0100
0010
0001
0100
0010
0000
0001
0000
0010
0000
0100
,  // measure 52
0000
0100
0010
1000
0100
0010
0001
1000
0010
0100
0000
0100
0000
0000
0100
0000
,  // measure 53
0001
0000
0010
0000
1000
0000
0010
0001
0000
0010
0M00
0010
1000
0000
0100
0000
,  // measure 54
1000
0000
0010
0000
0001
0000
0010
1000
0000
0010
0M00
0010
0001
0000
0100
0000
,  // measure 55
0010
1000
0001
0100
0000
0001
0010
0001
1000
0100
0000
1000
0010
0100
0001
0000
,  // measure 56
0100
0010
1000
0100
0010
0001
0010
0100
1000
0001
1000
0001
0000
0000
0100
0000
;

//---------------dance-single - ----------------
#NOTEDATA:;
#CHARTNAME:;
#STEPSTYPE:dance-single;
#DESCRIPTION:;
#CHARTSTYLE:;
#DIFFICULTY:Medium;
#METER:10;
#RADARVALUES:0.459226,0.456069,0.056728,0.094547,0.061455,340.000000,334.000000,6.000000,10.000000,0.000000,0.000000,0.000000,0.000000,0.000000,0.459226,0.456069,0.056728,0.094547,0.061455,340.000000,334.000000,6.000000,10.000000,0.000000,0.000000,0.000000,0.000000,0.000000;
#CREDIT:azureHaights;
#NOTES:
// measure 0
0000
0000
0000
0000
,  // measure 1
0000
0000
0000
0000
,  // measure 2
0000
0000
0000
0000
,  // measure 3
0000
0000
0000
0000
,  // measure 4
0000
0000
0000
0000
,  // measure 5
0000
0000
0000
0000
,  // measure 6
1000
0000
0100
0000
0010
0000
0001
0010
0000
0010
0000
0000
0100
0000
1000
0000
,  // measure 7
0001
0000
0100
0000
0010
0000
1000
0010
0000
0010
0000
0000
0100
0000
0001
0000
,  // measure 8
1000
0100
0010
0001
0100
0010
0100
0001
,  // measure 9
1000
0100
0010
0100
1000
0001
0100
0000
,  // measure 10
0100
0001
1000
0001
0010
0001
0100
0000
,  // measure 11
0010
1000
0100
0000
0100
1000
0010
0000
,  // measure 12
0010
1000
0001
1000
0100
1000
0010
1000
,  // measure 13
0001
0010
0011
0000
1000
0010
1010
0000
,  // measure 14
1000
0100
0010
0100
1000
0001
0100
0000
,  // measure 15
0010
1000
0100
0000
0100
1000
0010
0000
,  // measure 16
1000
0001
0100
0010
0100
0001
1000
0000
,  // measure 17
0001
0100
0010
1000
0100
0010
0001
0000
,  // measure 18
0200
0300
0000
0000
0020
0030
0000
0000
2000
0000
0000
0000
3002
0000
0000
0000
0023
0000
0000
0000
0230
0000
0000
0000
2300
0000
0000
0000
3001
0000
0000
0000
,  // measure 19
0200
0300
0000
0000
0010
0000
0000
0000
1000
0000
0000
0000
0010
0000
0000
0000
0100
0000
0000
0000
0001
0000
0000
0000
0100
0000
0000
0000
0010
0000
0000
0000
,  // measure 20
0100
0000
0010
0000
0010
0000
1000
0000
1000
0000
0000
0100
0000
0000
0010
0000
,  // measure 21
0001
0010
0100
0010
0001
0010
0100
1000
,  // measure 22
0100
1000
0001
0000
0001
1000
0100
0000
,  // measure 23
0010
0001
0100
0001
0010
0001
1000
0010
,  // measure 24
0100
0001
0010
0001
1000
1000
0001
0000
,  // measure 25
0001
0001
0100
0000
0010
1000
0010
0000
,  // measure 26
0100
0001
1000
0100
1000
0100
0010
0000
,  // measure 27
0001
0001
1000
0000
0100
0010
0100
0000
,  // measure 28
0010
0001
1000
0001
0010
0001
0100
0000
,  // measure 29
0001
0001
0010
0000
0100
1000
0001
0000
,  // measure 30
1000
1000
0010
1000
0100
0100
1000
0000
,  // measure 31
0001
1000
0010
0000
0100
0010
1000
0000
,  // measure 32
1000
0100
0010
0100
1000
0100
0001
0100
,  // measure 33
1000
0000
0001
0100
0010
0000
1000
0000
,  // measure 34
0001
0010
0011
0000
,  // measure 35
0010
0001
0100
0000
0010
1000
0100
0000
,  // measure 36
0010
0001
1000
0010
0100
0001
1000
0100
,  // measure 37
1000
0000
0010
1000
0001
0000
0100
0000
,  // measure 38
0010
1000
1010
0000
,  // measure 39
0010
1000
0100
0000
0010
0001
0100
0000
,  // measure 40
0001
0100
0010
1000
0200
0000
0300
0000
,  // measure 41
1000
0000
0100
0010
0001
0000
0010
0000
,  // measure 42
0100
1000
1100
0000
,  // measure 43
0100
1000
0010
0000
0100
0001
0010
0000
,  // measure 44
0100
1000
0001
0100
0010
1000
0010
0100
,  // measure 45
0001
0000
1000
0100
0010
0000
0001
0000
,  // measure 46
0100
0001
0101
0000
,  // measure 47
0100
0001
0010
0000
0100
1000
0010
0000
,  // measure 48
1000
0100
0010
0001
0200
0000
0300
0000
,  // measure 49
0010
0000
0100
0000
0001
0000
1000
0010
0000
0010
0000
0000
0100
0000
0001
0000
,  // measure 50
1000
0000
0100
0000
0010
0000
0001
0010
0000
0010
0000
0000
0100
0000
1000
0000
,  // measure 51
0001
0010
0001
0100
0010
1000
0100
1000
,  // measure 52
0100
0010
0001
1000
0100
0010
0001
0000
,  // measure 53
0001
0000
0010
0000
0100
0000
1000
0100
0000
0100
0000
0000
0010
0000
0001
0000
,  // measure 54
1000
0000
0010
0000
0100
0000
0001
0100
0000
0100
0000
0000
0010
0000
1000
0000
,  // measure 55
0010
0100
0001
1000
0001
0010
0100
1000
,  // measure 56
0001
0100
0010
0100
0001
1000
0001
0000
;

//---------------dance-single - ----------------
#NOTEDATA:;
#CHARTNAME:;
#STEPSTYPE:dance-single;
#DESCRIPTION:;
#CHARTSTYLE:;
#DIFFICULTY:Easy;
#METER:7;
#RADARVALUES:0.341718,0.348759,0.000000,0.302549,0.000000,253.000000,253.000000,0.000000,32.000000,0.000000,0.000000,0.000000,0.000000,0.000000,0.341718,0.348759,0.000000,0.302549,0.000000,253.000000,253.000000,0.000000,32.000000,0.000000,0.000000,0.000000,0.000000,0.000000;
#CREDIT:azureHaights;
#NOTES:
// measure 0
0000
0000
0000
0000
,  // measure 1
0000
0000
0000
0000
,  // measure 2
0000
0000
0000
0000
,  // measure 3
0000
0000
0000
0000
,  // measure 4
0000
0000
0000
0000
,  // measure 5
0000
0000
0000
0000
,  // measure 6
1000
1000
0100
0000
0010
0000
0001
0000
,  // measure 7
0001
0001
0100
0000
0010
0000
1000
0000
,  // measure 8
0100
0100
0010
0000
0010
0010
0001
0000
,  // measure 9
1000
1000
0001
0001
0100
0000
0001
0000
,  // measure 10
0100
0000
0010
0000
0100
0000
0010
0010
,  // measure 11
1000
0000
0100
0000
1000
0000
0100
0100
,  // measure 12
0010
0000
0100
0000
0010
0000
0100
0100
,  // measure 13
1000
1000
0001
0001
,  // measure 14
0100
0000
0010
0000
0100
0000
0010
0010
,  // measure 15
1000
0000
0100
0000
1000
0000
0100
0100
,  // measure 16
1000
0000
0001
0000
1000
0000
0001
0001
,  // measure 17
0100
0010
1000
0100
,  // measure 18
2000
0000
0000
3000
0002
0000
0000
0003
,  // measure 19
1000
0000
1000
0000
0100
0000
0010
0010
,  // measure 20
0001
0100
0010
0100
,  // measure 21
0001
0000
1000
0000
0001
0000
1000
1000
,  // measure 22
0100
0000
0010
0000
0100
0000
0010
0010
,  // measure 23
0001
0000
1000
0000
0010
0000
0100
0100
,  // measure 24
0001
0000
0100
0000
0010
0010
1000
0000
,  // measure 25
1000
0000
0100
0000
1000
1000
0100
0000
,  // measure 26
1000
1000
0100
0100
1000
0100
0010
0000
,  // measure 27
0001
0000
0100
0000
0001
0001
0100
0000
,  // measure 28
0001
0001
0100
0100
0001
0100
0010
0000
,  // measure 29
1000
0000
0010
0000
1000
1000
0010
0000
,  // measure 30
1000
1000
0100
0100
1000
0010
0100
0000
,  // measure 31
0001
0000
0010
0000
0001
0001
0010
0000
,  // measure 32
0001
0001
0100
0100
0010
0010
1000
0000
,  // measure 33
2000
3000
0200
0300
0020
0030
0002
0003
,  // measure 34
0020
0030
0200
0300
2000
3000
0000
0000
,  // measure 35
1000
1000
0100
0000
1000
1000
0001
0000
,  // measure 36
0010
0000
0001
0000
0010
0001
1000
0000
,  // measure 37
0002
0003
0200
0300
0020
0030
2000
3000
,  // measure 38
0020
0030
0200
0300
0002
0003
0000
0000
,  // measure 39
0001
0001
0100
0000
0001
0001
1000
0000
,  // measure 40
0010
0010
1000
0000
0200
0000
0300
0000
,  // measure 41
2000
3000
0020
0030
0200
0300
0002
0003
,  // measure 42
0200
0300
0020
0030
2000
3000
0000
0000
,  // measure 43
0100
0100
1000
0000
0001
0001
0100
0000
,  // measure 44
0010
0000
1000
0000
0010
0010
1000
0000
,  // measure 45
0002
0003
0020
0030
0200
0300
2000
3000
,  // measure 46
0200
0300
0020
0030
0002
0003
0000
0000
,  // measure 47
0001
0001
0100
0000
0010
0010
1000
0000
,  // measure 48
0100
0100
1000
0000
0002
0000
0003
0000
,  // measure 49
1000
0100
0010
0000
0001
0000
0001
0000
,  // measure 50
0001
0100
0010
0000
1000
0000
1000
0000
,  // measure 51
0001
0001
0010
0000
0001
0010
0001
0000
,  // measure 52
0001
0010
0100
0000
0100
0100
1000
0000
,  // measure 53
1000
0010
0100
0000
0001
0000
0001
0000
,  // measure 54
0001
0010
0100
0000
1000
0000
1000
0000
,  // measure 55
0001
0100
0001
0000
0001
1000
0001
0000
,  // measure 56
0001
0010
0001
0000
1000
0001
1000
0000
;

//---------------dance-double - ----------------
#NOTEDATA:;
#CHARTNAME:;
#STEPSTYPE:dance-double;
#DESCRIPTION:;
#CHARTSTYLE:;
#DIFFICULTY:Hard;
#METER:14;
#RADARVALUES:0.513253,0.564620,0.141820,0.274185,0.089819,380.000000,365.000000,15.000000,29.000000,0.000000,0.000000,0.000000,0.000000,0.000000,0.513253,0.564620,0.141820,0.274185,0.089819,380.000000,365.000000,15.000000,29.000000,0.000000,0.000000,0.000000,0.000000,0.000000;
#CREDIT:;
#NOTES:
00000000
00000000
00000000
00000000
,
00000000
00000000
00000000
00000000
,
00000000
00000000
00000000
00000000
,
00000000
00000000
00000000
00000000
,
00000000
00000000
00000000
00000000
,
00000000
00000000
00000000
00000000
,
00010000
00001000
00000010
00001000
00001000
00010000
00100000
00010000
,
00001000
00010000
01000000
00010000
00010000
00001000
00000100
00001000
,
00010000
00001000
00000010
00000001
00000100
00000001
00000100
00001000
,
00000100
00000010
00010000
00001000
00100000
00010000
01000000
00000000
,
00010000
00100000
01000000
10000000
00100000
00010000
00100000
10000000
,
01000000
00100000
00001000
01000000
00010000
00100000
00001000
00010000
,
00000100
00000010
00000001
00001000
00000010
00000001
00000010
00001000
,
00000100
00000000
00001100
00000000
00000000
00011000
00000000
00000000
00101000
00000000
00000000
00110000
00000000
00000000
00011000
00000000
,
00001000
01000000
00100000
00010000
00100000
10000000
00010000
10000000
,
01000000
00100000
00010000
00100000
01000000
00100000
00010000
10000000
,
10000000
01000000
00010000
01000000
00010000
00001000
00100000
00001000
,
00010000
00000100
00000010
00000001
00000100
00000001
00000101
00000000
,
00000002
00000003
00000000
00000000
00000100
00000000
00000000
00000000
00000200
00000000
00000000
00000000
00000310
00000000
00000000
00000000
00000020
00000000
00000000
00000000
00001030
00000000
00000000
00000000
00002000
00000000
00000000
00000000
00003100
00000000
00000100
00000000
,
00000200
00000300
00000000
00000000
00010000
00000000
00000000
00000000
00001000
00000000
00000000
00000000
00010000
00000000
00000000
00000000
00000100
00000000
00000000
00000000
00010000
00000000
00000000
00000000
00001000
00000000
00000000
00000000
00100000
00000000
00000000
00000000
,
00010000
01000000
00010000
00100000
01000000
10000000
01000000
01000000
,
10000000
00100000
01000000
00100000
10000000
01000000
00010000
01000000
,
10000000
00100000
01000000
00001000
00010000
00000100
00000010
00000001
,
00001000
00000100
00001000
00000010
00001000
00000100
00000010
00000001
,
00000100
00001000
00010000
00001000
00011000
00011000
00110000
00000000
,
00100000
00000000
00010000
00000000
11000000
00000000
01000000
00000000
10000000
01000000
10000000
00000000
01000000
00000000
00000000
00000000
,
10000000
00010000
00100000
01000000
00100000
00010000
00100000
00000000
,
00100000
00010000
00110000
00010000
00100000
00010000
01000000
00000000
,
00001000
00010000
00001000
00010000
00000100
00001000
00000100
00000000
,
00000100
00000000
00001000
00000000
00001100
00000000
00000100
00000000
00000010
00000000
00000010
00000000
00000001
00000000
00000100
00000001
,
00000100
00000000
00000010
00000000
00001000
00000000
00000100
00001000
00000100
00000000
00000010
00000000
00000001
00000000
00000020
00000000
,
00000000
00000000
00000031
00000000
00000011
00000000
00000001
00000010
00000100
00000000
00001000
00000000
00000001
00000000
00000000
00000000
,
00000100
00001000
00010000
00001000
00100000
00010000
01000000
00010000
,
00110000
00000000
00100000
00010000
20000000
00000000
32000000
00000000
,
03200000
00302000
00023000
00030000
,
00001000
01000000
00100000
01000000
00001000
00010000
00000100
00001000
,
00001000
00000200
00000300
00000010
00000001
00000010
00000100
00001000
,
00000001
00000000
00000010
00000001
00000002
00000000
00000203
00000000
,
00000320
00020030
00032000
00003000
,
01000000
00010000
00100000
00000000
01000000
10000000
00100000
00010000
,
00100000
10000000
01000000
10000000
00200000
00000000
00300000
00000000
,
01000000
00000000
01000000
00010000
20000000
00000000
30200000
00000000
,
02300000
03002000
00023000
00030000
,
01000000
10000000
00010000
01000000
00001000
01000000
00100000
01000000
,
00001000
00020000
00030000
00000100
00000010
00000100
00001000
00000001
,
00001000
00000000
00000010
00000100
00000002
00000000
00000023
00000000
,
00000230
00020300
00032000
00003000
,
01000000
00010000
00100000
00001000
00010000
00000100
00001000
00000001
,
00000010
00000001
00000100
00000010
00001000
00000000
00000100
00000000
,
00010000
00000000
00000100
00000000
00001000
00000000
00000100
00010000
00000000
00010000
00000000
00001000
00010000
00000000
00001000
00000000
,
00001000
00000000
01000000
00000000
00010000
00000000
01000000
00001000
00000000
00001000
00000000
01000000
00001000
00000000
00010000
00000000
,
01000000
10000000
00010000
01000000
00100000
10000000
01000000
00010000
,
00001000
00000100
00000001
00000010
00001000
00010000
00001000
00000000
,
00010000
00000000
00001000
00000000
00000010
00000000
00001000
00010000
00000000
00001000
00000000
00010000
00100000
00000000
00010000
00000000
,
00001000
00000000
00010000
00000000
01000000
00000000
00010000
00001000
00000000
00010000
00000000
00001000
00000100
00000000
00001000
00000000
,
00010000
00001000
00000010
00000001
00000100
00000001
00000100
00001000
,
00000100
00000010
00010000
00001000
00100000
00010000
01000000
10010000
;
