#VERSION:0.83;
#TITLE:Automatic;
#SUBTITLE:(L.A.Riots Remix);
#ARTIST:weezer;
#TITLETRANSLIT:;
#SUBTITLETRANSLIT:;
#ARTISTTRANSLIT:;
#GENRE:;
#ORIGIN:;
#CREDIT:;
#BANNER:Automatic (L.A. Riots Remix).png;
#BACKGROUND:Automatic (L.A. Riots Remix)-bg.png;
#PREVIEWVID:;
#JACKET:Automatic (L.A. Riots Remix)-jacket.png;
#CDIMAGE:;
#DISCIMAGE:;
#LYRICSPATH:;
#CDTITLE:;
#MUSIC:Automatic (L.A. Riots Remix).ogg;
#OFFSET:-0.018000;
#SAMPLESTART:44.015308;
#SAMPLELENGTH:16.000000;
#SELECTABLE:YES;
#BPMS:0.000=120.000,
120.000=90.000,
144.000=120.000;
#STOPS:224.000=1.500;
#DELAYS:;
#WARPS:;
#TIMESIGNATURES:0.000=4=4,
120.000=3=4,
144.000=4=4;
#TICKCOUNTS:0.000=4;
#COMBOS:0.000=1;
#SPEEDS:0.000=1.000=0.000=0;
#SCROLLS:0.000=1.000;
#FAKES:;
#LABELS:0.000=Song Start;
#BGCHANGES:;
#KEYSOUNDS:;
#ATTACKS:
;

//---------------dance-single - ----------------
#NOTEDATA:;
#CHARTNAME:;
#STEPSTYPE:dance-single;
#DESCRIPTION:;
#CHARTSTYLE:;
#DIFFICULTY:Hard;
#METER:13;
#RADARVALUES:0.393474,0.484654,0.090802,0.552377,0.287539,364.000000,352.000000,12.000000,73.000000,2.000000,0.000000,0.000000,0.000000,0.000000,0.393474,0.484654,0.090802,0.552377,0.287539,364.000000,352.000000,12.000000,73.000000,2.000000,0.000000,0.000000,0.000000,0.000000;
#CREDIT:hdm300;
#NOTES:
// measure 0
0000
0000
0000
0000
,  // measure 1
0000
0000
0000
0000
,  // measure 2
0000
0000
0000
0000
,  // measure 3
0000
0000
0000
0000
,  // measure 4
0002
0000
0203
0000
,  // measure 5
0310
0100
0001
0001
,  // measure 6
2000
0000
3200
0000
,  // measure 7
0310
0100
1000
1000
,  // measure 8
0001
0100
0010
1000
,  // measure 9
0001
0000
0000
0000
0010
0000
0000
0000
0100
0010
0100
1000
0000
1000
0100
1000
,  // measure 10
0001
0000
1001
0000
1000
0010
0100
1000
,  // measure 11
0100
0000
0010
0000
1000
0001
1000
0001
1000
0000
0100
0000
0010
0000
0000
0000
,  // measure 12
1100
0000
0011
0000
1100
0000
0001
0010
,  // measure 13
0100
0000
0000
0100
1000
0000
0000
1000
0001
0000
0000
0001
1000
0000
0000
0000
,  // measure 14
0001
1000
0001
1000
0001
0000
0000
0000
1000
0000
0010
0000
0100
0000
1000
0000
,  // measure 15
0100
0000
0010
0000
1000
0000
0001
1000
0001
0000
0010
0000
0100
0000
0000
0000
,  // measure 16
0011
0000
1100
0000
0011
0000
1000
0100
,  // measure 17
0010
0000
0000
0010
0001
0000
0000
0001
1000
0000
0000
1000
0001
1000
0001
0000
,  // measure 18
0110
1001
0110
1001
,  // measure 19
1000
0000
0100
0000
0010
0000
0010
0001
1000
0000
0001
0000
1001
0000
0000
0000
,  // measure 20
1000
0010
0100
1000
1000
0000
0100
0000
,  // measure 21
0001
0000
0010
0000
0100
0000
0000
0000
0010
0000
0100
1000
0000
0010
0000
0000
,  // measure 22
0200
0000
0000
0000
2300
0000
0000
0000
3100
0000
0010
0000
1000
0000
0100
0010
,  // measure 23
0200
0000
0000
0000
0302
0000
0000
0000
0103
0000
0000
0010
0000
0000
0001
0000
,  // measure 24
0200
0000
0000
0000
0320
0000
0000
0000
1030
0010
0100
0001
1000
0100
0010
0000
,  // measure 25
0002
0000
0000
0000
2003
0000
0000
0000
3010
0100
0001
0020
0000
0000
0000
0000
,  // measure 26
0230
0000
0000
0000
0302
0000
0000
0000
0103
0000
0010
0000
0001
0000
0100
0010
,  // measure 27
0200
0000
0000
0000
2300
0000
0000
0000
3100
0000
0000
0010
0000
0000
1000
0000
,  // measure 28
0200
0000
0000
0000
0320
0000
0000
0000
0031
0010
0100
1000
0001
0100
0010
0000
,  // measure 29
2000
0000
0000
0000
3002
0000
0000
0000
0013
0100
1000
0020
0000
0000
0000
0000
,  // measure 30
023M
0000
0000
0000
0010
0000
0301
0000
0010
0100
0000
0000
0020
0000
0000
0000
,  // measure 31
0100
0031
1000
0000
0020
0000
0100
1030
,  // measure 32
0100
0010
0000
0000
0200
0000
0000
0000
0010
0000
1300
0000
0001
0000
0000
0000
,  // measure 33
0200
0000
0000
0000
1000
0000
0310
0000
0100
0001
0000
0010
0200
0000
0000
0000
,  // measure 34
0001
0310
0001
0100
0020
0000
0001
0130
,  // measure 35
0010
1000
0000
0100
0020
0000
0000
0000
1000
0000
0130
0000
2000
0000
0000
0000
,  // measure 36
3M02
2003
3001
0001
,  // measure 37
1000
0100
0010
2000
0000
3001
0100
0010
,  // measure 38
0002
2003
3001
0001
,  // measure 39
1000
0010
0100
2000
0000
3001
0010
0100
,  // measure 40
0002
0023
0130
1000
,  // measure 41
0020
0000
0000
0000
0032
0000
0000
0000
1003
0000
0100
0000
0010
0000
1000
0100
,  // measure 42
0020
0000
0000
0000
2030
0000
0000
0000
3001
0000
0000
0100
0000
0000
1000
0000
,  // measure 43
0020
0000
0000
0000
0230
0000
0000
0000
1300
0100
0010
1000
0001
0010
0100
0000
,  // measure 44
0002
0000
0000
0000
2003
0000
0000
0000
3010
0100
1000
0002
0000
0000
0000
0000
,  // measure 45
0203
0000
0000
0000
2300
0000
0000
0000
3001
0000
0010
0000
0100
0000
0001
0010
,  // measure 46
0200
0000
0000
0000
0302
0000
0000
0000
1003
0000
0000
0010
0000
0000
0001
0000
,  // measure 47
0200
0000
0000
0000
0320
0000
0000
0000
0031
0010
0100
0001
1000
0100
0010
0000
,  // measure 48
2000
0000
0000
0000
3002
0000
0000
0000
0103
0010
0001
2000
0000
0000
0000
0000
,  // measure 49
3020
0000
0000
0000
0032
0000
0023
0000
0230
0000
0000
0000
1000
0000
0310
0100
,  // measure 50
0001
0000
0010
0100
0000
1000
0000
0010
0100
0001
0000
0010
0100
0000
1000
0000
,  // measure 51
0020
0000
0000
0000
0230
0000
0000
0000
1300
0100
0010
1000
0001
0010
0100
0000
,  // measure 52
0002
0000
0000
0000
2003
0000
0000
0000
3010
0000
0100
0010
0001
0000
0010
0001
,  // measure 53
1000
0010
0100
1000
0000
0000
1000
0100
0010
1000
0100
0010
,  // measure 54
0010
0000
0000
0001
0100
0010
0010
0000
0000
0100
0000
0000
,  // measure 55
0010
0000
1000
0000
0100
0000
0010
0000
0010
0000
0010
0000
0002
0000
0000
0000
0000
0000
2000
0000
0000
3003
0000
0000
,  // measure 56
0000
0002
0000
0203
,  // measure 57
0000
0310
0100
0001
,  // measure 58
0001
2000
0000
3200
,  // measure 59
0000
0310
0100
1000
,  // measure 60
2000
0002
0000
0000
,  // measure 61
3003
0000
0000
0000
;

//---------------dance-single - ----------------
#NOTEDATA:;
#CHARTNAME:;
#STEPSTYPE:dance-single;
#DESCRIPTION:;
#CHARTSTYLE:;
#DIFFICULTY:Medium;
#METER:10;
#RADARVALUES:0.298349,0.415418,0.143769,0.499410,0.132419,276.000000,257.000000,19.000000,66.000000,0.000000,0.000000,0.000000,0.000000,0.000000,0.298349,0.415418,0.143769,0.499410,0.132419,276.000000,257.000000,19.000000,66.000000,0.000000,0.000000,0.000000,0.000000,0.000000;
#CREDIT:;
#NOTES:
0000
0000
0000
0000
,
0000
0000
0000
0000
,
0000
0000
0000
0000
,
0000
0000
0000
0000
,
2000
0000
3200
0000
,
0310
0001
1000
1000
,
0002
0000
0203
0000
,
0310
1000
0001
0001
,
0010
0100
1000
0010
,
0100
0000
0000
0000
0001
0000
0000
0000
1000
0000
0000
1000
0000
0000
1000
0000
,
0001
0000
0010
0000
0100
1000
0010
0000
,
1000
0000
0100
0000
0010
0001
0100
0000
,
0021
0130
1020
0130
,
0011
0100
1000
0010
,
0100
0100
0010
0000
0100
0001
0010
0000
,
0001
0000
0100
0000
0010
1000
0100
0000
,
1020
0130
0021
0130
,
1010
0000
0100
0000
0001
0000
1000
0100
,
1100
0101
1100
0101
,
1010
0011
1010
0011
,
1000
0100
0010
0002
0010
0000
1000
0000
,
2000
0000
0000
3003
0110
0000
0000
0000
,
2000
0000
3200
0000
0310
0000
0001
1000
,
0002
0000
0000
0000
0203
0000
0000
0000
0310
0000
0000
1000
0000
0000
0001
0000
,
2000
0000
0000
0000
3200
0000
0000
0000
0301
0000
0000
0100
0000
0000
1000
0000
,
0002
0000
0000
0000
0203
0000
0000
0000
1300
0000
0000
0210
0000
0000
0000
0000
,
0302
0000
0023
0000
0130
0000
1000
0001
,
2000
0000
0000
0000
3020
0000
0000
0000
0130
0000
0000
0001
0000
0000
1000
0000
,
0002
0000
0000
0000
0023
0000
0000
0000
1030
0000
0000
0010
0000
0000
0001
0000
,
2000
0000
0000
0000
3020
0000
0000
0000
0031
0000
0000
0120
0000
0000
0000
0000
,
1030
0000
0000
0010
0000
0000
1000
0000
0000
0010
0000
0000
1000
0000
0000
0001
,
0000
0000
1000
0000
0000
0001
0000
0000
1000
0000
0000
0100
0000
0000
1000
0000
,
0000
0100
0000
0000
0010
0000
0000
0100
0000
0000
0010
0000
0000
0100
0000
0000
,
0001
0000
0000
0100
0000
0000
1000
0000
0000
0010
0000
0000
0001
0000
0000
1000
,
0000
0000
0100
0000
0000
0001
0000
0000
1000
0000
0000
0100
0000
0000
0001
0000
,
0000
1000
0000
0000
0010
0000
0000
0001
0000
0000
2000
0000
0000
0000
0000
0000
,
3001
0001
0001
0001
,
1000
0000
0010
0100
0000
0010
1000
0000
,
0001
1000
0001
0001
,
1000
0000
0100
0010
0000
0100
1000
0000
,
0001
0001
1000
1000
,
0020
0000
0032
0000
1003
0000
0100
0001
,
2000
0000
0000
0000
3200
0000
0000
0000
0301
0000
0000
0100
0000
0000
1000
0000
,
0020
0000
0000
0000
0032
0000
0000
0000
1003
0000
0000
0100
0000
0000
0001
0000
,
0020
0000
0000
0000
2030
0000
0000
0000
3001
0000
0000
0110
0000
0000
0001
0000
,
0200
0000
2300
0000
3001
0000
0010
1000
,
0002
0000
0000
0000
0023
0000
0000
0000
1030
0000
0000
0010
0000
0000
0001
0000
,
0200
0000
0000
0000
2300
0000
0000
0000
3001
0000
0000
0010
0000
0000
1000
0000
,
0200
0000
0000
0000
0302
0000
0000
0000
1003
0000
0000
0110
0000
0000
1000
0000
,
0020
0000
0230
0320
2030
0000
0100
0000
,
3001
0010
0100
0000
0010
0001
0100
0000
,
0020
0000
0000
0000
0032
0000
0000
0000
1003
0000
0000
0100
0000
0000
0001
0000
,
0020
2030
3001
0100
,
2000
0000
0000
3020
0000
0000
0230
0000
0000
0301
0000
0010
,
0200
0000
0000
1300
0000
0010
0200
0000
0000
0301
0000
0000
,
0010
0000
0100
0000
0010
0000
0100
0000
0010
0000
0100
0000
2000
0000
0000
0000
0000
0000
0002
0000
0000
3003
0000
0000
,
0000
2000
0000
3020
,
0000
0130
0001
1000
,
1000
0002
0000
0023
,
0000
0130
1000
0001
,
0002
2000
0000
0000
,
3003
0000
0000
0000
;

//---------------dance-single - ----------------
#NOTEDATA:;
#CHARTNAME:;
#STEPSTYPE:dance-single;
#DESCRIPTION:;
#CHARTSTYLE:;
#DIFFICULTY:Easy;
#METER:6;
#RADARVALUES:0.202142,0.385908,0.128636,0.628046,0.000000,187.000000,170.000000,17.000000,83.000000,4.000000,0.000000,0.000000,0.000000,0.000000,0.202142,0.385908,0.128636,0.628046,0.000000,187.000000,170.000000,17.000000,83.000000,4.000000,0.000000,0.000000,0.000000,0.000000;
#CREDIT:;
#NOTES:
0000
0000
0000
0000
,
0000
0000
0000
0000
,
0000
0000
0000
0000
,
0000
0000
0000
0000
,
0002
0000
0203
0000
,
0320
0000
0000
0000
,
2030
0000
3200
0000
,
0320
0000
0000
0000
,
0031
0000
1000
0000
,
0001
0000
0110
0000
,
1001
1000
0010
0001
,
1000
0000
0001
0010
,
1000
1000
0001
0010
,
0100
0000
0000
0000
,
2000
3001
0100
1000
,
0001
0000
1000
0100
,
0001
0001
1000
0100
,
0010
0000
0000
0000
,
0110
0110
0110
0110
,
1001
1001
1001
1001
,
0001
0100
1000
1000
,
0100
0001
1000
0000
,
0002
0023
M030
0000
,
2000
3020
0130
0100
,
0002
0023
2030
0000
,
3002
0203
2300
0000
,
3002
0203
M300
0000
,
2000
3200
0310
0010
,
0002
0203
2300
0000
,
3002
0023
2030
0000
,
3002
0010
1003
0020
,
0100
1030
2000
0010
,
3001
0020
0100
0031
,
2000
0000
3001
1000
0001
0000
0200
0000
,
0310
0100
0010
0000
2000
0000
3001
1000
,
0001
0000
0020
0000
0130
0010
0200
0000
,
2300
0000
0001
0000
,
0010
0000
0100
0000
,
3002
0000
1000
0000
,
0100
0000
0010
0000
,
2000
0000
3003
0000
,
0002
0203
M300
1000
,
0002
0023
0130
1000
,
0002
0203
2300
3020
,
2030
3200
0302
0000
,
2003
3200
030M
0000
,
0002
0023
0130
1000
,
0002
0203
2300
3020
,
2030
3200
0302
0000
,
2003
3200
0302
0003
,
0101
0110
1100
1001
,
0002
0203
2300
3020
,
2030
3200
0301
0001
,
2000
3200
0302
0023
,
2030
3200
0302
0013
,
0110
1001
0110
1000
,
0000
0002
0000
0023
,
0000
0230
0000
0000
,
0000
2300
0000
3020
,
0000
0230
0000
0000
,
0300
0000
0000
0000
;

//---------------dance-single - ----------------
#NOTEDATA:;
#CHARTNAME:;
#STEPSTYPE:dance-single;
#DESCRIPTION:;
#CHARTSTYLE:;
#DIFFICULTY:Beginner;
#METER:3;
#RADARVALUES:0.102692,0.158903,0.075668,0.264839,0.000000,95.000000,85.000000,10.000000,35.000000,0.000000,0.000000,0.000000,0.000000,0.000000,0.102692,0.158903,0.075668,0.264839,0.000000,95.000000,85.000000,10.000000,35.000000,0.000000,0.000000,0.000000,0.000000,0.000000;
#CREDIT:;
#NOTES:
0000
0000
0000
0000
,
0000
0000
0000
0000
,
0000
0000
0000
0000
,
0000
0000
0000
0000
,
1000
0000
1000
0000
,
1000
0000
0000
0000
,
0001
0000
0001
0000
,
0001
0000
0000
0000
,
2000
0000
0000
0000
,
0000
0000
3001
0000
,
1001
0000
0100
0000
,
0010
0000
0000
0000
,
0100
0000
0001
0000
,
1000
0000
0000
0000
,
0001
0000
0010
0000
,
0100
0000
0000
0000
,
0010
0000
0001
0000
,
1000
0000
0000
0000
,
0001
0001
0001
0000
,
1000
1000
1000
0000
,
0001
0000
0100
0000
,
0020
0000
0030
0000
,
0110
0000
0000
0000
,
1001
0000
0000
0000
,
2000
0000
3200
0000
,
0320
0000
0030
0000
,
0110
0000
0000
0000
,
1001
0000
0000
0000
,
0002
0000
0203
0000
,
0320
0000
0030
0000
,
0200
0000
0300
0002
,
0000
0003
0020
0000
,
0030
0200
0000
0300
,
2000
0000
3000
0020
,
0000
0030
0002
0000
,
0003
0200
0000
0300
,
1000
0000
0000
0000
,
0001
0000
0001
0000
,
0001
0000
0000
0000
,
1000
0000
1000
0000
,
2000
0000
3000
0000
,
0110
0000
0000
0000
,
1001
0000
0000
0000
,
0002
0000
0023
0000
,
0230
0000
0300
0000
,
0110
0000
0000
0000
,
1001
0000
0000
0000
,
2000
0000
3020
0000
,
0230
0000
0300
0000
,
0110
0000
0000
0000
,
1000
1000
1000
0000
,
0002
0000
0023
0000
,
0230
0000
0300
0000
,
2000
0000
3002
0000
,
2003
0000
3002
0000
,
2003
3002
2003
3002
,
0003
1000
0000
1000
,
0000
1000
0000
0000
,
0000
0001
0000
0001
,
0000
0002
0000
0000
,
0003
0000
0000
0000
;
