#VERSION:0.83;
#TITLE:AsiaN distractive;
#SUBTITLE:;
#ARTIST:猫叉劇団;
#TITLETRANSLIT:;
#SUBTITLETRANSLIT:;
#ARTISTTRANSLIT:Nekomata Gekidan;
#GENRE:World;
#ORIGIN:;
#CREDIT:;
#BANNER:AsiaN distractive.png;
#BACKGROUND:AsiaN distractive-bg.png;
#PREVIEWVID:;
#JACKET:AsiaN distractive-jacket.png;
#CDIMAGE:;
#DISCIMAGE:;
#LYRICSPATH:;
#CDTITLE:cdtitle.png;
#MUSIC:AsiaN distractive.ogg;
#OFFSET:-0.286130;
#SAMPLESTART:77.865753;
#SAMPLELENGTH:12.229298;
#SELECTABLE:YES;
#BPMS:0.000=157.000,
280.000=149.000,
284.000=141.000,
288.000=132.000;
#STOPS:;
#DELAYS:;
#WARPS:;
#TIMESIGNATURES:0.000=4=4;
#TICKCOUNTS:0.000=4;
#COMBOS:0.000=1;
#SPEEDS:0.000=1.000=0.000=0;
#SCROLLS:0.000=1.000;
#FAKES:;
#LABELS:0.000=Song Start;
#BGCHANGES:1.875=AsiaN distractive.mp4=1.000=1=0=1===CrossFade==,
99999=-nosongbg-=1.000=0=0=0 // don't automatically add -songbackground-
;
#KEYSOUNDS:;
#ATTACKS:
;

//---------------dance-single - ----------------
#NOTEDATA:;
#CHARTNAME:;
#STEPSTYPE:dance-single;
#DESCRIPTION:;
#CHARTSTYLE:;
#DIFFICULTY:Challenge;
#METER:14;
#RADARVALUES:0.580499,0.682242,0.420635,0.579365,0.285714,512.000000,459.000000,53.000000,73.000000,0.000000,0.000000,0.000000,0.000000,0.000000,0.580499,0.682242,0.420635,0.579365,0.285714,512.000000,459.000000,53.000000,73.000000,0.000000,0.000000,0.000000,0.000000,0.000000;
#CREDIT:;
#NOTES:
// measure 0
0000
0000
0000
0000
,  // measure 1
0000
0000
0000
0000
,  // measure 2
0000
0000
0000
0000
,  // measure 3
0000
0000
0000
0000
,  // measure 4
0000
0000
1100
0022
,  // measure 5
0000
0000
0000
0000
,  // measure 6
0000
0033
0101
2020
,  // measure 7
0000
0000
0000
0000
,  // measure 8
0000
3030
1001
0110
,  // measure 9
2002
0000
0000
0000
3003
0000
0001
0010
0002
0000
0000
0000
0003
0000
1000
0010
,  // measure 10
2000
0000
0000
0000
3000
0000
0001
1000
0100
0000
0000
0000
0220
0000
0000
0000
,  // measure 11
0000
0000
0000
0000
0330
0000
0001
1000
0001
0000
0100
0000
0010
0000
1000
0000
,  // measure 12
0010
1000
0100
0010
0011
0000
2002
0000
,  // measure 13
0000
0000
0000
0000
3003
0000
0001
0100
0002
0000
0000
0000
0003
0000
1000
0100
,  // measure 14
2000
0000
0000
0000
3000
0000
0001
1000
0010
0000
0000
0000
2020
0000
0000
0000
,  // measure 15
0000
0000
0000
0000
3030
0000
0010
1000
0200
0000
0000
0000
0300
0000
0010
0001
,  // measure 16
0100
0001
0100
0010
1010
0000
1001
0000
,  // measure 17
1000
0000
0000
1100
0000
0000
0001
0000
0000
0011
0000
0000
1000
0000
0001
1000
,  // measure 18
0001
0000
0000
0101
0000
0000
1000
0000
0000
1010
0000
0000
0001
0000
1000
0001
,  // measure 19
1000
0000
0000
1100
0000
0000
0001
0000
0000
0011
0000
0000
1000
0000
0001
0000
,  // measure 20
0100
0010
0100
0010
0100
0000
0220
0000
0000
0000
0330
0000
0001
0000
1000
0000
,  // measure 21
0001
0000
0000
0011
0000
0000
1000
0000
0000
1100
0000
0000
0001
0000
0100
0010
,  // measure 22
1000
0000
0000
1010
0000
0000
0001
0000
0000
0101
0000
0000
1000
0000
0100
0010
,  // measure 23
0001
0100
0010
1000
0001
0010
0100
1000
,  // measure 24
0010
1000
0001
1000
0100
0000
0220
0000
0000
0000
0000
0000
0000
0000
0000
0000
,  // measure 25
0330
0000
0000
0000
0000
0000
0001
1000
,  // measure 26
0001
0100
0010
0100
0002
0000
1003
0100
,  // measure 27
0010
0100
0010
0000
0100
0000
1000
0000
0002
0000
0000
0000
1003
0001
1000
0000
,  // measure 28
0010
0100
0001
1000
0200
0000
0310
0001
,  // measure 29
1000
0000
0010
0000
0100
0000
0001
0000
1000
0100
1000
0100
0010
0000
0001
0100
,  // measure 30
0010
1000
0001
1000
0200
0000
0310
0001
,  // measure 31
0011
1000
1010
0001
0201
0000
0310
1000
,  // measure 32
0001
0010
0100
0010
0002
0000
1003
0010
,  // measure 33
0100
0000
0010
0000
1000
0001
1000
0000
0001
0000
0000
0000
1001
0000
0000
0000
,  // measure 34
1000
0100
0001
0100
2000
0000
3001
0100
,  // measure 35
1000
0100
1000
0000
0100
0000
0001
0000
2000
0000
0000
0000
3001
1000
0001
0000
,  // measure 36
0010
0001
0100
0001
0020
0000
0130
1000
,  // measure 37
0010
0000
1000
0000
0100
0000
0010
0000
0001
0100
0001
0100
0010
0000
1000
0100
,  // measure 38
0010
0001
1000
0001
0200
0000
0310
1000
,  // measure 39
1010
0001
0011
1000
1200
0000
0310
0001
,  // measure 40
1000
0010
0001
0010
2000
0000
3001
0010
,  // measure 41
1000
0000
0010
0000
0001
1000
0001
0000
0100
0000
0010
0000
1010
0000
0000
0000
,  // measure 42
2002
0000
0000
3003
,  // measure 43
0100
0000
0000
0000
,  // measure 44
2002
0000
0000
3003
,  // measure 45
0010
0000
0000
0000
0010
0000
0100
0010
,  // measure 46
2001
0000
0000
0000
3100
0000
0010
0001
0010
0000
0001
0000
0100
0000
0010
1000
,  // measure 47
0010
1000
0001
0010
0200
0000
1300
0001
,  // measure 48
0200
0000
0000
0000
0310
0000
1000
0001
2000
0000
0000
0000
3100
0000
0010
0001
,  // measure 49
1000
0010
0100
0001
0101
1000
1100
0001
,  // measure 50
0000
0000
0000
0000
0000
0000
0000
0000
0001
1000
0000
0001
0100
0000
0001
0000
,  // measure 51
0011
0000
0001
0010
0100
0000
1000
0000
0002
0000
0203
0000
0310
0000
1000
0000
,  // measure 52
1010
0000
1000
0010
0100
0000
0001
0000
2000
0000
3200
0000
0310
0000
0001
0000
,  // measure 53
0011
0000
0001
0010
0100
0000
1000
0000
0002
0000
0203
0000
0310
0000
1000
0000
,  // measure 54
1001
0000
0001
1000
0100
0000
0010
0000
0012
0000
0000
0000
1003
0001
0010
0001
,  // measure 55
0100
0000
0001
0100
0010
0000
1000
0000
0200
0000
0320
0000
0031
0000
1000
0000
,  // measure 56
1100
0000
1000
0100
0010
0000
0001
0000
0200
0000
0320
0000
1030
0000
0000
0000
,  // measure 57
0001
0000
0010
0000
0100
0000
0010
0000
1000
0000
0010
0000
0100
0010
0001
0000
,  // measure 58
1000
0000
0001
0100
0001
0000
1000
0000
0001
0100
0001
0000
1000
0000
0100
0000
,  // measure 59
0110
0000
0100
0010
1000
0000
0010
0000
0002
0000
2003
0000
3010
0000
0100
0000
,  // measure 60
0110
0000
0100
0010
0001
0000
0010
0000
2000
0000
3002
0000
1003
0000
0100
0000
,  // measure 61
0010
0000
0001
0000
0100
0010
1000
0000
0010
0000
1000
0100
0010
0000
0100
0000
,  // measure 62
0010
0000
0001
0100
0010
0000
1000
0000
2010
0000
0000
0000
3001
1000
0010
1000
,  // measure 63
0100
0000
0010
0100
0001
0000
0100
0000
0020
0000
0032
0000
1003
0000
0010
0000
,  // measure 64
0110
0000
0010
0100
1000
0000
0100
0000
0020
0000
2030
0000
3001
0000
0000
0000
,  // measure 65
1000
0000
0100
0000
0010
0000
0001
0000
1000
0000
0001
0100
0010
0000
1000
0000
,  // measure 66
2001
0000
0000
0000
3001
0000
0010
0000
0001
0000
0010
0000
0001
0010
0100
1000
,  // measure 67
0020
0000
0000
0000
0030
0000
1000
0010
2000
0000
0000
0000
3000
0000
0001
0010
,  // measure 68
0002
0000
1003
0001
0200
0300
0020
0030
,  // measure 69
0220
0000
0000
0000
0330
0000
1000
0001
1000
0000
0100
0000
0010
0000
0001
0000
,  // measure 70
0010
0001
0100
0010
1010
0000
2002
0000
,  // measure 71
0000
0000
3003
1000
0200
0000
0301
0100
,  // measure 72
1000
0000
0010
0000
0001
0000
0010
0000
1010
0000
0001
1000
0200
0000
0000
0000
,  // measure 73
0000
0000
0000
0000
,  // measure 74
0000
0000
0000
0300
;

//---------------dance-single - ----------------
#NOTEDATA:;
#CHARTNAME:;
#STEPSTYPE:dance-single;
#DESCRIPTION:;
#CHARTSTYLE:;
#DIFFICULTY:Hard;
#METER:10;
#RADARVALUES:0.409297,0.474603,0.214286,0.373016,0.039683,361.000000,334.000000,27.000000,47.000000,0.000000,0.000000,0.000000,0.000000,0.000000,0.409297,0.474603,0.214286,0.373016,0.039683,361.000000,334.000000,27.000000,47.000000,0.000000,0.000000,0.000000,0.000000,0.000000;
#CREDIT:;
#NOTES:
0000
0000
0000
0000
,
0000
0000
0000
0000
,
0000
0000
0000
0000
,
0000
0000
0000
0000
,
0000
0000
1100
0022
,
0000
0000
0000
0000
,
0000
0033
0101
2020
,
0000
0000
0000
0000
,
0000
3030
1001
0110
,
1002
0000
0003
0010
0200
0000
0300
1000
,
0002
0000
0003
0100
0010
0000
2010
0000
,
0000
0000
3000
0001
0010
0000
0100
0000
,
0010
0001
0010
0001
1000
0000
2001
0000
,
0000
0000
3000
0010
0200
0000
0300
0001
,
2000
0000
3000
0100
0010
0000
0012
0000
,
0000
0000
0003
1000
0020
0000
0030
0100
,
0001
1000
0100
0000
0011
0000
1001
0000
,
0001
0000
0000
0100
0000
0000
0001
0000
0000
0100
0000
0000
0010
0000
0000
0000
,
1000
0000
0000
0100
0000
0000
1000
0000
0000
0100
0000
0000
0010
0000
0000
0000
,
0001
0000
0000
0100
0000
0000
0001
0000
0000
0100
0000
0000
0010
0000
0000
0000
,
1000
0001
1000
0200
0000
0300
1001
0000
,
1000
0000
0000
0010
0000
0000
0100
0000
0000
0010
0000
0000
1000
0000
0000
0000
,
0001
0000
0000
0010
0000
0000
0100
0000
0000
0010
0000
0000
0001
0000
0000
0000
,
1000
0010
0100
0000
0001
0010
0100
0000
,
1000
0010
0100
0002
0000
0000
0000
0000
,
0003
0000
0000
1001
,
0001
0100
0000
0001
0100
0000
0001
0001
,
1000
0100
0000
1000
0100
0000
0010
0000
,
0010
0001
1000
0001
0100
0000
0100
0001
,
1000
0001
0010
0000
0100
1000
0001
0000
,
1000
0010
0000
0100
0001
0000
1000
0010
,
1000
0001
0010
0001
1000
0000
0001
1000
,
0001
0010
0000
0100
1000
0000
0001
0100
,
0010
1000
0100
0010
0002
0000
0003
0000
,
1000
0100
0000
0001
0100
0000
1000
1000
,
0001
0100
0000
1000
0100
0000
0001
0000
,
0001
1000
0010
1000
0100
0000
0100
1000
,
0001
1000
0010
0000
0100
0001
1000
0000
,
0001
0010
0000
1000
0010
0000
0001
0010
,
0001
1000
0010
1000
0001
0000
1000
0001
,
1000
0010
0000
0001
0010
0000
1000
0100
,
0010
0001
0100
0010
2000
0000
3001
0000
,
2002
0000
0000
3003
,
0100
0000
0000
0000
,
2002
0000
0000
3003
,
0010
0000
0010
0100
,
2002
0000
3003
1000
0100
0010
0001
0000
,
1000
0001
0100
0010
1000
0000
0001
1000
,
0002
0000
0003
0010
0200
0000
0300
1000
,
0002
0000
0203
0000
0301
0100
0010
1000
,
0000
0000
0000
0000
0000
0000
1000
1000
,
0001
0010
0100
0010
0002
0000
1003
1000
,
0001
0100
0010
0100
0002
0000
1003
1000
,
0001
0010
0100
0010
0002
0000
1003
0001
,
0100
0001
0010
0001
1000
0000
1001
0000
,
1000
0010
0100
0010
2000
0000
3001
0001
,
1000
0100
0010
0100
2000
0000
3002
0000
,
0003
1000
0010
0100
0001
1000
0100
0010
,
0001
0000
1100
0000
0011
0000
0001
0001
,
1000
0010
0001
0010
2000
0000
3001
0001
,
1000
0100
0001
0100
2000
0000
3001
0001
,
1000
0010
0100
0010
0100
0001
0010
0000
,
0100
1000
0010
1000
0001
0000
1001
0000
,
0001
0010
1000
0010
0002
0000
1003
1000
,
0001
0100
1000
0100
0002
0000
2003
0000
,
3000
0001
0010
0100
1000
0001
0100
0010
,
2000
0000
0000
0000
3001
0100
0010
1000
,
2001
0000
3000
0100
0020
0000
0030
0001
,
2000
3010
0100
0001
,
1002
0000
0003
1000
0100
0000
0010
0000
,
0100
0010
0001
0000
0011
0000
2001
0000
,
0000
0000
3000
0001
0200
0000
0310
0000
,
0100
0010
1010
2002
,
0000
0000
0000
0000
,
0000
0000
0000
3003
;

//---------------dance-single - ----------------
#NOTEDATA:;
#CHARTNAME:;
#STEPSTYPE:dance-single;
#DESCRIPTION:;
#CHARTSTYLE:;
#DIFFICULTY:Medium;
#METER:7;
#RADARVALUES:0.302721,0.385615,0.253968,0.420635,0.000000,267.000000,235.000000,32.000000,53.000000,0.000000,0.000000,0.000000,0.000000,0.000000,0.302721,0.385615,0.253968,0.420635,0.000000,267.000000,235.000000,32.000000,53.000000,0.000000,0.000000,0.000000,0.000000,0.000000;
#CREDIT:;
#NOTES:
0000
0000
0000
0000
,
0000
0000
0000
0000
,
0000
0000
0000
0000
,
0000
0000
0000
0000
,
0000
0000
1010
2002
,
0000
0000
0000
0000
,
0000
3003
0011
2002
,
0000
0000
0000
0000
,
0000
3003
1001
0110
,
1002
0003
0020
0030
,
0200
0300
1000
1002
,
0000
0003
0100
0001
,
0010
0001
1000
2001
,
0000
3000
0020
0030
,
0200
0300
0001
2001
,
0000
3000
0200
0300
,
0010
0001
0101
1010
,
0001
0000
0010
0000
0001
0000
0010
0001
,
1000
0000
0010
0000
1000
0000
0010
1000
,
0001
0000
0010
0000
0001
0000
0010
0001
,
0100
0000
0000
0020
0000
0000
1030
0000
,
0001
0000
0010
0000
0001
0000
0010
0100
,
1000
0000
0010
0000
1000
0000
0010
0100
,
0001
0000
0001
0000
1000
0000
0010
1000
,
0100
0000
0000
0220
0000
0000
0000
0000
,
0330
0000
0000
1000
,
0001
0010
0002
1003
,
1000
0010
2000
3000
,
0001
0010
0100
1000
,
0001
0100
0001
0000
1000
0100
1000
0000
,
0001
0100
0020
1030
,
1000
0100
0020
0030
,
0001
0100
0010
1000
,
1010
1001
1100
0000
,
1000
0100
0002
0103
,
0100
1000
0002
0003
,
1000
0010
0100
0001
,
1000
0100
0010
0000
0001
0100
0010
0000
,
1000
0010
0002
0013
,
0010
1000
0002
0003
,
1000
0100
0010
0001
,
0011
1001
0101
0000
,
2002
0000
0000
3003
,
0100
0000
0000
0000
,
2002
0000
0000
3003
,
0010
0000
0010
0100
,
2002
3003
1000
0100
,
0010
0001
0100
0010
,
2000
0000
3200
0000
,
0320
0000
0031
1000
,
0000
0000
0000
1001
,
1000
0010
0100
0000
0020
0000
1030
0000
,
0001
0010
0100
0000
0020
0000
0031
0000
,
1000
0010
0100
0000
0020
0000
1030
0000
,
0100
0010
0001
1001
,
0001
0100
0010
0000
0200
0000
0301
0000
,
1000
0100
0010
0000
0200
0000
2300
0000
,
3000
0001
0100
0000
0010
1000
0001
0000
,
1001
0010
1001
0010
,
0001
0100
1000
0000
0200
0000
0301
0000
,
1000
0100
0001
0000
0200
0000
1300
0000
,
0001
0010
0001
0000
1000
0010
1000
0000
,
0001
1000
0001
1001
,
0001
0010
1000
0000
0020
0000
0031
0000
,
1000
0010
0001
0000
0020
0000
2030
0000
,
3000
0001
0010
0000
0100
1000
0001
0000
,
2002
0000
0000
3003
,
2001
3000
0020
0030
,
0200
0300
0001
1000
,
2001
3000
0100
1000
,
0010
1000
0001
1002
,
0000
0003
0010
0100
,
0010
0100
1000
2002
,
0000
0000
0000
0000
,
0000
0000
0000
3003
;

//---------------dance-single - ----------------
#NOTEDATA:;
#CHARTNAME:;
#STEPSTYPE:dance-single;
#DESCRIPTION:;
#CHARTSTYLE:;
#DIFFICULTY:Easy;
#METER:5;
#RADARVALUES:0.217687,0.266964,0.111111,0.436508,0.000000,192.000000,178.000000,14.000000,55.000000,0.000000,0.000000,0.000000,0.000000,0.000000,0.217687,0.266964,0.111111,0.436508,0.000000,192.000000,178.000000,14.000000,55.000000,0.000000,0.000000,0.000000,0.000000,0.000000;
#CREDIT:;
#NOTES:
0000
0000
0000
0000
,
0000
0000
0000
0000
,
0000
0000
0000
0000
,
0000
0000
0000
0000
,
0000
0000
0010
2002
,
0000
0000
0000
0000
,
0000
3003
0100
2002
,
0000
0000
0000
0000
,
0000
3003
1000
0001
,
2001
3000
0200
0300
,
0020
0030
0001
1002
,
0000
0003
0010
0001
,
1000
0001
0100
0002
,
0000
0003
0200
0300
,
0020
0030
1000
2001
,
0000
3000
0200
0300
,
0010
0001
1000
1000
,
0001
0100
0010
0000
,
0100
0010
1000
0000
,
0010
1000
0001
0000
,
2002
0000
0000
3003
0000
0000
0000
0000
,
1000
0100
0010
0000
,
0100
0010
0001
0000
,
0010
0001
1000
0000
,
2002
0000
0000
3003
0000
0000
0000
0000
,
0000
0000
0000
0000
,
1000
0010
2000
3000
,
1000
0100
2000
3000
,
0010
0000
1000
0000
,
0010
0010
1000
1000
,
0001
1000
0200
0300
,
0010
0001
2000
3000
,
0010
0000
0100
0000
,
0001
1000
2002
3003
,
0001
0010
0002
0003
,
0001
0100
0002
0003
,
0010
0000
0001
0000
,
0010
0010
0001
0001
,
1000
0001
0200
0300
,
0010
1000
0002
0003
,
0010
0000
0100
0000
,
0010
0010
0100
1000
,
2002
0000
0000
3003
,
0100
0000
0000
0000
,
2002
0000
0000
3003
,
0010
0000
0010
0010
,
2002
3003
1000
0000
,
0010
0100
0001
0000
,
2000
0000
3200
0000
,
0320
0000
0031
0001
,
0000
0000
0000
0000
,
1000
0010
0200
0300
,
0010
1000
0200
0300
,
1000
0010
0200
0300
,
0001
1000
0001
0000
,
0001
0010
0200
0300
,
0010
0001
0200
0320
,
0030
1000
1000
0000
,
0001
0001
1000
1000
,
0001
0010
2000
3000
,
0010
0001
0200
0300
,
0010
1000
0010
1000
,
0100
0010
0001
0000
,
1000
0010
0002
0003
,
0010
1000
0200
0320
,
0030
0001
0100
0010
,
2000
0000
0010
3010
,
1002
0003
0020
0030
,
0200
0300
1000
0001
,
2001
3000
0010
1000
,
0001
1000
0100
2000
,
0000
3000
0010
0100
,
0010
0100
0001
2002
,
0000
0000
0000
0000
,
0000
0000
0000
3003
;

//---------------dance-single - ----------------
#NOTEDATA:;
#CHARTNAME:;
#STEPSTYPE:dance-single;
#DESCRIPTION:;
#CHARTSTYLE:;
#DIFFICULTY:Beginner;
#METER:3;
#RADARVALUES:0.163265,0.234127,0.071429,0.087302,0.000000,144.000000,135.000000,9.000000,11.000000,0.000000,0.000000,0.000000,0.000000,0.000000,0.163265,0.234127,0.071429,0.087302,0.000000,144.000000,135.000000,9.000000,11.000000,0.000000,0.000000,0.000000,0.000000,0.000000;
#CREDIT:;
#OFFSET:-0.286130;
#BPMS:0.000000=157.000000
,280.000000=149.000000
,284.000000=141.000000
,288.000000=132.000000
;
#STOPS:;
#DELAYS:;
#WARPS:;
#TIMESIGNATURES:0.000000=4=4
;
#TICKCOUNTS:0.000000=4
;
#COMBOS:0.000000=1
;
#SPEEDS:0.000000=1.000000=0.000000=0
;
#SCROLLS:0.000000=1.000000
,280.000000=1.053691
,284.000000=1.113475
,288.000000=1.189393
;
#FAKES:;
#LABELS:0.000000=Song Start
;
#NOTES:
0000
0000
0000
0000
,
0000
0000
0000
0000
,
0000
0000
0000
0000
,
0000
0000
0000
0000
,
0000
0000
0000
1001
,
0000
0000
0000
0000
,
0000
0000
0000
0110
,
0000
0000
0000
0000
,
0000
0000
1001
0000
,
1000
0000
0100
0000
,
0010
0000
0001
0002
,
0003
0000
0100
0000
,
0010
0000
1000
2000
,
3000
0000
0100
0000
,
0010
0000
0100
0200
,
0300
0000
1000
0000
,
0001
0000
1001
0000
,
0001
0001
0001
0000
,
0100
0100
0100
0000
,
0001
0001
0001
0000
,
1001
0000
0000
0000
,
1000
1000
1000
0000
,
0100
0100
0100
0000
,
1000
1000
1000
0000
,
1001
0000
0000
0000
,
0000
0000
0000
0000
,
1000
0000
1000
0000
,
0010
0000
0010
0000
,
1000
0000
0100
0000
,
1000
0000
0010
0000
,
1000
0000
1000
0000
,
0001
0001
0001
0000
,
1000
0000
0100
0000
,
0010
0010
0010
0000
,
0001
0000
0001
0000
,
0010
0000
0010
0000
,
0001
0000
0100
0000
,
0001
0000
0010
0000
,
0001
0000
0001
0000
,
1000
1000
1000
0000
,
0001
0000
0100
0000
,
0010
0010
0010
0000
,
1001
0000
0000
0000
,
0100
0000
0000
0000
,
1001
0000
0000
0000
,
0010
0000
0000
0000
,
1000
0000
0100
0000
,
0010
0000
0001
0000
,
0200
0000
0300
0000
,
0020
0000
0030
0000
,
0000
0000
0000
0000
,
1000
1000
1000
0000
,
1000
1000
1000
0000
,
1000
1000
1000
0000
,
0010
0000
0100
0000
,
0001
0001
0001
0000
,
0001
0001
0001
0001
,
0000
0010
0010
0000
,
0001
0000
1000
0000
,
0001
0001
0001
0000
,
0100
0100
0100
0000
,
0010
0000
0010
0000
,
1000
0000
0001
0000
,
1000
1000
1000
0000
,
0100
0100
0100
0100
,
0000
0010
0010
0000
,
0002
0000
0003
0000
,
2002
0000
0000
0000
,
3003
0000
0010
0010
,
0020
0000
0000
0000
,
0030
0000
1000
2000
,
0000
0000
0000
3000
,
0000
0000
0001
0002
,
0000
0000
0000
0003
;
