#VERSION:0.83;
#TITLE:アルキメデス;
#SUBTITLE:;
#ARTIST:水曜日のカンパネラ;
#TITLETRANSLIT:Archimedes;
#SUBTITLETRANSLIT:;
#ARTISTTRANSLIT:WEDNESDAY CAMPANELLA;
#GENRE:;
#CREDIT:;
#MUSIC:Archimedes.ogg;
#BANNER:Archimedes-bn.png;
#BACKGROUND:;
#CDTITLE:;
#SAMPLESTART:47.828;
#SAMPLELENGTH:13.913;
#SELECTABLE:YES;
#OFFSET:1.737;
#BPMS:0.000=138.000;
#STOPS:;
#JACKET:;
#DISCIMAGE:;
#CDIMAGE:;
#BGCHANGES:;
#FGCHANGES:;

//--------------- dance-single - DS+ JU ----------------
#NOTEDATA:;
#STEPSTYPE:dance-single;
#DESCRIPTION:DS+ JU;
#DIFFICULTY:Hard;
#METER:13;
#RADARVALUES:0,0,0,0,0;
#CHARTNAME:;
#CHARTSTYLE:;
#CREDIT:Talkion;
#METERF:13;
#NOTES:
0000
0000
0000
0000
,
0000
0000
0000
0000
,
0000
0000
0000
0000
,
0000
0000
0000
0000
,
1000
0000
1000
0000
0100
0100
0010
0000
,
0011
0000
0001
0000
1000
0000
0010
0000
0100
0001
0000
0100
0001
0000
0010
0000
,
0100
0010
0001
1000
0010
0100
1000
0000
,
0101
0001
1000
0100
0010
0010
0001
1000
,
0010
1000
0001
0010
0100
0010
1000
0000
,
0011
0000
0001
0000
1000
0000
0010
0000
0100
0001
0000
0100
0001
0000
1000
0000
,
0100
0100
0010
0010
0001
1000
0010
0100
,
1100
0000
0001
0100
0001
1000
0100
1000
,
0010
0000
0100
0001
0010
0100
0001
0000
,
1100
1000
0001
0000
0100
0010
1000
0000
,
0001
0000
0010
0001
0100
0010
0001
0000
,
1010
1000
0001
0010
0100
0100
1000
0001
,
0100
0001
1000
0100
0010
0100
0001
0000
,
1100
1000
0001
0100
0010
0100
0001
1000
,
0010
1000
0100
0010
0010
0001
0100
0010
,
0011
0000
1000
0010
1000
0001
0010
0001
,
0100
0010
0100
0001
0010
0010
0100
0000
,
1100
0000
0101
0000
1100
0000
0101
0001
,
1000
0000
0010
0000
0001
0000
1000
0000
0010
0000
0001
0010
0100
0000
1000
0000
,
0001
0000
0010
0000
1000
0000
0001
0000
0010
0000
1000
0010
0100
0000
0001
0000
,
1000
0000
0010
0000
0001
0000
1000
0000
0010
0000
0001
0010
0100
0000
1000
0000
,
0001
0100
1000
0001
0100
1000
0010
0010
,
1000
0100
0001
1000
0100
0001
0010
0010
,
0001
0100
1000
0001
0100
1000
0010
0010
,
0100
0000
0000
0000
0100
0000
0000
0000
0100
0000
0001
1000
0001
0000
0010
0000
,
1010
0000
0001
1000
0001
0000
0010
0000
1000
0000
0100
0000
0010
0000
0100
0000
,
1000
0000
0000
0000
0001
0000
0100
0000
0010
0000
1000
0001
1000
0000
0010
0000
,
0011
0000
1000
0001
1000
0000
0010
0000
0001
0000
0100
0000
0010
0000
1000
0000
,
0001
0000
0010
0000
0001
0000
1000
0000
0010
0000
1000
0001
1000
0000
0100
0000
,
0101
0000
1000
0001
1000
0000
0100
0000
0001
0000
0010
0000
0100
0000
0010
0000
,
0001
0000
0000
0000
1000
0000
0010
0000
0100
0000
0001
1000
0001
0000
0100
0000
,
1100
0000
0001
1000
0001
0000
0100
0000
1000
0000
0010
0000
0010
0000
0100
0000
,
0001
0000
0010
0000
0100
0000
1000
0000
0000
0000
0001
0100
0001
0000
0010
0000
,
1010
0011
1010
0011
,
1001
0001
0100
0010
1000
0100
0010
0100
,
1000
0001
1000
0000
0010
0000
0100
0000
0001
0000
1000
0100
1000
0000
0010
0000
,
0011
0000
0000
1000
0000
0000
0100
0000
0010
0000
0010
0000
0010
0000
0010
0000
,
0001
0000
1000
0000
0010
0000
0100
0000
0001
0000
1000
0010
1000
0000
0100
0000
,
0101
0000
1000
0100
1000
0010
0100
0010
,
1000
0000
0001
0000
0010
0000
0100
0000
1000
0000
0001
0010
0001
0000
0100
0000
,
1100
0000
0001
0100
0001
0010
0100
0010
,
0001
0000
0100
0000
0010
0000
1000
0000
0000
0000
0001
0100
0001
0000
0010
0000
,
1010
0000
0000
0000
0001
0000
1000
0000
0100
0010
0100
0000
0001
0000
0000
0000
,
0010
0100
0010
0000
1000
0000
0000
0000
0100
0010
0100
0000
0001
0000
1000
0000
,
1010
0000
0000
0000
0001
0000
1000
0000
0010
0100
0010
0000
0001
0000
0000
0000
,
0100
0010
0100
0000
1000
0000
0000
0000
0100
0000
0100
0000
0010
0000
0000
0000
,
0011
0000
0000
0000
1000
0000
0001
0000
0100
0010
0100
0000
1000
0000
0000
0000
,
0010
0100
0010
0000
0001
0000
0000
0000
0100
0010
0100
0000
1000
0000
0001
0000
,
0011
0000
0000
0000
1000
0000
0001
0000
0010
0100
0010
0000
1000
0000
0000
0000
,
0100
0010
0100
0000
0001
0000
0000
0000
0010
0000
0100
0000
1000
0001
1000
0001
;

//--------------- dance-single - JA XO DS- ----------------
#NOTEDATA:;
#STEPSTYPE:dance-single;
#DESCRIPTION:JA XO DS-;
#DIFFICULTY:Challenge;
#METER:16;
#RADARVALUES:0,0,0,0,0;
#CHARTNAME:;
#CHARTSTYLE:;
#CREDIT:Talkion;
#METERF:15;
#NOTES:
0000
0000
0000
0000
,
0000
0000
0000
0000
,
0000
0000
0000
0000
,
0000
0000
0000
0000
,
1100
0000
0000
0000
0101
0000
0000
0000
0100
0000
0010
0000
1000
1000
0000
0000
,
1001
0000
0001
0000
0010
0000
0100
0000
1000
0001
0000
1000
0001
0000
0010
0001
,
0100
0000
0010
0000
0010
0000
1000
0001
1000
0100
0010
0100
0001
0000
0000
0000
,
0110
0000
0100
1000
0001
0000
0100
0010
1000
0001
1000
0000
0100
0000
1000
0001
,
0100
0010
0000
0100
0010
1000
0001
1000
0100
0000
1000
0000
0001
0001
0000
0000
,
0011
0000
0010
0100
1000
0000
0001
0000
0100
0010
0100
0001
1000
0001
0010
0100
,
1000
0000
1000
0000
0001
0000
0001
0000
0100
0000
0010
0100
1000
0000
0100
0000
,
0110
0000
0000
0000
0010
0000
1000
0001
0010
0100
0010
0001
1000
0000
0010
0000
,
1001
0000
0000
0000
1000
0001
0010
0100
0010
0001
0100
0010
1000
1000
0000
0000
,
1001
0000
0001
0000
0010
0000
0010
0000
0100
0000
0100
0000
1000
0001
0000
0010
,
0001
0100
0000
0100
0010
0000
0010
1000
0001
0010
0100
0010
1000
0000
0000
0000
,
0010
0100
0010
0001
1000
0000
0001
0100
0010
0000
0010
0000
1000
0001
0010
0100
,
1000
0000
0001
0100
0010
0100
0001
1000
0100
0000
0010
0001
1000
1000
0000
0000
,
1010
0000
0010
0000
0100
0000
0001
1000
0010
0000
0010
0000
0100
0001
1000
0100
,
0010
0100
1000
0000
0001
1000
0010
0000
0010
0000
0100
0010
0001
0000
0010
0000
,
0110
0000
0000
0000
0100
0010
1000
0001
0010
0100
0010
0001
1000
0000
1000
0000
,
0010
0000
0100
0001
0010
0000
0010
0000
0100
0000
1000
0000
0001
0001
0000
0000
,
0101
0000
0000
0100
0010
0000
1000
0001
0010
0001
1000
0000
0010
0000
0100
0000
,
0001
0000
0010
0100
0010
0000
0001
0000
1000
0100
0010
0100
0001
0000
0100
0000
,
1000
0000
0010
0100
0010
0000
1000
0000
0001
0100
0010
0100
1000
0000
0100
0000
,
0001
0000
0010
0100
0010
0000
0001
0000
1000
0100
0010
0100
0001
0000
0100
0000
,
1000
0010
1000
0001
0010
0001
0100
0010
,
1000
0100
1000
0001
0100
0001
0010
0100
,
1000
0010
1000
0001
0010
0001
0100
0010
,
1000
0000
0000
0000
1000
0000
0000
0000
1000
0000
0001
0010
0100
0100
1000
0000
,
0101
0000
0001
0010
0100
0000
1000
0000
0001
0000
0100
0010
0100
0000
0001
0000
,
0010
0000
0000
0010
0100
0000
1000
0000
0001
0000
0100
0010
0001
0000
0010
0000
,
0101
0000
0100
0010
1000
0000
0001
0000
0010
0000
0001
1000
0001
0000
0100
0000
,
0010
0000
1000
0100
1000
0000
0010
0000
0100
0000
0001
0100
0010
0010
1000
0000
,
0011
0000
0001
0100
0010
0000
1000
0000
0001
0000
0010
0100
0010
0000
0001
0000
,
0100
0000
0000
0100
0010
0000
1000
0000
0001
0000
0010
0100
0001
0000
0100
0000
,
0011
0000
0010
0100
1000
0000
0001
0000
0100
0000
0001
1000
0001
0000
0010
0000
,
0100
0000
0000
0100
0000
0000
0100
0000
1000
1000
0001
0100
0010
0000
1000
0000
,
0011
1010
0011
1010
,
1001
0001
0010
0100
1000
0010
0100
0010
,
1000
0001
1000
0000
0100
0000
0010
0000
0001
0000
1000
0010
0100
0000
0001
0000
,
1100
0000
0000
1000
0000
0000
0001
0000
0010
0000
0100
0010
1000
0010
0001
0000
,
1000
0000
0001
0100
0010
0000
1000
0000
0001
0000
1000
0100
0010
0010
0001
0000
,
1010
0000
0000
1000
0000
0000
0001
0000
0100
0000
0010
0100
1000
0100
0001
0000
,
1000
0000
0001
0010
0100
0000
1000
0000
0001
0000
0100
0010
0001
0000
0010
0000
,
0101
0000
0000
0001
0000
0000
1000
0000
0100
0000
0010
0100
0001
0100
1000
0000
,
0010
0000
0000
0010
0000
0000
0010
0000
0100
0000
0001
0001
1000
0100
0010
0000
,
1001
0000
0000
0000
0001
0100
0010
0100
0001
1000
0010
1000
0100
0000
0000
0000
,
0001
1000
0010
1000
0100
0000
0000
0000
0001
1000
0010
0100
1000
0100
0001
0010
,
0100
0000
0000
0000
1000
0100
0010
0100
1000
0001
0010
0001
0100
0000
0000
0000
,
1000
0001
0010
0001
0100
0000
0000
0000
1000
0001
0010
0001
0100
0100
0010
1000
,
0100
0000
0000
0000
1000
0001
0010
0100
1000
0001
0100
0001
0010
0000
0000
0000
,
1000
0000
1000
0001
0100
0001
0010
0000
1000
0001
0100
0010
0001
0010
1000
0100
,
0010
0000
0000
0000
0001
0010
0100
0010
0001
1000
0100
1000
0010
0000
0000
0000
,
0001
1000
0100
1000
0010
0000
0000
0000
0001
1000
0100
1000
0010
0100
0001
1000
;
