#TITLE:リンゴロジック;
#SUBTITLE:;
#ARTIST:Dormir;
#TITLETRANSLIT:Apple Logic;
#SUBTITLETRANSLIT:;
#ARTISTTRANSLIT:;
#GENRE:;
#CREDIT:;
#BANNER:Apple Logic BN.png;
#BACKGROUND:Apple Logic BG.png;
#LYRICSPATH:;
#CDTITLE:;
#MUSIC:Apple Logic OGG.ogg;
#OFFSET:-0.364000;
#SAMPLESTART:69.360001;
#SAMPLELENGTH:12.000000;
#SELECTABLE:YES;
#BPMS:0.000000=160.000000
;
#STOPS:
;
#BGCHANGES:;
#KEYSOUNDS:;
#ATTACKS:;

//---------------dance-single - Minxyz----------------
#NOTES:
     dance-single:
     Minxyz:
     Beginner:
     6:
     0.211524,0.318297,0.103741,0.198052,0.061302,157.000000,146.000000,11.000000,21.000000,0.000000,0.000000,0.211524,0.318297,0.103741,0.198052,0.061302,157.000000,146.000000,11.000000,21.000000,0.000000,0.000000:
0000
0000
0000
0000
,
0000
0000
0000
0000
,
0000
0000
0000
0000
,
0000
0000
0000
0000
,
0002
0000
0000
0000
0000
0000
2003
0000
0000
0000
0000
3000
,
0100
0000
0000
0000
0000
0000
0000
0010
0000
0000
0000
0000
,
0002
0000
0013
0000
,
0002
0000
0103
0000
,
0020
0000
1030
0000
,
0100
0010
0110
0000
,
2000
0000
3100
0000
,
2000
0000
3010
0000
,
0200
0000
0301
0000
,
0010
0100
0110
0000
,
1000
0000
0000
0000
0000
0000
0000
0000
0000
0000
1000
0000
,
0100
0000
0010
0000
,
0010
0000
0001
0000
,
0100
0000
0010
0000
1000
0000
0010
0000
0000
0000
0000
0000
,
1000
0000
0000
0000
0000
0000
0000
0000
0000
0000
1000
0000
,
0010
0000
1000
0000
,
0100
0000
0010
0000
,
0001
0000
0010
0000
0100
0000
1000
0000
0000
0000
0000
0000
,
1000
0000
0001
0000
0000
0000
0010
0000
0100
0000
0000
0000
,
1000
0000
0001
0000
0000
0000
0100
0000
0010
0000
0000
0000
,
1000
0000
0001
0000
0000
0000
0010
0000
0100
0000
0000
0000
,
1001
0000
0110
0000
,
1000
0010
1000
0000
,
0001
0100
0001
0000
,
0010
0100
0010
0000
,
0001
1000
0100
0000
,
0020
0000
0230
0000
,
2300
0000
3001
0000
,
0200
0000
0320
0000
,
2030
0000
3100
0000
,
0010
0000
0001
0100
,
0010
0000
1000
0100
,
0010
0001
1000
0000
,
1000
0001
0010
0000
,
0001
0000
1000
0100
,
1000
0000
0001
0010
,
0001
1000
0010
0000
,
1001
0000
0000
0000
,
0000
0000
0100
0010
,
1000
0000
0000
1001
,
0000
0000
0000
0110
,
0000
0000
0000
0200
0000
0000
0000
0000
0000
0000
0300
0000
,
0001
0000
0010
0000
,
0100
0000
1000
0000
,
0010
0000
0100
0000
,
0001
0000
0010
0000
,
0100
0000
0010
0000
,
0100
0000
0010
0000
,
0001
0000
1000
0000
,
0100
0000
0010
1000
,
0010
0000
1001
0000
,
0010
0000
0110
0000
,
1000
0000
1010
0000
,
0001
0000
0101
0000
,
1000
0000
0100
0000
,
0001
0000
0100
0000
,
2000
0000
3000
0000
,
0002
0000
0003
0000
,
0020
0000
0030
0000
,
0001
0100
0010
2000
,
0000
3000
0000
0002
,
0000
0003
0000
0200
,
0000
0300
0000
0010
,
1000
0100
0001
0000
;

//---------------dance-single - Minxyz----------------
#NOTES:
     dance-single:
     Minxyz:
     Easy:
     9:
     0.315266,0.384786,0.169758,0.264069,0.325370,234.000000,216.000000,18.000000,28.000000,0.000000,0.000000,0.315266,0.384786,0.169758,0.264069,0.325370,234.000000,216.000000,18.000000,28.000000,0.000000,0.000000:
0000
0000
0000
0000
,
0000
0000
0000
0000
,
0000
0000
0000
0000
,
0000
0000
0000
0000
,
2000
3010
0100
0010
,
1000
0000
1000
0000
0000
0000
0000
0110
0000
0000
0000
0000
,
0001
0000
0000
0000
0000
0000
0010
0000
0000
0000
0100
0000
,
1000
0000
0000
0000
0000
0000
0100
0000
0000
0000
0010
0000
,
0001
0000
0000
0000
0000
0000
0010
0000
0100
0000
1000
0000
,
0010
0100
0001
0000
,
1000
0000
0000
0000
0000
0000
0100
0000
0000
0000
0010
0000
,
0001
0000
0000
0000
0000
0000
0010
0000
0000
0000
0100
0000
,
1000
0000
0000
0000
0000
0000
0100
0000
0010
0000
0001
0000
,
0100
0010
1000
0000
,
0002
0000
0000
0000
0000
0000
0000
0000
0000
0003
0010
0000
,
0200
0000
0000
0000
0000
0000
0310
0000
0100
0000
1000
0000
,
0100
0000
0000
0010
0000
0000
0010
0000
0001
0000
1000
0000
,
0010
0100
0220
0330
,
2000
0000
0000
0000
0000
0000
0000
0000
0000
3000
0010
0000
,
0200
0000
0000
0300
0010
0000
0001
0000
0000
0010
0000
0000
,
1000
0000
0000
0100
0000
0000
0001
0000
0100
0000
1000
0000
,
0010
0100
0110
0000
,
1000
0000
0000
0000
1000
0000
0100
0000
0100
0000
0000
0000
,
0001
0000
0000
0000
0001
0000
0100
0000
0100
0000
0000
0000
,
1000
0000
0000
0000
1000
0000
0010
0000
0010
0000
0000
0000
,
0110
1001
0100
0000
,
0001
0010
1000
0010
,
0001
0100
1000
0100
,
0001
0010
1000
0010
,
0001
0010
0100
1001
,
0002
0000
0000
0000
0000
0000
0020
0003
0000
0000
0000
0000
,
0230
0000
0000
0000
0000
0000
1300
0000
0001
0000
1000
0000
,
0002
0000
0203
0000
,
0320
0000
0000
0000
0000
0030
1000
0000
0001
0000
1000
0000
,
0010
0000
0000
0000
0000
0000
1000
0000
0100
0010
0000
0000
,
0001
0000
0000
0000
0000
0000
0100
0000
0010
1000
0000
0000
,
0001
0010
0001
1000
,
0020
0000
0130
0000
,
0011
0000
1001
0000
,
0110
0000
1001
0000
,
1000
0100
0010
0000
,
0000
0000
0001
0000
0000
0100
0000
0000
0010
0000
0000
0000
,
0000
0000
0000
0000
0000
0010
0000
0000
0110
0000
0000
0000
,
0000
0000
0000
0000
0000
0000
0000
0000
1001
0000
0000
0000
,
0000
0000
0000
0000
0000
0000
0000
0000
0110
0000
0000
0000
,
0000
0000
0000
0010
0000
2000
0000
0000
0000
0000
0000
3000
,
0200
0000
0000
0000
0000
0000
0310
0000
0001
0000
0010
0000
,
0002
0000
0000
0000
0000
0000
1003
0000
0010
0000
1000
0000
,
0020
0000
0000
0000
0000
0000
0130
0000
0100
0000
0000
0000
,
0010
0000
0001
0000
0010
0000
0100
0000
0000
0000
0100
0000
,
0020
0000
0000
0000
0000
0000
0130
0000
0001
0000
0100
0000
,
0002
0000
0000
0000
0000
0000
1003
0000
0100
0000
1000
0000
,
0200
0000
0000
0000
0000
0300
0010
0000
0010
0000
0000
0000
,
0100
0000
0001
0000
0100
0000
0010
0000
1000
0000
0010
0000
,
0001
0000
0000
0010
0000
0010
0001
0000
0000
0000
0000
0000
,
1000
0000
0000
0010
0000
0000
0010
0000
0000
0000
0000
1000
,
0010
0000
0000
1000
0000
0000
1000
0000
0000
0000
0000
0100
,
0010
0000
0001
0000
0001
0000
0100
0000
0000
0000
0000
0000
,
0001
0000
0000
1000
0000
0000
0010
0000
0100
0000
0010
0000
,
1000
0000
0000
0001
0000
0000
0010
0000
0100
0000
0010
0000
,
0002
0000
0103
0000
,
2000
0000
3100
0000
,
0002
0000
0000
0000
0000
0003
0010
0000
0000
0000
0000
0000
,
0110
1001
0110
2000
,
0000
3000
0000
1000
0000
0010
0000
0000
0000
0002
0000
0000
,
0003
0000
0000
0001
0000
1000
0000
0000
0000
0200
0000
0000
,
0300
0000
0000
0100
0000
0001
0000
0000
0000
0011
0000
0000
,
1100
0000
0000
1000
0000
1000
0020
0000
0000
0000
0000
0000
,
0030
0000
0000
0000
;

//---------------dance-single - Minxyz----------------
#NOTES:
     dance-single:
     Minxyz:
     Medium:
     12:
     0.455384,0.545113,0.207483,0.311224,0.646025,338.000000,316.000000,22.000000,33.000000,0.000000,0.000000,0.455384,0.545113,0.207483,0.311224,0.646025,338.000000,316.000000,22.000000,33.000000,0.000000,0.000000:
// measure 0
0000
0000
0000
0000
,  // measure 1
0000
0000
0000
0000
,  // measure 2
0000
0000
0000
0000
,  // measure 3
0000
0000
0000
0000
,  // measure 4
2000
3010
0200
0310
,  // measure 5
1000
0000
2002
0000
3003
0000
0000
1000
0100
0000
0010
0000
,  // measure 6
0002
0000
0000
0013
0000
0000
0010
0000
0100
0000
0100
0000
,  // measure 7
2000
0000
0000
3100
0000
0000
0100
0000
0010
0000
0001
0000
,  // measure 8
0002
0000
0000
0103
0000
0000
0100
0000
0010
0000
0100
0000
,  // measure 9
0010
1000
0010
1000
0000
0010
0200
0000
0000
0300
0000
0000
,  // measure 10
2000
0000
0000
3100
0000
1000
0100
0000
0010
0000
0010
0000
,  // measure 11
0002
0000
0000
0013
0000
0001
0010
0000
0100
0000
1000
0000
,  // measure 12
2000
0000
0000
3100
0000
1000
0100
0000
0100
0000
0010
0000
,  // measure 13
0100
0001
0100
0001
0000
0010
0200
0000
0000
0300
0000
0000
,  // measure 14
0010
0000
0000
0001
0000
0000
0010
0000
0000
0000
0010
0000
,  // measure 15
0100
0000
0000
0010
0001
0000
0100
0000
0010
0000
1000
0000
,  // measure 16
0100
0000
0000
0110
0000
0000
0010
0000
0001
0000
1000
0000
,  // measure 17
0100
0000
0010
0000
0001
0000
0100
0000
0000
0000
0100
0000
,  // measure 18
0100
0000
0000
0001
0000
0000
0100
0000
0000
0000
1000
0000
,  // measure 19
0100
0000
0000
0001
0000
0000
0010
0000
0001
0000
0100
0000
,  // measure 20
0010
0000
0000
0110
0000
0000
1000
0000
0100
0000
0010
0000
,  // measure 21
0001
0000
0010
0000
0100
0000
1000
0000
0000
0000
0000
0000
,  // measure 22
0001
0000
0010
0000
1000
0000
0001
0000
0100
0000
1000
0000
,  // measure 23
0001
0000
0100
0000
1000
0000
0001
0000
0010
0000
0000
0000
,  // measure 24
1000
0000
0010
0000
0001
0000
1000
0000
0100
0000
0001
0000
,  // measure 25
0010
0000
0000
0100
0000
0000
0010
0000
0011
0000
0000
0000
,  // measure 26
0100
1010
0001
1100
,  // measure 27
0010
0101
0100
0011
,  // measure 28
0001
1010
0100
0101
,  // measure 29
0010
1100
0010
0011
,  // measure 30
2000
0000
3200
0000
,  // measure 31
0302
0000
0000
0103
0000
0000
0010
0000
0010
0000
0010
0000
,  // measure 32
0002
0000
0000
0000
0000
0000
0023
0000
0000
0000
0000
0030
,  // measure 33
2000
0000
0000
3010
0000
0000
0001
0000
0100
0000
0010
0000
,  // measure 34
1000
0000
0000
0110
0000
0000
1000
0000
1000
0100
0000
0000
,  // measure 35
0101
0000
0000
0000
0000
0000
0100
0000
0100
0010
0000
0010
,  // measure 36
0001
0000
0010
0100
0000
0100
1000
0000
0100
0010
0000
0010
,  // measure 37
0001
0000
0001
1000
0000
1000
0100
0000
0100
0010
0000
0000
,  // measure 38
0001
0000
0010
0000
,  // measure 39
0001
0000
0100
0000
,  // measure 40
0001
0000
0001
1000
0000
1000
0100
0000
0000
0010
0000
0001
,  // measure 41
0000
0000
1000
0100
0000
0010
0000
0100
1000
0000
0000
0001
,  // measure 42
0000
0000
0001
0100
0000
0010
0000
0000
1010
0000
0000
0000
,  // measure 43
0010
0000
0100
0001
0000
0010
0100
0000
0110
0000
0000
1000
,  // measure 44
0001
0000
0010
0000
0000
0100
0010
0000
1001
0000
0000
0000
,  // measure 45
0000
0100
0010
0100
0000
0200
0000
0000
0000
0000
0300
0000
,  // measure 46
0002
0000
0000
0013
0000
0000
0001
0000
1000
0000
1000
0000
,  // measure 47
0020
0000
0000
0130
0000
0000
0001
0000
0010
0000
0010
0000
,  // measure 48
0200
0000
0000
0310
0001
0000
1000
0000
1000
0000
0100
0010
,  // measure 49
0001
0000
0010
0000
0100
0000
1000
0000
0010
0000
0100
0000
,  // measure 50
0002
0000
0000
0103
0000
0000
0001
0000
1000
0000
1000
0000
,  // measure 51
0200
0000
0000
0310
0000
0000
0001
0000
0100
0000
0100
0000
,  // measure 52
0020
0000
0000
0130
0001
0000
1000
0000
1000
0000
0010
0100
,  // measure 53
0001
0000
0100
0000
0010
0000
1000
0000
0100
0000
0010
0000
,  // measure 54
0001
0000
0000
0010
0000
0000
0100
0000
0001
0000
0100
0000
,  // measure 55
1000
0000
0000
0010
0000
0000
0100
0000
1000
0000
0100
0000
,  // measure 56
0001
0000
0000
0100
0000
0000
0010
0000
0001
0000
0010
0000
,  // measure 57
1000
0000
0000
0100
0000
0000
0010
0000
1000
0000
0010
0000
,  // measure 58
0001
0000
0000
1000
0000
0000
0010
0000
0100
0000
0110
0000
,  // measure 59
1000
0000
0000
0001
0000
0000
0100
0000
0010
0000
0110
0000
,  // measure 60
0002
0000
0000
0000
0000
0000
0023
0000
0000
0000
0000
0030
,  // measure 61
2000
0000
3020
0000
,  // measure 62
0032
0000
0203
0000
,  // measure 63
1300
0000
0000
0100
0000
0000
0001
0100
0001
0100
0000
0100
,  // measure 64
0010
0000
0010
1000
0000
1000
0000
0000
0000
0100
0000
0100
,  // measure 65
0010
0000
0010
0001
0000
0001
0000
0000
0000
1000
0000
0001
,  // measure 66
0010
0100
1000
0100
0000
0010
0000
0000
0000
0001
0010
0000
,  // measure 67
0110
0011
0220
0000
,  // measure 68
0330
0000
0000
0000
;

//---------------dance-single - Minxyz----------------
#NOTES:
     dance-single:
     Minxyz:
     Hard:
     16:
     0.573945,0.705441,0.462120,0.367810,0.919525,426.000000,377.000000,49.000000,39.000000,0.000000,0.000000,0.573945,0.705441,0.462120,0.367810,0.919525,426.000000,377.000000,49.000000,39.000000,0.000000,0.000000:
0000
0000
0000
0000
,
0000
0000
0000
0000
,
0000
0000
0000
0000
,
0000
0000
0000
0000
,
0002
0000
0000
0023
0000
0000
0032
0000
0000
2003
3000
0000
,
0110
0000
2002
0000
0000
3003
0000
0010
0100
0000
0010
0000
,
0020
0000
0000
1030
0000
0010
1000
0000
0100
0000
0100
0000
,
0020
0000
0000
0031
0000
0010
0001
0000
0100
0000
0100
0000
,
0020
0000
0000
0130
0000
0010
1000
0000
0001
0000
0001
0000
,
1000
0100
0010
0001
0100
0010
2000
0000
0000
3000
0000
0000
,
0200
0000
0000
1300
0000
0100
1000
0000
0010
0000
0010
0000
,
0200
0000
0000
0301
0000
0100
0001
0000
0010
0000
0010
0000
,
0200
0000
0000
0310
0000
0100
1000
0000
0001
0000
0001
0000
,
1000
0010
0100
0001
0010
0100
2000
0000
0000
3000
0000
0000
,
0002
0000
0000
0010
0000
0000
1000
0000
1000
0000
1000
0000
,
0023
0000
0000
0100
0000
0000
0001
0000
0001
0000
0001
0000
,
0230
0000
0000
0010
0000
0000
1000
0000
1000
0000
1000
0000
,
1300
0000
0001
0000
0100
0000
0110
0000
0000
0000
0010
0000
,
1000
0000
0010
1000
0000
0000
0100
0000
0100
0000
0100
0000
,
0010
0000
0001
1000
0000
0000
0010
0000
0010
0000
0010
0000
,
0100
0000
0000
0101
0000
0000
0010
0000
0001
0000
0100
0000
,
0101
1010
0220
0330
,
1000
0100
0001
0100
1000
0000
0010
0000
0110
0000
0000
0000
,
0001
0010
1000
0010
0001
0000
0010
0000
0110
0000
0000
0000
,
1000
0100
0001
0100
1000
0000
0100
0000
0110
0000
0000
0000
,
1000
0000
1000
0001
0010
0001
0100
0000
0110
0000
0000
0000
,
0001
0010
0000
0101
0000
0000
0010
0100
0000
1010
0000
0000
,
1000
0100
0000
0011
0000
0000
0100
0010
0000
1100
0000
0000
,
1000
0010
0000
1010
0000
0000
0001
0010
0000
0011
0000
0000
,
1000
0100
0000
1100
0000
0000
0001
0100
0000
0101
0000
0000
,
1000
0000
0010
0000
1000
0100
2000
0000
0000
0000
3010
0000
,
0020
0130
0002
0000
,
0003
2000
0000
0000
3010
0000
0001
0000
1000
0000
0100
0000
,
0001
0000
0000
0010
0000
0000
0100
0000
0010
0000
0001
0000
,
2000
0000
0000
0000
3000
0000
0100
0000
0100
0010
0000
0000
,
0220
0000
0000
0330
0000
0000
0001
0000
0001
1000
0000
1000
,
0010
0100
1000
0100
0000
0001
0010
0000
0010
0001
0010
1000
,
0010
0001
0100
0001
0000
1000
0010
0000
0010
1000
0000
0100
,
0110
0000
0011
0010
,
1100
0000
1010
0100
,
0001
0000
0000
0000
0001
0000
0010
0000
0000
0000
0010
0000
0100
0000
0000
0000
0000
0000
0010
0000
0000
0000
0001
0100
,
0000
0000
0000
0000
0010
0000
0100
0000
0010
0000
0100
0000
0000
0000
0100
0000
0001
0000
0000
0000
0000
0000
0010
0001
,
0000
0000
0000
0000
0100
0000
0010
0000
0000
0000
0000
1000
0000
0000
0100
0000
0010
0000
0000
0000
0000
0000
1000
0100
,
0000
0000
0000
0000
0010
0000
0100
0000
0000
0000
1000
0000
0100
0000
0000
0000
0101
0000
0000
0000
0000
0000
0000
0100
,
0000
0000
0100
0001
0000
1000
0010
1000
0010
0000
0000
0000
,
0000
0000
1000
0000
0010
0000
0110
0000
0000
0000
2002
0000
0000
0000
0000
0000
0000
0000
0000
3003
0000
0000
0000
0000
,
0020
0000
0000
1030
0000
0010
1000
0000
0001
0000
0100
0000
,
0020
0000
0000
0031
0000
0010
0001
0000
0010
0000
1000
0000
,
0200
0000
0000
1300
0000
0000
1000
0000
0100
0000
0001
0100
,
1000
0000
0010
0000
0010
0000
1000
0000
0100
0000
0001
0000
,
0200
0000
0000
1300
0000
0100
1000
0000
0001
0000
0010
0000
,
0200
0000
0000
0301
0000
0100
0001
0000
0100
0000
1000
0000
,
0020
0000
0000
0130
0010
0100
0001
0000
0010
0000
1000
0010
,
0001
0000
0100
0000
0100
0000
0001
0000
0100
0000
1000
0000
,
0100
0010
0000
1000
0000
0100
0010
0000
0001
0000
1001
0000
,
0100
0010
0000
0001
0000
0100
0010
0000
1000
0000
1001
0000
,
1000
0010
0000
0001
0000
0010
1000
0000
0100
0000
0110
0000
,
0001
0010
0000
1000
0000
0010
0001
0000
0100
0000
0110
0000
,
1001
0000
0000
0110
0000
0000
1010
0000
0011
0000
1010
0000
,
1001
0000
0000
0110
0000
0000
0101
0000
1100
0000
0101
0000
,
2000
0000
0000
0000
0000
0000
3100
0000
0110
0000
0000
0000
,
0002
0000
0000
0000
0000
0003
0010
0000
0110
0000
0000
0000
,
0200
0000
0000
0000
0000
0000
1300
0000
1001
0000
0000
0000
,
1000
0010
0000
1100
0000
0100
0010
0001
0010
0100
0000
1000
,
0100
0001
0100
1000
0000
0110
0000
0000
0000
0010
0000
0001
,
0100
1000
0100
0001
0000
0110
0000
0000
0000
0001
0000
0010
,
0100
1000
0100
0010
0001
0010
0000
0000
0000
0010
1000
0000
,
0110
0000
0100
0010
0100
0010
0220
0000
0000
0000
0000
0000
,
0330
0000
0000
0000
;

//---------------dance-double - Minxyz----------------
#NOTES:
     dance-double:
     Minxyz:
     Easy:
     9:
     0.309877,0.384786,0.216914,0.245207,0.320655,230.000000,207.000000,23.000000,26.000000,0.000000,0.000000,0.309877,0.384786,0.216914,0.245207,0.320655,230.000000,207.000000,23.000000,26.000000,0.000000,0.000000:
00000000
00000000
00000000
00000000
,
00000000
00000000
00000000
00000000
,
00000000
00000000
00000000
00000000
,
00000000
00000000
00000000
00000000
,
00002000
00103000
00100000
00002000
,
00013000
00000000
00010000
00000000
00000000
00000000
00000000
00011000
00000000
00000000
00000000
00000000
,
00010000
00000000
00000000
00000000
00000000
00000000
01000000
00000000
00000000
00000000
00100000
00000000
,
00010000
00000000
00000000
00000000
00000000
00000000
00100000
00000000
00000000
00000000
00001000
00000000
,
00010000
00000000
00000000
00000000
00000000
00000000
00001000
00000000
00000000
00000000
00000100
00000000
,
00000010
00010000
00011000
00000000
,
00010000
00000000
00000000
00000000
00000000
00000000
00100000
00000000
00000000
00000000
01000000
00000000
,
00010000
00000000
00000000
00000000
00000000
00000000
01000000
00000000
00000000
00000000
00001000
00000000
,
00010000
00000000
00000000
00000000
00000000
00000000
00001000
00000000
00000000
00000000
00000010
00000000
,
00000100
00010000
00011000
00000000
,
00200000
00000000
00000000
00000000
00000000
00000000
00000000
00000000
00000000
00300000
00010000
00000000
,
10000000
00000000
00000000
00000000
01000000
00000000
00100000
00000000
00010000
00000000
10000000
00000000
,
01000000
00000000
00000000
00100000
00000000
00000000
00001000
00000000
00010000
00000000
00001000
00000000
,
00010000
00000010
00001000
00000000
,
00000200
00000000
00000000
00000000
00000000
00000000
00000000
00000000
00000000
00000300
00001000
00000000
,
00000001
00000000
00000000
00000000
00000010
00000000
00000100
00000000
00001000
00000000
00000001
00000000
,
00000010
00000000
00000000
00000100
00000000
00000000
00010000
00000000
00001000
00000000
00010000
00000000
,
00001000
01000000
00110000
00000000
,
10000000
00000000
00000000
00000000
01000000
00000000
00100000
00000000
00100000
00000000
00000000
00000000
,
00001000
00000000
00000000
00000000
00010000
00000000
00000010
00000000
00000010
00000000
00000000
00000000
,
00001000
00000000
00000000
00000000
00000001
00000000
00000100
00000000
00000100
00000000
00000000
00000000
,
00000110
00000010
00001010
00000000
,
00011000
00000000
00110000
00000000
,
10100000
00000000
11000000
00000000
,
00110000
00000000
00011000
00000000
,
00001000
00000000
00011000
00000000
,
00000200
00000000
00002300
00000000
,
00003020
00000000
00000000
00000000
00000000
00000000
00001030
00000000
00000001
00000000
00001000
00000000
,
00000020
00000000
00000000
00000000
00000000
00000000
00000000
00000000
00000000
00000000
00000000
00000000
00000000
00000000
00000000
00000000
00000000
00000000
00000000
00000000
00000000
00000000
00000000
00000000
00000000
00000000
00000000
00000000
00000000
00000000
00000000
00000030
00020000
00000000
00000000
00000000
00000000
00000000
00000000
00000000
00000000
00000000
00000000
00000000
00000000
00000000
00000000
00000000
00000000
00000000
00000000
00000000
00000000
00000000
00000000
00000000
00000000
00000000
00000000
00000000
00000000
00000000
00000000
00000000
,
00032000
00000000
00000000
00000000
00000000
00000000
00103000
00000000
00010000
00000000
00100000
00000000
,
00010000
00000000
00000000
00000000
00000000
00000000
01000000
00000000
00010000
00100000
00000000
00000000
,
00001000
00000000
00000000
00000000
00000000
00000000
00010000
00000000
00000100
00001000
00000000
00000000
,
00000100
00000010
00000001
00000100
,
00000020
00000000
00010030
00000000
,
00011000
00000000
00101000
00000000
,
00010010
00000000
00011000
00000000
,
00100000
00010000
10000000
00000000
,
00000000
00000000
00010000
00000000
00000000
00100000
00000000
00000000
00001000
00000000
00000000
00000000
,
00000000
00000000
00000000
00000000
00000000
00010000
00000000
00000000
00011000
00000000
00000000
00000000
,
00000000
00000000
00000000
00000000
00000000
00000000
00000000
00000000
00010100
00000000
00000000
00000000
,
00000000
00000000
00000000
00000000
00000000
00000000
00000000
00000000
00000110
00000000
00000000
00000000
,
00000000
00000000
00000000
00000001
00000000
00000020
00000000
00000000
00000000
00000000
00000030
00000000
,
00000002
00000000
00000000
00000000
00000000
00000000
00001003
00000000
00000010
00000000
00001000
00000000
,
00000020
00000000
00000000
00000000
00000000
00000000
00010030
00000000
00001000
00000000
00010000
00000000
,
00002000
00000000
00000000
00000000
00000000
00000000
00103000
00000000
00100000
00000000
00000000
00000000
,
00010000
00000000
10000000
00000000
01000000
00000000
00100000
00000000
00010000
00000000
01000000
00000000
,
00020000
00000000
00000000
00000000
00000000
00000000
10030000
00000000
01000000
00000000
10000000
00000000
,
02000000
00000000
00000000
00000000
00000000
00000000
03100000
00000000
00001000
00000000
00010000
00000000
,
00002000
00000000
00000000
00000000
00000000
00000000
00003100
00000000
00000100
00000000
00000000
00000000
,
00000001
00000000
00000100
00000000
00000010
00000000
00010000
00000000
00001000
00000000
00010000
00000000
,
00001000
00000000
00000000
00100000
00000000
00100000
00010000
00000000
00000000
00000000
00000000
00000000
,
10000000
00000000
00000000
01000000
00000000
00000000
00100000
00000000
00000000
00000000
00000000
00001000
,
00010000
00000000
00000000
00001000
00000000
00000000
00000100
00000000
00000000
00000000
00000000
00000010
,
00001000
00000100
00000010
00000000
,
00000001
00000000
00000000
00000100
00000000
00000000
00000010
00000000
00010000
00000000
00001000
00000000
,
00100000
00000000
00000000
00010000
00000000
00000000
01000000
00000000
00001000
00000000
00010000
00000000
,
00002000
00000000
00013000
00000000
,
00000200
00000000
00000000
00000000
00000000
00000300
00010000
00000000
00000000
00000000
00000000
00000000
,
00000020
00000000
00010030
00000000
,
00011000
00100000
01100000
20000000
,
00000000
30000000
00000000
10000000
00000000
01000000
00000000
00000000
00000000
00020000
00000000
00000000
,
00000000
00030000
00000000
00010000
00000000
00001000
00000000
00000000
00000000
00000020
00000000
00000000
,
00000000
00000030
00000000
00000010
00000000
00000001
00000000
00000000
00000000
00000100
00000000
00000000
,
00001000
00010000
00022000
00000000
,
00033000
00000000
00000000
00000000
;

//---------------dance-double - Minxyz----------------
#NOTES:
     dance-double:
     Minxyz:
     Medium:
     12:
     0.416312,0.480982,0.122603,0.386672,0.589439,309.000000,296.000000,13.000000,41.000000,0.000000,0.000000,0.416312,0.480982,0.122603,0.386672,0.589439,309.000000,296.000000,13.000000,41.000000,0.000000,0.000000:
00000000
00000000
00000000
00000000
,
00000000
00000000
00000000
00000000
,
00000000
00000000
00000000
00000000
,
00000000
00000000
00000000
00000000
,
20000000
32000000
03200000
00302000
,
00013000
00000000
00020000
00000000
00000000
00000000
00030000
00001000
00001000
00000000
00010000
00000000
,
00002000
00000000
00000000
00103000
00000000
00000000
00010000
00000000
01000000
00000000
00010000
00000000
,
20000000
00000000
00000000
31000000
00000000
00000000
00100000
00000000
00010000
00000000
00100000
00000000
,
00002000
00000000
00000000
00013000
00000000
00000000
00000100
00000000
00001000
00000000
00000100
00000000
,
00001000
00000000
00000010
00001000
00000000
00000100
00001000
00000000
00000000
00000000
00000000
00000000
,
00002000
00000000
00000000
00003010
00000000
00000000
00000100
00000000
00000001
00000000
00000100
00000000
,
00000020
00000000
00000000
00001030
00000000
00000000
00000100
00000000
00000010
00000000
00000100
00000000
,
00020000
00000000
00000000
00031000
00000000
00000000
00100000
00000000
00010000
00000000
01000000
00000000
,
00100000
00000000
10000000
00100000
00000000
01000000
00100000
00000000
00000000
00000000
00000000
00000000
,
20000000
00000000
00000000
00000000
00000000
00000000
00000000
00000000
00000000
30000000
01000000
00000000
,
00010000
00000000
00000000
00000000
00001000
00000000
00100000
00000000
00010000
00000000
00100000
00000000
,
00001000
00000000
00000000
00011000
00000000
00000000
00010000
00000000
00000010
00000000
00001000
00000000
,
00000100
00000000
00000010
00000000
00000001
00000000
00001000
00000000
00000000
00000000
00001000
00000000
,
00000002
00000000
00000000
00000000
00000000
00000000
00000000
00000000
00000000
00000003
00000100
00000000
,
00001000
00000000
00000000
00000000
00010000
00000000
00001000
00000000
00100000
00000000
00010000
00000000
,
01000000
00000000
00000000
00110000
00000000
00000000
00100000
00000000
00001000
00000000
00010000
00000000
,
00001000
00000000
00010000
00000000
00000010
00000000
00002000
00000000
00000000
00003000
00000000
00000000
,
00000001
00000000
00000100
00000000
00001000
00000000
00000001
00000000
00000010
00000000
00001000
00000000
,
00000100
00000000
00010000
00000000
00001000
00000000
00100000
00000000
00010000
00000000
00000000
00000000
,
10000000
00000000
01000000
00000000
00010000
00000000
10000000
00000000
00100000
00000000
00010000
00000000
,
01000000
00000000
00000000
00100000
00000000
00000000
10000000
00000000
10010000
00000000
00000000
00000000
,
10000000
11000000
00100000
00110000
,
00001000
00011000
00010000
00010100
,
00001000
00001100
00000010
00000011
,
00000100
00000110
00000001
00001001
,
00000020
00000000
00002030
00000000
,
00000200
00003000
00000000
00000000
00000000
00000000
00000000
00000000
00000000
00000000
00000000
00000000
00000000
00000000
00000000
00000000
00000000
00000000
00000000
00000000
00000000
00000000
00000000
00000000
00010300
00000000
00000000
00000000
00000000
00000000
00000000
00000000
00000000
00000000
00000000
00000000
00000000
00000000
00000000
00000000
00000000
00000000
00000000
00000000
00000000
00000000
00000000
00000000
00001000
00000000
00000000
00000000
00000000
00000000
00000000
00000000
00000000
00000000
00000000
00000000
00000000
00000000
00000000
00000000
00001000
00000000
00000000
00000000
00000000
00000000
00000000
00000000
00000000
00000000
00000000
00000000
00000000
00000000
00000000
00000000
00001000
00000000
00000000
00000000
00000000
00000000
00000000
00000000
00000000
00000000
00000000
00000000
00000000
00000000
00000000
00000000
,
00200000
00000000
00320000
00000000
,
02030000
00000000
00000000
03100000
00000000
00000000
10000000
00000000
00100000
00000000
01000000
00000000
,
00001000
00000000
00000000
00011000
00000000
00000000
01000000
00000000
01000000
00010000
00000000
00000000
,
00200000
00000000
00000000
00300000
00000000
00000000
00010000
00000000
00010000
00100000
00000000
00100000
,
00001000
00000000
00000000
00010000
00000000
00000000
00000100
00000000
00000100
00000010
00000000
00000010
,
00000001
00000000
00000001
00000100
00000000
00000100
00000010
00000000
00000010
00001000
00000000
00000000
,
00000001
00000000
00001000
00000000
,
00010000
00000000
10000000
00000000
,
01000000
00000000
01000000
00100000
00000000
00100000
00010000
00000000
00000000
00100000
00000000
00001000
,
00000000
00000000
00010000
00001000
00010000
00001000
00000000
00001000
00010000
00000000
00000000
00000100
,
00000000
00000000
00000100
00001000
00000000
00000010
00000000
00000010
00000100
00000000
00000000
00000000
,
00000001
00000000
00000001
00000010
00000000
00000010
00000100
00000000
00010000
00000000
00000000
00000000
,
00001000
00000000
00001000
00010000
00000000
00001000
00100000
00000000
00101000
00000000
00000000
00000000
,
00000000
00000000
00010000
00000000
00100000
00000000
01000000
00000000
00000000
00000000
20000000
00000000
00000000
00000000
00000000
00000000
00000000
00000000
00000000
00000000
00000000
30000000
00000000
00000000
,
02000000
00000000
00000000
03100000
00000000
00000000
00001000
00000000
00010000
00000000
00010000
00000000
,
00002000
00000000
00000000
00003100
00000000
00000000
00000010
00000000
00001000
00000000
00001000
00000000
,
00002000
00000000
00000000
00003100
00000000
00000000
00000010
00000000
00000001
00000000
00000100
00000010
,
00001000
00000000
00000010
00000000
00010000
00000000
00001000
00000000
00000100
00000000
00000001
00000000
,
00000020
00000000
00000000
00000130
00000000
00000000
00000100
00000000
00010000
00000000
00010000
00000000
,
00002000
00000000
00000000
00103000
00000000
00010000
01000000
00000000
00100000
00000000
10000000
00000000
,
02000000
00000000
00000000
03100000
00010000
00000000
10000000
00000000
10000000
00000000
00100000
01000000
,
00010000
00000000
00100000
00000000
00001000
00000000
00010000
00000000
00000100
00000000
00001000
00000000
,
00000010
00000000
00000000
00001000
00000000
00000000
00000100
00000000
00010000
00000000
00100000
00000000
,
10000000
00000000
00000000
00100000
00000000
00000000
00010000
00000000
00001000
00000000
00000010
00000000
,
00000001
00000000
00000000
00001000
00000000
00000000
00000001
00000000
00000100
00000000
00000010
00000000
,
00010000
00000000
00000000
00001000
00000000
00000000
00100000
00000000
01000000
00000000
10000000
00000000
,
01000000
00000000
00000000
00010000
00000000
00000000
00001000
00000000
00000100
00000000
00001000
00000000
,
00010000
00000000
00000000
00100000
00000000
00000000
00010000
00000000
00001000
00000000
00000010
00000000
,
00002000
00000000
00023000
00000000
,
00230000
00000000
20300000
00000000
,
32000000
00000000
03200000
00000000
,
00310000
00000000
00000000
10000000
00000000
00000000
01000000
00100000
01000000
00200000
00000000
00000000
,
00000000
00302000
00000000
00023000
,
00000000
00030020
00000000
00002030
,
00000000
00000000
00000000
00003200
00000000
00000000
00000000
00000000
00000300
00000010
00000000
00000010
,
00000001
00000000
00000001
00000100
00000010
00000100
00000020
00000000
00000000
00000000
00000000
00000000
,
00000030
00000000
00000000
00000000
;

//---------------dance-double - Minxyz----------------
#NOTES:
     dance-double:
     Minxyz:
     Hard:
     16:
     0.544305,0.675851,0.216914,0.386672,0.919525,404.000000,381.000000,23.000000,41.000000,0.000000,0.000000,0.544305,0.675851,0.216914,0.386672,0.919525,404.000000,381.000000,23.000000,41.000000,0.000000,0.000000:
00000000
00000000
00000000
00000000
,
00000000
00000000
00000000
00000000
,
00000000
00000000
00000000
00000000
,
00000000
00000000
00000000
00000000
,
20000000
30200000
00302000
00003020
,
00010030
00000000
00022000
00000000
00000000
00033000
00000000
00100000
00001000
00000000
00010000
00000000
,
00002000
00000000
00000000
00003010
00000000
00000001
00000100
00000000
00000001
00000000
00000010
00000000
,
00002000
00000000
00000000
00103000
00000000
00010000
01000000
00000000
00100000
00000000
00010000
00000000
,
00002000
00000000
00000000
00013000
00000000
00001000
01000000
00000000
00100000
00000000
10000000
00000000
,
00010000
00100000
01000000
10000000
00100000
01000000
00020000
00000000
00000000
00030000
00000000
00000000
,
00002000
00000000
00000000
00003100
00000000
00000010
00001000
00000000
00000010
00000000
00001000
00000000
,
00020000
00000000
00000000
00130000
00000000
10000000
00010000
00000000
10000000
00000000
01000000
00000000
,
00200000
00000000
00000000
00301000
00000000
00001000
00010000
00000000
00000010
00000000
00000100
00000000
,
00000001
00001000
00000100
00000010
00000001
00000100
00000020
00000000
00000000
00000000
00000000
00000000
,
00020030
00000000
00000000
00031000
00000000
00100000
01000000
00000000
01000000
00000000
00010000
00000000
,
00002000
00000000
00000000
00013000
00000000
00000010
00000100
00000000
00000100
00000000
00001000
00000000
,
00020000
00000000
00000000
00031000
00000000
00000000
00000010
00000000
00000001
00000000
00000100
00000000
,
00001000
00000000
00010000
00000000
00100000
00000000
10010000
00000000
00000000
00000000
01000000
00000000
,
00002000
00000000
00000000
00013000
00000000
00000000
00001000
00000000
00000100
00000000
00000001
00000000
,
00000010
00000000
00000000
00000001
00000000
00000000
00000100
00000000
00001000
00000000
00010000
00000000
,
00011000
00000000
00000000
01000000
00000000
00000000
00000100
00000000
00010000
00000000
00001000
00000000
,
00100000
00000000
00000010
00000000
00010000
00000000
00022000
00000000
00000000
00000000
00033000
00000000
,
00000010
00000001
00000100
00000010
00001000
00000000
00000100
00000000
00011000
00000000
00000000
00000000
,
00100000
00010000
10000000
01000000
00100000
00000000
00010000
00000000
00101000
00000000
00000000
00000000
,
00010000
00001000
00010000
01000000
10000000
00000000
00100000
00000000
00010000
00000000
00000000
00000000
,
00001000
00000000
00000100
00000001
00000010
00001000
00010000
00000000
00011000
00000000
00000000
00000000
,
00010000
00001000
00000000
00000100
00000000
00000000
00001000
00010000
00000000
00100000
00000000
00000000
,
00010000
00000010
00000000
00001000
00000000
00000000
00000100
00010000
00000000
00011000
00000000
00000000
,
00000010
00010000
00000000
00001000
00000000
00000000
00000100
00001000
00000000
00010000
00000000
00000000
,
00100000
10000000
00000000
01000000
00000000
00000000
00010000
00001000
00000000
00011000
00000000
00000000
,
00000020
00000000
00000030
00001000
00000000
00000100
00000100
00000000
00000010
00000000
00001000
00000000
,
00200000
00000000
00000000
00310000
00000000
01000000
01000000
00000000
00100000
00000000
10000000
00000000
,
02000000
00000000
00000000
03010000
00000000
00001000
00010000
00000000
00000100
00000000
00000001
00000000
,
00000200
00000000
00000000
00020300
00000000
00000000
02030000
00000000
23000000
00000000
30200000
00000000
,
00320000
00000000
00000000
00031000
00000000
00000000
00010000
00000000
00010000
00001000
00000000
00000000
,
00002000
00000000
00000000
00013000
00000000
00000000
00001000
00000000
00001000
00000100
00000000
00000100
,
00000010
00001000
00000010
00010000
00000000
00001000
01000000
00000000
00100000
10000000
01000000
00100000
,
00010000
00100000
00001000
00010000
00000000
00001000
00010000
00000000
00010000
00001000
00000000
00001000
,
00011000
00000000
00001010
00010010
,
00011000
00000000
00110000
00011000
,
00010000
00000000
00010000
01000000
00000000
01000000
10000000
00000000
00000000
01000000
00000000
00100000
,
00000000
00000000
00000000
00000000
00001000
00000000
00010000
00000000
00001000
00000000
00010000
00000000
00000000
00000000
00000100
00000000
00001000
00000000
00000000
00000000
00000000
00000000
00000010
00001000
,
00000000
00000000
00000000
00000000
00001000
00000000
00000010
00000000
00000000
00000000
00001000
00000000
00000000
00000000
00000100
00000000
00010000
00000000
00000000
00000000
00000000
00000000
00010000
00001000
,
00000000
00000000
00010000
00001000
00000000
00100000
00010000
00000000
01100000
00000000
00000000
00100000
,
00000000
00000000
00001000
00010000
00000000
00001000
00010000
00000010
00001000
00000000
00000000
00000000
,
00000000
00000100
00010000
01000000
00000000
20000000
00000000
00000000
00000000
00000000
30000000
00000000
,
20000000
00000000
00000000
31000000
00000000
00010000
00001000
00000000
00000100
00000000
00000001
00000000
,
00000020
00000000
00000000
00000031
00000000
00000001
00001000
00000000
00000010
00000000
00000100
00000000
,
00000002
00000000
00000000
00000013
00000000
00000000
00000100
00000000
00010100
00000000
00010000
00001000
,
00100000
00000000
00001000
00000000
00001000
00000000
01000000
00000000
00010000
00000000
00100000
00000000
,
20000000
00000000
00000000
30100000
00000000
01000000
00010000
00000000
00001000
00000000
00000010
00000000
,
00000002
00000000
00000000
00000013
00000000
00000100
00001000
00000000
00000010
00000000
00010000
00000000
,
00002000
00000000
00000000
00000000
00000000
00003000
00010000
00000000
00000000
00000000
00000000
00000000
00001000
00000000
00000000
00000000
00101000
00000000
00000000
00000000
00100000
00000000
00010000
00000000
,
01000000
00000000
00100000
00000000
00010000
00000000
00001000
00000000
00000100
00000000
00010000
00000000
,
00100000
00010000
00000000
00001000
00000000
00000100
00000001
00000000
00001000
00000000
00000001
00000000
,
00000010
00001000
00000000
00010000
00000000
01000000
10000000
00000000
00010000
00000000
10000000
00000000
,
01000000
00010000
00000000
00001000
00000000
00100000
00010000
00000000
01000000
00000000
00001000
00000000
,
00010000
00001000
00000000
00000010
00000000
00000001
00000100
00000000
00000010
00000000
00000100
00000000
,
00001000
00000000
00000000
00010000
00000000
00000000
00100000
00000000
10000000
00000000
01000000
00000000
,
00010000
00000000
00000000
00001000
00000000
00000000
00000010
00000000
00000001
00000000
00000010
00000000
,
00000200
00000000
00000000
00000000
00000000
00000000
00010300
00000000
00011000
00000000
00000000
00000000
,
02000000
00000000
00000000
00000000
00000000
00000000
03010000
00000000
00011000
00000000
00000000
00000000
,
00200000
00000000
00000000
00000000
00000000
00000000
00300010
00000000
00011000
00000000
00000000
00000000
,
00010000
00100000
00000000
10100000
00000000
10000000
01000000
00100000
00001000
00010000
00000000
00001000
,
00000100
00000001
00000100
00001000
00000000
00011000
00000000
00000000
00000000
00001000
00000000
00000010
,
00000001
00000100
00001000
00010000
00000000
00100000
00000000
00000000
00000000
10000000
00000000
01000000
,
00100000
00001000
00010000
00000100
00001000
00000010
00000000
00000000
00000000
00000100
00000001
00000000
,
00001000
00000000
00000010
00010000
00001000
01000000
00020000
00000000
00000000
00000000
00000000
00000000
,
00000000
00030000
00000000
00000000
;
