#TITLE:Amazing Mirage;
#SUBTITLE:;
#ARTIST:lapix;
#TITLETRANSLIT:;
#SUBTITLETRANSLIT:;
#ARTISTTRANSLIT:;
#GENRE:;
#CREDIT:;
#MUSIC:Amazing Mirage.ogg;
#BANNER:Amazing Mirage.png;
#BACKGROUND:Amazing Mirage-bg.png;
#CDTITLE:;
#SAMPLESTART:87.061;
#SAMPLELENGTH:13.333;
#SELECTABLE:YES;
#OFFSET:1.566;
#BPMS:0.000=153.000
,52.000=306.000
,58.000=153.000
,66.000=76.500
,67.000=153.000
,82.000=76.500
,82.250=153.000
,82.500=306.000
,83.000=153.000
,112.000=76.500
,112.250=153.000
,112.500=306.000
,113.000=153.000
,118.500=306.000
,120.250=153.000
,197.000=76.500
,199.000=153.000
,203.000=76.500
,205.000=153.000
,217.000=306.000
,219.000=153.000
,249.000=306.000
,251.000=153.000
;
#STOPS:52.000=0.147
,52.750=0.147
,53.500=0.147
,54.250=0.147
,55.000=0.147
,55.750=0.147
,56.500=0.147
,57.250=0.147
,91.500=0.392
,92.500=0.392
,118.500=0.049
,118.750=0.098
,119.250=0.098
,119.750=0.098
,217.000=0.392
,249.000=0.196
,250.000=0.196
;
#DISPLAYBPM:153.000;
#BGCHANGES:;
#FGCHANGES:;

//--------------- dance-single - OrangeRight ----------------
#NOTES:
     dance-single:
     OrangeRight:
     Beginner:
     5:
     0,0,0,0,0:
0000
0000
0000
0000
,
0000
0000
0000
0000
,
0000
0000
0000
0000
,
0000
0000
0000
0000
,
0000
0000
0000
0000
,
1000
0000
0000
0000
,
0001
0000
0000
0000
,
1000
0000
0000
0000
,
1001
0000
0000
0000
,
0001
0000
0000
0000
,
0100
0000
0000
0000
,
0001
0000
0000
0000
,
1000
0000
0000
0000
,
2002
0000
0000
0000
,
0000
0000
3003
0000
,
1000
0000
0000
0000
,
0001
0000
0000
1000
,
0000
0100
0000
1000
,
0000
0001
0000
0100
,
0000
0010
0000
1000
,
1000
1000
0000
0001
,
0000
0010
0000
0001
,
0000
1000
0000
1001
,
0000
0000
0000
1000
,
0000
0001
0000
0100
,
0000
0001
0000
1000
,
0000
0100
0000
0010
,
0000
0001
0001
0001
,
0000
1000
0000
0010
,
0000
1000
0002
0000
,
0003
1000
0000
0000
,
0000
1000
0000
0001
,
0000
1000
0000
0100
,
0000
0010
0000
0100
,
0000
1000
0000
0001
,
0000
0100
0000
0010
,
0000
1000
0000
0001
,
0000
1000
0000
0001
,
0000
1000
0001
1000
,
0001
0200
0000
0300
,
0000
0001
0000
0000
,
0000
1000
0000
0000
,
0000
0001
0000
0000
,
0000
1000
0000
0000
,
0000
0001
0000
0000
,
0000
0010
0000
0000
,
0000
0100
0000
1000
,
0000
0001
0000
0100
,
0000
0001
0000
0001
,
0000
2000
3000
1000
,
0000
1000
0000
0002
,
0003
0001
0000
0100
,
0000
0010
0000
1000
,
0000
0001
1000
0001
,
1000
0200
0000
0300
,
0000
1000
1000
1000
,
0000
0001
0001
0001
,
0000
0100
0000
0010
,
0000
0010
0000
0100
,
0000
0001
0001
0001
,
0000
1000
1000
1000
,
0000
0100
0000
0010
,
0000
0100
0100
0100
,
0000
1000
1000
0001
,
0000
0001
0001
1000
,
0000
0100
0000
0010
,
0000
0001
0001
0001
,
0000
1000
1000
0001
,
0000
0001
0001
1000
,
0000
1000
0001
1000
,
0000
0001
1000
0001
,
0000
1001
0000
0000
;

//--------------- dance-single - OrangeRight ----------------
#NOTES:
     dance-single:
     OrangeRight:
     Easy:
     7:
     0,0,0,0,0:
0000
0000
0000
0000
,
0000
0000
0000
0000
,
0000
0000
0000
0000
,
0000
0000
0000
0000
,
0000
0000
0000
0000
,
1000
0000
1000
1000
,
0001
0000
0001
0001
,
1000
0000
0001
1000
,
2002
0000
3003
0000
,
2000
0001
0000
3001
,
0002
0100
0000
0103
,
0200
0010
0000
0310
,
0010
1000
0002
0003
,
1000
0000
0000
1000
0000
0000
0001
0000
,
0000
0001
0000
0000
1000
0000
0001
0000
,
2002
0000
0000
0000
,
3003
0000
0000
0000
0002
0003
1000
0000
,
1000
0010
0100
0001
,
1000
0100
0010
0001
,
0001
1000
0010
0100
,
0100
0000
0010
0000
0200
0300
0001
0000
,
0001
1000
0010
1000
,
0001
0000
0010
0000
0100
0000
2000
3000
,
0002
0003
0200
0000
0320
0000
2030
0000
,
3000
0001
0010
0100
,
1000
0010
0100
0001
,
0001
1000
0100
0010
,
0001
1000
0001
1000
,
0002
0003
1000
0000
0100
0000
0010
0000
,
0001
1000
0002
0000
,
0003
2002
0000
3003
,
0000
1000
0001
0100
,
0010
1000
0001
1000
,
0100
0010
0001
0100
,
0010
1000
0001
1000
,
0010
0100
0100
0001
,
1000
0001
0001
1000
,
1000
0100
0010
0001
,
1000
0010
0100
0010
,
0100
0220
0330
0100
,
0001
1000
0000
1000
,
0100
0010
0000
0010
,
0001
1000
0000
1000
,
0010
0100
0000
0100
,
0001
1000
0100
0010
,
0001
1000
0010
0100
,
0001
2000
3001
0002
,
1003
1001
1001
0001
,
1000
0001
0010
0001
,
0010
0200
1000
1300
,
0010
1000
0010
0200
,
0001
0301
0010
0100
,
1000
0001
0100
0010
,
1000
0001
0001
1000
,
1000
2002
0000
3003
,
0000
1000
1000
0100
,
0010
0001
0001
0100
,
0010
0000
1000
0000
1000
0000
0001
0001
,
0001
0000
0100
0000
0100
0000
0010
0010
,
0010
1000
1000
0001
,
0010
0001
0001
1000
,
0010
0000
1000
0000
1000
0000
0001
1000
,
0001
1001
1001
0001
,
1000
0001
0001
0010
,
0100
1000
1000
0010
,
0100
0000
0001
0000
0001
0000
1000
0001
,
1000
0000
0010
0000
0010
0000
0100
0010
,
0100
0001
0010
0100
,
1000
1000
0010
0100
,
0001
0000
1000
0000
0100
0000
1000
0100
,
1000
0000
0001
0000
0100
0000
0001
0100
,
0001
1001
0000
0000
;

//--------------- dance-single - OrangeRight ----------------
#NOTES:
     dance-single:
     OrangeRight:
     Medium:
     11:
     0,0,0,0,0:
0000
0000
0000
0000
,
0000
0000
0000
0000
,
0000
0000
0000
0000
,
0000
0000
0000
0000
,
0000
0000
0000
0000
,
1000
0000
0000
1000
0000
0000
1000
0000
,
0001
0000
0000
0001
0000
0000
0001
0000
,
0100
0000
0000
0100
0000
0000
0100
0000
,
0020
0000
1030
0001
,
1000
0000
0100
0000
1000
0001
0100
0000
,
0001
0000
0100
0000
0001
1000
0100
0000
,
1000
0000
0010
0000
0100
0001
1000
0000
,
0002
2003
0002
3003
,
1000
0000
0000
0100
0000
0000
0010
0000
0000
0001
0000
0000
1000
0000
0000
0010
,
0000
0000
0100
0000
0000
0001
0000
0000
0010
0000
0100
0000
1000
0000
0001
0000
,
2000
0000
3020
0032
,
0023
0000
0000
2030
0000
0000
3200
0000
0020
0000
0330
0000
0010
0000
0001
0000
,
1000
0010
2000
0000
3001
0000
1000
0100
,
0010
0001
0200
0000
0310
0100
0002
0000
,
1003
0001
0100
0010
1000
0000
0002
0000
,
2003
0000
3001
1000
0002
0000
2003
0000
,
3010
0100
0001
1000
0100
0000
0010
0001
,
1000
0000
0000
0000
0001
0000
0000
0000
0200
0000
0000
0000
0000
0000
0000
0000
0320
0000
0000
0000
0000
0000
0000
0000
1030
0000
0000
0000
2000
3000
0000
0000
,
0001
0000
0000
0000
0002
0003
0000
0000
0200
0000
0000
0000
0000
0000
0000
0000
0320
0000
0000
0000
0000
0000
0000
0000
0200
0000
0000
0000
0000
0000
0000
0000
,
0330
0000
0010
1000
0001
1000
0100
1000
,
0001
0000
0010
0001
1000
0001
0100
0001
,
1000
0000
0001
0100
0010
0100
0001
0000
,
1000
0000
0100
0010
0100
0010
0001
1000
,
0002
0000
1003
0010
1000
0001
1000
0100
,
1000
0000
0001
0010
0001
2000
0000
0000
,
0000
3000
0002
0000
0103
0000
0200
0000
,
0310
0020
1030
0001
,
1001
0000
2000
0000
3200
0000
0310
0100
,
1000
0000
0001
0100
0001
0000
1000
0100
,
1000
0000
0002
0000
0023
0000
0130
0010
,
0001
0000
1000
0010
0100
0001
1000
0001
,
0010
0000
0002
0000
0013
0001
2000
0000
,
3010
1000
0001
0010
0001
0010
0100
1000
,
0100
1000
0002
0000
0203
0000
0320
0000
,
2030
0000
0000
0002
0000
0000
3003
0000
0000
0001
1000
0001
,
1000
0000
1000
0000
0000
1000
0000
1000
,
0001
0000
0001
0000
0000
0001
0000
0001
,
0010
0000
0010
0000
0000
0010
0000
0010
,
0100
0000
0100
0000
0000
0100
0000
1000
,
0001
0000
2000
0000
3100
1000
0200
0000
,
0010
0000
0320
0000
0031
0100
0002
0000
,
1000
2003
3010
0020
,
0130
0110
0110
2002
,
3003
0000
1000
0100
1000
0100
0010
0001
,
0010
0001
0200
0000
0320
0000
1030
0001
,
1000
0001
0010
0100
0010
0100
2000
3020
,
0230
0302
2003
0000
3200
0000
0320
0000
,
0032
2003
3020
0230
,
0302
0023
0230
2300
,
0000
3002
0000
0003
,
0000
0000
1000
0100
1000
0000
0001
0100
,
0001
0000
1000
0100
1000
0001
0100
0010
,
1000
0000
0000
0000
0001
0000
0010
0000
0001
0000
0000
1000
0000
0000
0001
0000
,
0100
0000
0000
0000
0010
0000
1000
0000
0010
0000
0000
1000
0000
0000
0100
0000
,
0010
0000
0001
0100
0001
0000
1000
0100
,
1000
0000
0001
0100
0001
1000
0100
0010
,
0001
0000
0000
0000
1000
0000
0010
0000
1000
0000
0000
0001
0000
0000
1000
0000
,
0100
1100
0011
2002
,
3003
0000
1000
0100
0001
0000
0001
0100
,
1000
0000
1000
0001
0100
0010
1000
0001
,
1000
0000
0000
0000
0001
0000
0100
0000
0010
0000
0000
1000
0000
0000
0001
0000
,
0010
0000
0000
0000
0100
0000
1000
0000
0010
0000
0000
0100
0000
0000
0001
0000
,
1000
0000
0001
0010
1000
0000
1000
0010
,
0001
0000
1000
0010
0100
0001
1000
0100
,
0010
0000
0001
0000
1000
0000
0010
0000
1000
0000
0000
0001
0000
0001
1000
0000
,
0001
0000
0000
0000
0001
0000
0010
0000
0001
0000
0000
1000
0000
1000
0001
0000
,
1000
1001
0000
0000
;

//--------------- dance-single - OrangeRight ----------------
#NOTES:
     dance-single:
     OrangeRight:
     Hard:
     14:
     0,0,0,0,0:
0000
0000
0000
0000
,
0000
0000
0000
0000
,
0000
0000
0000
0000
,
0000
0000
0000
0000
,
0000
0000
0000
0000
,
1000
0000
0000
0000
0000
0000
1000
0000
0000
1000
0000
1000
0001
0000
0100
0000
,
0001
0000
0000
0000
0000
0000
0001
0000
0000
0001
0000
0001
1000
0000
0100
0000
,
1000
0000
0000
0000
0000
0000
1000
0000
0000
1000
0000
1000
0010
0000
0100
0000
,
0001
0000
0000
0000
0000
0000
0010
0000
0000
0100
0000
1000
0001
0000
1000
0000
,
2001
0000
0000
0000
3100
0000
0000
0100
0000
1000
0010
0000
0100
0000
0001
0000
,
1002
0000
0000
0000
0103
0000
0000
0100
0000
0001
0010
0000
0100
0000
1000
0000
,
2001
0000
0000
0000
3100
0000
0000
1000
0000
0010
0100
0000
0001
0000
0010
0000
,
0021
0230
2300
3002
,
1003
0000
0000
1100
0000
0000
0001
0000
0000
0101
0000
0000
1000
0000
0000
1010
,
0000
0000
0001
0000
0000
0011
0000
0000
2000
0000
3020
0000
0230
0000
0302
0000
,
2003
0000
3002
0203
,
0320
0000
0000
2030
0000
0000
3002
0000
2000
0000
3003
0000
1000
0000
0100
0000
,
0010
0000
0001
0000
0100
0001
0000
0000
0001
0000
1000
0000
0100
0000
0010
0000
,
0001
0000
1000
0000
0010
0100
0000
0000
0100
0000
0100
0000
0002
0000
1000
0000
,
1003
0001
1000
1000
0100
1000
0010
0100
,
0001
1000
0100
0010
0022
0033
0001
0010
,
0001
0000
1000
0000
0001
0100
0000
0000
0100
0000
0010
0000
1000
0000
0001
0000
,
1000
0000
0010
0000
0000
0000
0000
0000
0010
0000
0100
0000
0000
0000
0000
0000
0100
0000
0000
0000
0001
0000
0000
0000
1000
0000
0000
0000
2200
3300
0000
0000
,
0001
0000
0000
0000
0202
0303
0000
0000
0001
0000
1000
0000
0000
0000
1000
0000
0001
0000
0000
0000
0010
0000
0000
0000
0100
0000
0000
0000
1000
0000
0000
0000
,
0002
0000
0000
0000
1003
0000
0001
0000
0010
0000
0001
1000
0000
1000
0000
1000
,
0010
0000
0100
0000
0001
0000
1000
0000
0010
0000
1000
0100
0000
0100
0000
0100
,
0010
0000
0001
0000
1000
0000
0001
0000
0100
0000
0010
1000
0000
1000
0000
1000
,
0001
0000
0010
0000
0011
0000
0000
0000
1100
0000
0000
0000
1000
0001
1000
0001
,
2000
0000
3001
1000
0010
1000
0001
1000
,
0100
0000
0010
0000
0001
0000
1000
0000
0001
0000
0100
0010
0000
0100
0000
0010
,
0000
1000
0000
0000
2001
0000
0000
0000
0010
0000
0000
0000
3002
0000
0000
0000
,
0010
0000
2003
0000
3002
0000
1003
0001
,
1001
0000
0000
0000
0201
0000
0000
0000
0310
1000
0000
1000
0100
0000
0010
0000
,
0001
0000
0001
0000
1000
0000
0010
0000
0100
0000
0001
0000
1000
0001
1000
0000
,
0001
0000
0010
0000
0012
0000
0000
0000
1003
0010
0000
0010
0100
0000
0001
0000
,
1000
0000
1000
0000
0001
0000
0010
0000
1000
0000
0010
0000
0001
1000
0001
0000
,
1000
0001
1000
0000
0010
0000
1000
0000
2010
0000
0000
0000
3001
0000
0100
0000
,
0001
0001
1000
1000
0100
0100
0010
0010
,
0001
0000
0001
0000
1000
0010
1000
0000
0001
0010
0001
0000
1000
0001
1000
0001
,
1000
0000
0000
0002
0000
0000
0000
0000
0000
0103
0010
1000
,
0001
0000
0000
0000
1000
0000
0000
0000
0000
0000
1000
0000
0000
1000
0000
1000
,
0010
0000
0100
0000
0001
0000
0000
0000
0000
0000
0001
0000
0000
0001
0000
0001
,
0010
0000
0100
0000
0010
0000
0000
0000
0000
0000
0010
0000
0000
0010
0000
0010
,
0001
0000
1000
0000
0010
0000
0000
0000
0000
0000
0010
0000
0000
0010
0000
0010
,
1000
0001
2000
0000
3100
0001
0200
0000
,
2300
0000
3020
0000
0130
1000
0200
0000
,
0301
0010
0011
0000
0001
0100
0101
0000
,
1000
0000
0100
0000
1100
0000
0000
0000
0011
0000
0000
0000
1001
0000
0000
0110
,
0000
1001
1000
0001
1000
0001
0100
0010
,
0100
0010
2000
3002
0023
0230
1300
0010
,
1000
0000
0000
0000
0010
0000
0000
0000
0100
0000
0000
0000
0001
0000
0000
0000
0100
0000
0000
0000
0001
0000
0000
0000
2000
0000
0000
3200
0000
0000
0320
0000
,
0032
2003
3002
0000
2003
0000
0000
0000
3200
0000
0000
0000
0302
0000
0000
0000
,
0203
2300
3020
0032
,
0023
0000
1030
0100
0010
0001
0100
1000
,
0100
0001
2000
0000
0000
0000
3002
0000
,
0000
0000
0000
0000
1003
0100
1000
0000
0001
0000
0100
0000
0001
0100
0001
0000
,
1000
0000
0100
0000
0010
0001
0010
0000
0001
0000
0100
0000
1000
0000
0100
0000
,
0010
0000
0100
0000
0001
0000
0010
0000
0100
0000
1000
0010
0000
0010
1000
0000
,
0001
0000
0000
0000
1000
0000
0100
0000
0010
0000
0001
1000
0000
1000
0001
0000
,
0100
0000
0000
0000
0001
0100
0001
0000
1000
0000
0100
0000
1000
0100
1000
0000
,
0001
0000
0100
0000
0010
1000
0010
0000
1000
0000
0100
0000
0001
0000
0100
0000
,
0010
0000
0100
0000
1000
0000
0010
0000
0100
0000
0001
0010
0000
0010
0001
0000
,
1000
0000
0000
0000
1001
0000
0000
0000
1100
0000
0000
0000
0100
1000
0100
1000
,
0001
0000
0000
0000
1000
0010
1000
0000
0001
0000
0010
0000
0001
0100
0001
0000
,
1000
0000
0100
0000
1000
0001
1000
0000
0010
0000
1000
0000
0100
0000
0010
0000
,
0001
0000
1000
0000
0010
0000
0100
0000
0001
0000
0010
0100
0000
0100
1000
0000
,
0001
0000
0000
0000
0100
0000
0010
0000
1000
0000
0100
0010
0000
0010
0001
0000
,
1000
0000
0000
0000
0010
1000
0010
0000
0100
0000
0001
0000
0010
0001
0010
0000
,
0100
0000
1000
0000
0010
0100
0001
0000
1000
0000
0001
0000
0010
0100
1000
0000
,
0001
0000
1000
0000
0010
0000
0100
0000
0001
0000
0010
0100
0000
0100
1000
0000
,
0010
0000
0100
0000
0001
0000
1000
0000
0100
0000
0010
0001
0000
0001
0100
0000
,
0010
1000
1001
0000
0000
0000
0000
0000
;

//--------------- dance-single - OrangeRight ----------------
#NOTES:
     dance-single:
     OrangeRight:
     Challenge:
     17:
     0,0,0,0,0:
0000
0000
0000
0000
,
0000
0000
0000
0000
,
0000
0000
0000
0000
,
0000
0000
0000
0000
,
0000
0000
0000
0000
,
1000
0000
0000
0000
0000
0000
0001
0000
0000
0100
00M0
0100
1000
0000
1000
0000
,
0001
0000
0000
0000
0000
0000
1000
0000
0000
0100
00M0
0100
0001
0000
0001
0000
,
1000
0000
0000
0000
0000
0000
0001
0000
0000
0010
0M00
0010
1000
0000
1000
0000
,
0001
0000
0000
0000
0000
0000
1000
0000
0000
0001
0010
0100
1000
0000
0001
0000
,
1000
0000
0010
0000
0100
0000
0000
0001
0000
1000
0001
0000
0010
0000
0000
0000
,
0001
0000
0100
0000
0010
0000
0000
1000
0000
0001
0010
0001
1000
0000
0010
0000
,
0100
0000
0001
0000
1000
0000
0000
0100
0000
1000
0001
0000
0100
0000
0010
0000
,
2000
0000
0000
0000
3010
0100
0010
0100
0002
0000
0000
0000
0013
0100
1000
0000
,
1100
0000
0000
1010
0000
0000
0011
0000
0000
0101
0000
0000
1100
0000
0000
0101
,
0000
0000
0011
0000
0000
1010
0000
0000
2000
0000
3200
0000
0302
0000
0203
0000
,
2300
0010
3002
0010
,
2003
0000
0000
3020
0000
0000
0230
0000
0302
0000
1003
0000
1001
0000
0001
0100
,
0001
0000
0010
0000
0100
1000
0000
1000
0010
0000
0100
0000
0001
0000
1000
0000
,
0100
0000
0010
0000
0100
1000
0000
1000
0001
0000
0001
0000
2000
0000
0100
0000
,
3100
0000
0010
0000
0001
0100
0010
1000
0001
0000
0001
0000
2000
0000
0010
0000
,
3002
0000
0010
0000
1003
0000
0100
0000
2002
0000
3003
0000
0001
0000
1000
0100
,
1000
0000
0001
0000
1000
0010
0100
0001
1000
0000
1000
0000
0001
0000
0010
0000
,
0001
0000
0100
0000
0010
0000
1000
0000
0001
0000
1000
0000
0100
0000
0010
0000
0001
0000
0000
0000
1000
0000
0000
0000
1001
0000
0000
0000
2200
3300
0000
0000
,
1001
0000
0000
0000
0202
0303
0000
0000
0001
0000
0010
0000
0000
0000
0100
0000
1000
0000
0000
0000
0001
0000
0000
0000
0100
0000
0000
0000
0010
0000
0000
0000
,
0220
0000
0330
0000
0010
0000
1000
0100
0010
0000
0001
1000
0000
0010
0000
0100
,
0001
0000
0100
0000
0001
0000
0001
0000
1000
0000
0001
0100
0000
0010
0000
1000
,
0001
0000
0001
0000
1000
0010
1000
0010
0100
0001
0100
0001
1000
0100
0000
0010
,
0001
0000
1000
0000
1010
0000
0010
0000
0110
0000
0100
0000
0001
0010
0001
0010
,
0200
0000
1300
0100
0001
0100
0010
0100
,
1000
0000
0001
0000
1000
0000
0010
0000
0100
0000
0001
0010
0000
0011
0000
0110
,
0000
1100
0000
0000
2002
0000
0000
0000
0003
0000
0000
0000
3002
0000
0000
0000
,
1003
0000
0010
0000
1000
0000
0200
0000
0000
0000
0000
0000
0320
0000
0000
0000
0000
0000
0031
0000
0000
1000
0000
0000
,
1001
0000
0000
0000
0201
0000
0000
0000
0301
0010
0000
0010
0100
0000
1000
0000
,
0010
1000
0010
0000
1000
0100
0000
0100
0010
0001
1000
0000
0001
0100
0010
0000
,
1000
0100
1000
0000
1200
0000
0000
0000
1300
0010
0000
0010
0100
0000
0001
0000
,
0010
0001
0010
0000
0001
0100
0001
1000
0001
0010
0001
1000
0010
1000
0001
1000
,
0100
1000
0001
1000
0010
0000
1000
0000
0001
0010
0000
0100
1000
0000
0001
0000
,
0010
0010
0001
0001
1000
1000
0010
0010
,
0100
0000
0000
0000
0000
0000
0100
0000
0000
0000
0000
0000
0001
0000
0000
0010
0000
0000
0001
0000
0000
0010
0000
0000
0100
0000
0000
1000
0000
0000
0100
0000
0000
1000
0000
0000
0001
0000
0100
0000
0001
0000
1000
0000
0000
0100
0000
0000
,
0010
0000
0000
0001
0000
0000
1000
0000
0000
0010
0000
0000
0200
0000
0000
0000
0000
0000
0000
0000
0000
0000
0000
0000
0302
0000
0000
0000
0000
0000
0000
0000
0000
0000
0000
0000
1003
0000
0000
0000
0100
0000
0000
0000
0010
0000
0000
0000
,
0001
0000
0000
0000
0101
0000
0000
0000
0001
0000
1000
0000
0001
0100
00M0
0100
,
1000
0000
0100
0000
1100
0000
0000
0000
1000
0000
0001
0000
1000
0100
00M0
0100
,
0001
0000
0010
0000
0011
0000
0000
0000
0001
0000
1000
0000
0001
0010
0M00
0010
,
1000
0000
0010
0000
1010
0000
0000
0000
1000
0000
0001
0000
1000
0010
0M00
0010
,
0001
0000
0100
0000
0201
0000
0000
0000
0310
0000
1000
0000
0100
0010
0000
0010
,
0001
0000
1000
0000
1200
0000
0000
0000
0310
0000
0001
0000
1000
0010
0000
0100
,
0001
1000
2100
0000
3001
0100
0102
0000
,
1003
0000
0100
0000
1100
0000
0000
0000
0110
0000
0010
0000
0001
1000
0000
1000
,
0001
0000
1000
0000
0001
0010
0001
0010
0001
1000
0010
1000
0001
0010
0001
0010
,
0001
0000
1000
0000
0100
0000
1000
0000
0004
4000
0000
0000
0000
0000
3003
0000
2000
0000
0000
3200
0000
0000
0310
0000
0001
0000
0100
0000
0001
0000
0100
0000
,
0001
0000
1000
0000
0100
0000
1000
0000
0001
0000
0100
0000
0001
0000
0100
0000
0001
0000
1000
0000
0100
0000
1000
0000
0002
0000
0000
2003
0000
0000
3002
0000
,
2003
3200
0320
0032
2003
0000
0000
0000
3020
0000
0000
0000
0230
0000
0000
0000
,
0302
2003
3200
0320
,
0032
0000
1003
0010
0001
0010
1000
0100
,
0001
0000
0100
0000
2000
0000
0000
0000
0000
0000
0000
0000
3004
4000
0000
0000
,
0000
0000
3003
0000
0001
1000
0001
1000
0001
0010
0100
1000
0010
0100
0010
1000
,
0100
0010
0001
1000
0001
0100
0010
0100
0001
0010
0100
0010
0001
0100
0010
1000
,
0001
0010
0100
1000
0002
0000
0100
0000
2003
0000
3001
0100
00M0
0100
1000
0000
,
0001
0000
1000
0010
2000
0000
0100
0000
3002
0000
1003
0100
00M0
0100
0001
0000
,
1000
0000
0010
0000
1000
0001
1000
0001
1000
0010
0100
0001
0010
0100
0010
0001
,
0100
0010
1000
0001
1000
0100
0010
0100
1000
0010
0100
0010
1000
0100
0010
0001
,
1000
0010
0100
0001
2000
0000
0010
0000
3002
0000
1003
0010
0M00
0010
0001
0000
,
1000
0000
0001
0100
0001
0000
0000
0000
1010
0000
0000
0000
0010
1000
0100
0010
,
0001
1000
0010
0100
0001
0010
0001
0010
0100
1000
0010
0100
0001
1000
0001
0010
,
0100
1000
0001
0100
0010
0100
0001
1000
0100
0010
0100
1000
0001
0100
0010
1000
,
0001
1000
0010
0100
0001
0000
0010
0000
0011
0000
0001
0010
0M00
0010
1000
0000
,
1010
0000
1000
0001
1000
0000
0100
0000
1100
0000
1000
0100
00M0
0100
0001
0000
,
1000
0002
0000
0000
1003
0010
0100
0010
1000
0001
0010
0100
1000
0001
1000
0010
,
1000
0100
0010
0001
1000
0001
0100
0010
1000
0010
0100
0001
1000
0100
0010
0001
,
1000
0001
0010
0100
1000
0000
0010
0000
1010
0000
1000
0010
0M00
0010
0001
0000
,
0011
0000
0001
1000
0001
0000
0100
0000
0101
0000
0001
0100
00M0
0100
1000
0000
,
0010
0100
1001
0000
0000
0000
0000
0000
;
