#TITLE:All Nite Long;
#SUBTITLE:;
#ARTIST:Mo Falk;
#TITLETRANSLIT:;
#SUBTITLETRANSLIT:;
#ARTISTTRANSLIT:;
#GENRE:;
#CREDIT:;
#MUSIC:all nite long.ogg;
#BANNER:bn.png;
#BACKGROUND:bg.png;
#CDTITLE:cdtitle-sorae.png;
#SAMPLESTART:31.875;
#SAMPLELENGTH:15.000;
#SELECTABLE:YES;
#OFFSET:0.000;
#BPMS:0.000=128.000;
#STOPS:;
#BGCHANGES:;
#FGCHANGES:;

//--------------- dance-single - sorae ----------------
#NOTES:
     dance-single:
     sorae:
     Hard:
     13:
     0,0,0,0,0:
0000
0000
0000
0000
,
0000
0000
0000
0000
,
0000
0000
0000
0000
,
0000
0000
0000
0000
,
0000
0000
0000
0000
,
1000
0000
0100
1000
0001
1000
0010
0100
,
0001
0000
0000
0000
0001
0000
0000
0000
0001
0000
0000
0010
0000
0000
0001
0000
,
1000
0000
0010
1000
0001
1000
0100
0010
,
0001
1000
1000
0010
0100
0001
0000
0000
,
1000
0100
0010
0001
,
1000
0000
0000
0000
0010
0000
0000
0000
0100
0000
0000
0000
0001
0000
1000
0100
,
0010
0001
0010
0001
1000
0010
1000
0010
,
0100
0001
0100
0001
1000
0100
0000
0000
,
1000
1000
0010
0100
0001
0001
0010
0100
,
1000
1000
0010
0100
0001
0001
0010
0100
,
1000
0010
1000
0000
0001
0010
0001
0000
1000
0100
1000
0000
0001
0100
0001
0000
,
0000
0000
1000
0100
1000
0100
0010
0001
,
1001
0000
0000
0000
1000
0000
0000
0000
0001
0000
0100
0010
0100
0000
0001
0000
,
0010
1000
0010
0001
0100
1000
0100
0010
,
1010
0000
0000
0000
1000
0000
0000
0000
0001
0000
0010
0100
0010
0000
0001
0000
,
0100
0000
1000
0000
0100
0000
0010
0000
0100
0000
0001
0000
0010
0001
1000
0000
,
1001
0000
0000
0000
0001
0000
0000
0000
1000
0000
0010
0100
0010
0000
1000
0000
,
0100
0001
0100
1000
0010
0001
0010
0100
,
0101
0000
0000
0000
0001
0000
0000
0000
1000
0000
0010
0100
0010
0000
1000
0000
,
0100
0000
0001
0000
0100
0000
0010
0000
0100
0000
1000
0001
0100
0000
0001
0000
,
1001
0000
0000
0000
0001
0000
0000
0000
1000
0000
0100
0010
0100
0000
1000
0000
,
0010
0001
0010
1000
0100
0001
0100
0010
,
0011
0000
0000
0000
0001
0000
0000
0000
1000
0000
0010
0100
0010
0000
1000
0000
,
0100
0000
0001
0000
0100
0000
0010
0000
0100
0000
1000
0000
0010
1000
0001
0000
,
1001
0000
0000
0000
1000
0000
0000
0000
0001
0000
0010
0100
0010
0000
0001
0000
,
0100
1000
0100
0001
0010
1000
0010
0100
,
1100
0000
0000
0000
1000
0000
0000
0000
0001
0000
0010
0100
0010
0000
0001
0000
,
0100
1000
0100
0001
0010
0001
0100
0000
,
0001
0000
0000
0000
,
1000
0100
1000
0100
,
1000
0100
0010
0001
,
1000
0010
1000
0010
,
1000
0000
0001
0010
0100
1000
0100
0010
,
0001
0100
0001
0100
,
0001
0100
0010
1000
,
0001
0010
0001
0010
,
0001
0010
0100
0000
,
1000
0000
0010
1000
0001
1000
0100
0010
,
0001
0000
0000
0000
0001
0000
0000
0000
0001
0000
1000
0010
0000
0000
1000
0000
,
0001
0000
0010
0001
1000
0001
0100
0010
,
1000
0000
0000
0000
1000
0000
0000
0000
1000
0000
0001
0010
0000
0000
0001
0000
,
1000
0000
0010
1000
0001
1000
0100
0010
,
0001
0000
0000
0000
0001
0000
0000
0000
0001
0000
1000
0010
0000
0000
1000
0000
,
0001
0000
0010
0001
1000
0001
0100
0010
,
1000
0001
0001
0010
0100
1000
0000
0000
,
0001
0100
0010
1000
,
0001
0000
0000
0000
0010
0000
0000
0000
0100
0000
0000
0000
1000
0000
0001
0100
,
0010
1000
0010
1000
0001
0010
0001
0010
,
0100
1000
0100
1000
0001
0100
0000
0000
,
0001
0001
0010
0100
1000
1000
0010
0100
,
0001
0001
0010
0100
1000
1000
0010
0100
,
0001
0010
0001
0000
1000
0010
1000
0000
0001
0100
0001
0000
1000
0100
1000
0000
,
0000
0000
0001
0100
0001
0100
0010
1000
,
1001
0000
0000
0000
0001
0000
0000
0000
0010
0000
0100
1000
0001
0000
0100
0000
,
0010
0001
0010
1000
0100
0001
0100
1000
,
1001
0000
0000
0000
0001
0000
0000
0000
0100
0000
0010
1000
0001
0000
0010
0000
,
0100
0000
0001
0000
0100
0000
0010
0000
0100
0000
1000
0000
0010
0100
0001
0000
,
1001
0000
0000
0000
1000
0000
0000
0000
0010
0000
0100
0001
1000
0000
0100
0000
,
0010
1000
0010
0001
0100
1000
0100
0001
,
1001
0000
0000
0000
1000
0000
0000
0000
0100
0000
0010
0001
1000
0000
0010
0000
,
0100
0000
1000
0000
0100
0000
0010
0000
0100
0000
0001
1000
0100
0000
1000
0000
,
0001
0000
0000
0000
1001
0000
0000
0000
1000
0000
0010
1000
0001
0000
0010
0000
,
0100
0001
0100
1000
0010
0001
0010
1000
,
1001
0000
0000
0000
0001
0000
0000
0000
0010
0000
0100
1000
0001
0000
0100
0000
,
0010
0000
0001
0000
0010
0000
0100
0000
0010
0000
1000
0000
0100
0010
0001
0000
,
1001
0000
0000
0000
1000
0000
0000
0000
0100
0000
0010
0001
1000
0000
0010
0000
,
0100
1000
0100
0001
0010
1000
0010
0001
,
1001
0000
0000
0000
1000
0000
0000
0000
0010
0000
0100
0001
1000
0000
0100
0000
,
0010
1000
0010
0001
0100
0000
0000
0000
;

//--------------- dance-single - sorae ----------------
#NOTES:
     dance-single:
     sorae:
     Challenge:
     16:
     0,0,0,0,0:
0000
0000
0000
0000
,
0000
0000
0000
0000
,
0000
0000
0000
0000
,
0000
0000
0000
0000
,
0000
0000
0000
0000
,
1000
0000
0100
1000
0001
1000
0010
0100
,
0001
0000
0000
0000
0001
0000
0000
0000
0001
0000
1000
0100
0000
0010
0100
0000
,
1000
0000
0010
1000
0001
1000
0100
0010
,
0001
1000
1000
0010
0100
0001
0000
0000
,
1000
0100
1000
0100
0010
0001
0010
0001
,
1000
0000
0010
0000
1000
0000
0010
0000
0100
0000
0001
0000
0100
0000
0001
1000
,
0100
0010
0100
0010
0001
1000
0001
1000
,
0010
0100
0010
0100
0001
1000
0000
0000
,
0001
0010
0001
1000
0001
0010
0001
1000
0010
1000
0001
1000
0010
1000
0001
0010
,
0100
1000
0100
0010
0100
1000
0100
0010
0001
0100
0010
0100
0001
0100
0010
0100
,
0001
1000
0100
1000
0010
0100
0001
0010
0001
1000
0010
1000
0100
0010
0001
0100
,
0001
0000
1000
0100
1000
0100
0010
0001
,
1001
0000
0000
0000
1000
0000
0000
0000
0001
1000
0100
0100
0001
0010
0001
0010
,
0100
0000
0001
0100
0001
0100
0010
0000
0001
0000
1000
0100
0010
0001
1000
0000
,
1010
0000
0010
0000
1000
0000
0000
0000
0001
1000
0010
0010
0001
0100
0001
0100
,
0010
0000
0001
0000
0010
0000
1000
0000
0100
0000
0010
0000
0001
1000
0010
1000
,
1001
0000
0000
0000
0001
0000
0000
0000
1000
0001
0100
0100
1000
0010
1000
0010
,
0100
0000
1000
0100
1000
0100
0010
0000
1000
0000
0001
0100
0010
1000
0001
0000
,
0011
0000
0010
0000
0001
0000
0000
0000
1000
0001
0010
0010
1000
0100
1000
0100
,
0010
0000
1000
0000
0010
0000
0001
0000
0100
0000
0010
1000
0001
0000
0010
0001
,
1001
0000
0000
0000
1000
0000
0000
0000
0001
1000
0010
0010
0001
0100
0001
0100
,
0010
0000
0001
0010
0001
0010
0100
0000
0001
0000
1000
0010
0100
0001
1000
0000
,
1100
0000
0100
0000
1000
0000
0000
0000
0001
1000
0100
0100
0001
0010
0001
0010
,
0100
0000
0001
0000
0100
0000
1000
0000
0010
0000
0100
0000
0001
1000
0100
1000
,
1001
0000
0000
0000
0001
0000
0000
0000
1000
0001
0010
0010
1000
0100
1000
0100
,
0010
0000
1000
0010
1000
0010
0100
0000
1000
0000
0001
0010
0100
1000
0001
0000
,
0101
0000
0100
0000
0001
0000
0000
0000
1000
0001
0100
0100
1000
0010
1000
0010
,
0100
0000
1000
0000
0100
0000
0001
0000
0010
0000
0100
1000
0001
0000
0100
0000
,
0001
0000
0000
0000
,
1000
0100
0010
0000
1000
0010
0100
0000
,
1000
0000
0100
0000
0010
0000
0000
0000
0001
0000
0100
0010
0000
0100
0001
0000
,
1000
0100
0010
0000
1000
0010
0100
0000
,
1000
0000
0100
0000
0010
0000
0001
0000
0100
0000
0001
1000
0100
0000
1000
0000
,
0001
0100
0010
0000
0001
0010
0100
0000
,
0001
0000
0100
0000
0010
0000
0000
0000
1000
0000
0100
0010
0000
0100
1000
0000
,
0001
0100
0010
0000
0001
0010
0100
0000
,
0001
0000
0100
0000
0010
0000
1000
0000
0100
0000
1000
0001
0000
1000
0001
0100
,
0010
0000
0100
0001
1000
0001
0010
0100
,
1000
0000
0000
0000
1000
0000
0000
0000
1000
0000
0001
0100
0001
0100
0010
0000
,
1000
0000
0100
1000
0001
1000
0010
0100
,
0001
0000
0000
0000
0001
0000
0000
0000
0001
0000
1000
0100
1000
0100
0010
0001
,
0100
0000
0010
1000
0001
1000
0100
0010
,
0001
0000
0000
0000
0001
0000
0000
0000
0001
0000
1000
0010
1000
0010
0100
0000
,
0001
0000
0010
0001
1000
0001
0100
0010
,
1000
0001
0001
0010
0100
1000
0000
0000
,
0001
0100
0001
0100
0010
1000
0010
1000
,
0001
0000
0010
0000
0001
0000
0010
0000
0100
0000
1000
0000
0100
0000
1000
0001
,
0100
0010
0100
0010
1000
0001
1000
0001
,
0010
0100
0010
0100
1000
0001
0000
0000
,
1000
0010
1000
0001
1000
0010
1000
0001
0010
0001
1000
0001
0010
0001
1000
0010
,
0100
0001
0100
0010
0100
0001
0100
0010
1000
0100
0010
0100
1000
0100
0010
0100
,
1000
0001
0100
0001
0010
0100
1000
0010
1000
0001
0010
0001
0100
0010
1000
0100
,
1000
0000
0001
0100
0001
0100
0010
1000
,
1001
0000
0000
0000
1010
0000
0000
0000
0011
0000
0001
0010
0010
1000
0010
1000
,
0100
0000
0001
0100
0001
0100
0010
0000
0001
0000
1000
0100
0010
0001
0100
0000
,
1001
0000
0000
0000
1100
0000
0000
0000
0101
0000
0001
0100
0100
1000
0100
1000
,
0010
0000
0001
0000
0010
0000
1000
0000
0100
0000
0010
0000
0001
1000
0010
1000
,
1001
0000
0000
0000
0011
0000
0000
0000
1010
0000
1000
0010
0010
0001
0010
0001
,
0100
0000
1000
0100
1000
0100
0010
0000
1000
0000
0001
0100
0010
1000
0100
0000
,
1001
0000
0000
0000
0101
0000
0000
0000
1100
0000
1000
0100
0100
0001
0100
0001
,
0010
0000
1000
0000
0010
0000
0001
0000
0100
0000
0010
1000
0001
0000
0010
0001
,
1000
0000
0000
0000
1100
0000
0000
0000
0101
0000
0001
0100
0100
1000
0100
1000
,
0010
0000
0001
0010
0001
0010
0100
0000
0001
0000
1000
0010
0100
0001
0010
0000
,
1001
0000
0000
0000
1010
0000
0000
0000
0011
0000
0001
0010
0010
1000
0010
1000
,
0100
0000
0001
0000
0100
0000
1000
0000
0010
0000
0100
0000
0001
1000
0100
1000
,
1001
0000
0000
0000
0101
0000
0000
0000
1100
0000
1000
0100
0100
0001
0100
0001
,
0010
0000
1000
0010
1000
0010
0100
0000
1000
0000
0001
0010
0100
1000
0010
0000
,
1001
0000
0000
0000
0011
0000
0000
0000
1010
0000
1000
0010
0010
0001
0010
0001
,
0100
0000
1000
0000
0100
0000
0001
0000
0010
0100
0000
0000
0000
0000
0000
0000
;
