#TITLE:愛はToxic! feat.LilyMone;
#SUBTITLE:;
#ARTIST:Mitsuyo;
#TITLETRANSLIT:Ai Wa Toxic! feat.LilyMone;
#SUBTITLETRANSLIT:;
#ARTISTTRANSLIT:;
#GENRE:KAWAII ROCK;
#CREDIT:;
#BANNER:Ai Wa Toxic.png;
#BACKGROUND:Ai Wa Toxic-bg.png;
#LYRICSPATH:;
#CDTITLE:;
#MUSIC:Ai Wa Toxic.ogg;
#OFFSET:0.000000;
#SAMPLESTART:53.300999;
#SAMPLELENGTH:12.000000;
#SELECTABLE:YES;
#BPMS:0.000000=180.000000
;
#STOPS:12.000000=1.000000
;
#BGCHANGES:0.000=Ai Wa Toxic.mp4=1.000=0=0=1=====,
99999=-nosongbg-=1.000=0=0=0 // don't automatically add -songbackground-
;
#KEYSOUNDS:;
#ATTACKS:;

//---------------dance-single - ----------------
#NOTES:
     dance-single:
     :
     Beginner:
     6:
     0.276080,0.308815,0.078880,0.126208,0.000000,245.000000,235.000000,10.000000,16.000000,0.000000,0.000000,0.276080,0.308815,0.078880,0.126208,0.000000,245.000000,235.000000,10.000000,16.000000,0.000000,0.000000:
0000
0000
0000
0000
,
0000
0000
0000
0000
,
0000
0000
0000
0000
,
1001
1000
0100
1000
,
0000
0001
0000
0000
1000
0000
1000
0000
,
0000
0001
0100
0001
,
0000
1000
0000
0000
0001
0000
0001
0000
,
0000
1000
0010
1000
,
0000
0001
0000
0000
1000
0000
1000
0000
,
0000
0001
0010
0001
,
0000
1000
0000
0000
0001
0000
0001
0000
,
0000
1000
0100
0000
,
0100
0010
0001
0000
,
0001
0100
0010
0100
,
0100
0010
1000
0001
,
0000
0001
0010
0000
,
0010
0100
1000
0000
,
1000
0010
0010
0100
,
0100
0001
1000
0001
,
0000
2000
0000
0000
,
3000
0200
0000
0000
,
0300
0010
0010
0001
,
0001
2000
0000
0000
,
3000
0001
0000
0001
,
0000
0001
0100
0010
,
0000
1000
0000
1000
,
0000
1000
0100
0010
,
0000
0100
0000
0100
,
0000
0100
0010
0001
,
0000
0100
0100
0010
,
0010
1000
0000
0000
,
0000
0001
0001
1000
,
1000
0001
0000
0000
,
0000
1000
1000
0100
,
0100
1000
0000
0000
,
0000
0001
0001
0010
,
0010
0001
0000
0000
,
0000
1000
1000
0010
,
0010
0000
2002
0000
,
3003
1000
0100
0010
,
0001
1000
0010
0010
,
0000
1000
0010
0100
,
0001
0010
0100
0100
,
0000
0010
0000
0010
,
0000
0001
0100
0010
,
0000
1000
1000
0001
,
0000
0001
0001
1000
,
0000
0001
0100
0010
,
1000
0100
0100
0100
,
0000
1000
0010
0100
,
0001
0010
0010
0010
,
0000
0002
0003
2000
,
3000
0001
0100
0010
,
0000
1000
1000
0100
,
0000
0010
0010
0001
,
0000
2000
3000
2000
,
3000
1000
0001
0100
,
0100
0020
0030
0020
,
0030
1000
0001
1000
,
0000
0002
0003
0002
,
0003
0001
0010
0100
,
0100
0020
0030
0020
,
0030
0100
0100
0100
,
0000
0000
1001
0000
,
1001
0000
1000
0100
,
0010
0000
1001
0000
,
1001
0000
0001
0100
,
0010
0000
1001
0000
,
1001
0000
1000
0100
,
0010
0000
1001
0000
,
1001
0000
0000
0000
,
0000
0001
0100
0010
,
0000
0010
0000
0000
0000
0000
1000
0000
,
0001
1000
0100
0010
,
0000
0010
0000
0000
0000
0000
0001
0000
,
1000
0010
0010
0100
,
0100
0001
0001
1000
,
1000
0100
0010
0001
,
1000
0000
0000
0020
0000
0000
0000
0000
,
0030
0000
1000
0000
0000
1000
0000
0000
,
1000
0000
0000
1000
0000
0000
0100
0000
,
0000
0000
0010
0000
0000
0010
0000
0000
,
0010
0000
0000
0010
0000
0000
0001
0000
,
0000
0000
1000
0000
0000
0001
0000
0000
,
1000
0000
0000
0001
0000
0000
0100
0000
,
0000
0001
0100
0010
,
1000
0100
0010
0001
,
1000
0000
0000
0000
;

//---------------dance-single - ----------------
#NOTES:
     dance-single:
     :
     Easy:
     10:
     0.472153,0.547229,0.520607,0.496943,0.019720,419.000000,353.000000,66.000000,63.000000,0.000000,0.000000,0.472153,0.547229,0.520607,0.496943,0.019720,419.000000,353.000000,66.000000,63.000000,0.000000,0.000000:
// measure 0
0000
0000
0000
0000
,  // measure 1
0000
0000
0000
0000
,  // measure 2
0000
0000
0000
0000
,  // measure 3
1001
2000
3100
1000
,  // measure 4
0010
0200
0000
0000
0301
0000
1000
0001
,  // measure 5
1000
0002
0013
0001
,  // measure 6
0100
0020
0000
0000
1030
0000
0001
1000
,  // measure 7
0001
0200
0010
0310
,  // measure 8
1000
0002
0000
0000
0013
0000
0001
0100
,  // measure 9
0010
0020
0100
0130
,  // measure 10
0001
2000
0000
0000
3100
0000
1000
0100
,  // measure 11
0010
0000
0001
1000
0001
0200
0000
0000
,  // measure 12
0310
0000
1000
0001
1000
0200
0000
0000
,  // measure 13
0310
0000
0001
0100
0001
0000
1000
1000
,  // measure 14
1000
0000
1000
0100
1000
0000
0001
0001
,  // measure 15
0001
0000
1000
0100
1000
0002
0000
0000
,  // measure 16
0103
0000
0001
0100
0001
2000
0000
0000
,  // measure 17
3100
1000
0001
0100
,  // measure 18
0010
0020
0000
0000
0130
0000
0110
0000
,  // measure 19
1001
0002
0010
0010
,  // measure 20
0000
2003
0000
0000
0010
0000
0010
0000
,  // measure 21
3010
0000
1000
0100
1000
0000
0100
0000
,  // measure 22
0010
0000
0001
0100
0001
0000
2000
0000
,  // measure 23
0000
0000
3001
0000
0100
0010
0000
0010
,  // measure 24
0000
1000
0000
1000
0100
0000
0110
0000
,  // measure 25
0010
0000
0001
0001
0001
0000
1000
0000
,  // measure 26
0010
0110
0110
2002
,  // measure 27
3003
0000
1000
0000
0010
0100
0000
0100
,  // measure 28
0000
0001
0000
0001
0010
0000
0110
0000
,  // measure 29
0100
0000
1000
1000
1000
0000
0001
0000
,  // measure 30
0100
0000
0001
1000
0001
0000
0010
0000
,  // measure 31
0100
1100
1100
1100
,  // measure 32
1100
1100
0000
0000
,  // measure 33
0000
0101
0101
0101
,  // measure 34
0101
0101
0000
0000
,  // measure 35
0000
1010
1010
1010
,  // measure 36
1010
1010
0000
0000
,  // measure 37
0000
0011
0011
0011
,  // measure 38
0011
0000
2002
0000
,  // measure 39
3003
0000
1001
0000
1000
0020
0000
0230
,  // measure 40
0000
0301
0000
1000
0100
0010
0002
0000
,  // measure 41
1003
0000
1001
0000
0001
0200
0000
0320
,  // measure 42
0000
1030
0000
0001
0010
0100
2000
0000
,  // measure 43
3001
1001
0110
1001
,  // measure 44
0001
0020
0000
0130
1000
0200
0000
0000
,  // measure 45
1300
0000
0001
0100
0001
0000
1000
0010
,  // measure 46
1000
1010
0110
2002
,  // measure 47
3003
0000
1000
0001
1000
0020
0000
0130
,  // measure 48
0001
0200
0000
0310
1000
0000
2020
0000
,  // measure 49
3030
0000
0001
1000
0001
0020
0000
0130
,  // measure 50
1000
0200
0000
0310
0001
0000
0022
0000
,  // measure 51
0033
1000
1000
0001
,  // measure 52
0001
0000
1000
0010
0100
0002
0000
0000
,  // measure 53
1003
0000
0001
0100
0001
0000
1000
0100
,  // measure 54
1000
0010
0010
0100
,  // measure 55
0110
0000
2002
0000
3003
0001
0200
0000
,  // measure 56
0300
0010
0000
0010
0000
1000
0002
0000
,  // measure 57
0013
0000
2002
0000
3003
1000
0200
0000
,  // measure 58
0300
0010
0000
0010
0001
0000
1000
0000
,  // measure 59
0000
0000
2002
0000
3003
0001
0200
0000
,  // measure 60
0300
0010
0000
0010
0000
0010
0100
0000
,  // measure 61
0001
0000
2002
0000
3003
1000
0200
0000
,  // measure 62
0300
0010
0000
0010
0100
0000
0110
0000
,  // measure 63
0000
0000
1001
0000
,  // measure 64
1001
0000
1001
0110
,  // measure 65
1001
0000
1100
0000
,  // measure 66
1100
0000
1100
1001
,  // measure 67
1100
0000
0011
0000
,  // measure 68
0011
0000
0011
1001
,  // measure 69
0011
0000
0000
0000
1000
0002
0000
0203
,  // measure 70
0000
0310
0000
0000
0000
0000
0000
0000
,  // measure 71
0000
1002
0103
0010
,  // measure 72
1000
0200
0000
0000
0310
0000
0001
0000
,  // measure 73
1000
2001
3010
0100
,  // measure 74
0001
0020
0000
0000
0130
0000
1000
0000
,  // measure 75
0001
0000
1000
0100
1000
0000
0100
1000
,  // measure 76
0100
0000
0010
0001
0010
0000
0001
0010
,  // measure 77
0001
2000
3000
0001
,  // measure 78
0100
0100
0000
2002
0000
0000
0000
0000
,  // measure 79
3003
0000
1000
0100
0000
1000
0100
0000
,  // measure 80
1000
0100
0000
1000
0100
0000
0010
0000
,  // measure 81
0010
0000
0001
0100
0000
0001
0100
0000
,  // measure 82
0001
0100
0000
0001
0100
0000
0010
0000
,  // measure 83
0010
0000
1000
1000
0000
0001
0001
0000
,  // measure 84
0010
0010
0000
0100
0100
0000
1001
0000
,  // measure 85
1001
0000
0001
0001
0000
0100
0100
0000
,  // measure 86
0010
0010
0000
1000
1000
0000
1001
0000
,  // measure 87
1001
0000
0000
0000
0000
0000
0000
0000
0000
0000
0000
0000
0000
0000
0000
0000
0000
0000
0000
0000
0000
0000
0000
0000
0000
0000
0000
0000
0000
0000
0000
0000
0000
0000
0000
0000
0000
0000
0000
0000
0000
0000
0000
0000
0000
0000
0000
0000
0000
0000
0000
0001
0000
0000
0000
0000
0000
0000
0000
0000
0000
0000
0000
0000
,  // measure 88
0000
0000
0000
0000
0000
0000
0000
0000
0000
0000
0000
0000
0000
0000
0000
0100
0000
0000
0000
0000
0000
0000
0000
0000
0000
0000
0000
0000
0000
0000
0000
0000
,  // measure 89
0000
0000
0000
0000
0000
0000
0000
0000
0000
0000
0000
0000
0000
0000
0000
0000
0000
0000
0000
0000
0000
0000
0000
0000
0000
0000
0000
0000
0000
0000
0000
0000
0010
0000
0000
0000
0000
0000
0000
0000
0000
0000
0000
0000
0000
0000
0000
0000
0000
0000
0000
0000
0000
0000
0000
0000
0000
0000
0000
0000
0000
0000
0000
0000
0000
0000
0000
0000
0000
0000
0000
0000
0000
0000
0000
0000
0000
0000
0000
0000
0000
0000
0000
0000
0000
0000
0000
0000
0000
0000
0000
0000
0000
0000
0000
0000
0000
0000
0000
0000
0000
0000
0000
0000
0000
0000
0000
0000
0000
0000
0000
0000
0000
0000
0000
0000
0000
0000
0000
0000
0000
0000
0000
0000
0000
0000
0000
0000
0000
0000
0000
0000
0000
0000
0000
0000
0000
0000
0000
0000
0000
0000
0000
0000
0000
0000
0000
0000
0000
0000
0000
0000
0000
0000
0000
0000
0000
0000
0000
2000
0000
0000
0000
0000
0000
0000
0000
0000
0000
0000
0000
0000
0000
0000
0000
0000
0000
0000
0000
0000
0000
0000
0000
0000
0000
0000
0000
0000
0000
0000
0000
0000
,  // measure 90
0000
0000
0000
0000
0000
0000
0000
0000
0000
0000
0002
0000
,  // measure 91
0000
0000
0000
0000
,  // measure 92
0000
0000
3003
0000
;

//---------------dance-single - ----------------
#NOTES:
     dance-single:
     :
     Medium:
     13:
     0.624278,0.656675,0.536383,0.567935,0.118320,554.000000,486.000000,68.000000,72.000000,0.000000,0.000000,0.624278,0.656675,0.536383,0.567935,0.118320,554.000000,486.000000,68.000000,72.000000,0.000000,0.000000:
0000
0000
0000
0000
,
0000
0000
0000
0000
,
0000
0000
0000
0000
,
1001
0000
0201
0000
0310
1000
0100
1000
,
0010
0000
0200
0000
0000
0000
0301
0000
1000
0000
0000
0000
0001
0010
0001
0010
,
0001
0000
1200
0000
0310
0001
0100
0001
,
0010
0000
0200
0000
0000
0000
1300
0000
0001
0000
0000
0000
1000
0010
1000
0010
,
1000
0000
0201
0000
1300
0100
0010
0100
,
0001
0000
2000
0000
0000
0000
3100
0000
0010
0000
0000
0000
0001
1000
0001
1000
,
0001
0000
1020
0000
0031
0010
0100
0010
,
1000
0000
0002
0000
0000
0000
0013
0000
0100
0000
0000
0000
1000
0001
1000
0001
,
1000
0000
0000
0000
0001
0000
0100
0010
0100
0000
0002
0000
0000
0000
1003
0000
,
0100
0000
0000
0000
1000
0000
0010
0100
0010
0000
2000
0000
0000
0000
3001
0000
,
0010
0000
0001
0100
0001
0100
0010
0010
,
0010
0000
1000
0100
1000
0100
0010
0010
,
0010
0000
0000
0000
0001
0000
1000
0100
1000
0000
0020
0000
0000
0000
0130
0000
,
0001
0000
0000
0000
1000
0000
0001
0010
0001
0000
0200
0000
0000
0000
0310
0000
,
1000
0000
0000
0000
0001
0000
0100
0000
1000
0000
0100
0000
0010
0000
1000
0001
,
1000
0010
0000
0000
1010
0000
0110
0000
,
1001
0002
0010
1000
,
0103
0200
0000
0000
0010
0000
1000
0000
,
0310
0000
1000
0010
0100
0001
0010
0100
,
1000
0001
1000
0100
0010
0001
0200
0000
,
0301
1000
0001
1000
0001
0000
0000
0000
1000
0000
0020
0000
0000
0000
0032
0000
,
0000
0023
0000
0130
0001
0010
0100
1000
,
0001
0000
1000
0010
1000
0010
0001
0010
,
0001
0010
1000
0000
0101
0000
1000
0100
,
0010
0000
0001
0100
0001
0100
0010
1000
,
0010
0200
0000
0301
2000
0000
3100
0020
,
0000
0031
0001
0100
0010
0100
1000
0100
,
0001
0000
1000
0000
0100
0000
0000
0000
1100
0000
0000
0000
0001
0100
0001
0100
,
0001
1001
1001
1001
,
0110
1001
0000
0000
,
0000
1100
1100
1100
,
0011
1100
0000
0000
,
0000
0101
0101
0101
,
1010
0101
0000
0000
,
0000
1010
0101
0011
,
1100
0000
0000
0000
1002
0000
0103
0010
,
0100
0010
2000
0000
3001
0100
0001
1000
,
0100
0020
0000
0031
1000
0000
1100
0000
,
0101
0000
2000
0000
3001
0100
0001
1000
,
0100
0020
0000
0031
1000
0000
0010
0010
,
0101
2000
3200
0302
,
0103
0010
0100
1000
0001
0200
0000
0310
,
1000
0000
0001
0100
0001
0100
1000
0100
,
0001
0020
0000
0130
1000
0000
1010
0000
,
0110
0000
1002
0000
0013
1000
0010
0100
,
0010
0002
0000
1003
0010
0000
1010
0000
,
0101
0000
2001
0000
3100
0001
0100
0010
,
0100
0000
2000
0000
0000
0000
3001
0000
0100
0000
0000
0000
0001
1000
0001
1000
,
0001
1002
0010
2003
,
0010
0000
3001
0100
0010
1000
0000
0001
,
0020
0000
0130
0000
1000
0001
1000
0010
,
0100
0002
0000
2003
0000
3100
0010
0100
,
1000
0000
0022
0000
0033
1000
0020
0000
,
0030
1010
0000
0110
0000
0001
1000
0001
,
0010
0000
2200
0000
3300
1000
0020
0000
,
0130
0200
0000
0301
1000
0000
2002
0000
,
3003
0000
2200
0000
3300
0001
0200
0000
,
0300
0101
0000
0110
0000
1000
0001
1000
,
0100
0000
0022
0000
0033
0001
0200
0000
,
0310
0020
0000
0130
0100
0000
0110
0000
,
0000
0001
2010
3001
,
2010
3001
1010
0110
,
1002
1003
0012
1003
,
0012
1003
0011
0110
,
2001
0000
3001
1000
0200
0000
1300
0001
,
0200
0301
0101
0110
,
1010
0000
1000
0100
0010
0002
0000
2003
,
0000
3010
0000
0000
0000
0000
0000
0000
,
0000
0000
1001
0000
0001
0100
0010
0100
,
0001
0020
0000
0000
0100
0000
0001
0000
,
0130
0000
1000
0010
1000
0010
1000
0010
,
1000
0010
1000
0100
0010
0001
0200
0000
,
0310
0000
1000
0100
0001
0100
1000
0010
,
0100
0001
0010
1000
0010
0001
0100
0010
,
1000
0001
1000
0000
0001
0100
1000
0100
,
0010
0010
0000
2002
0000
0000
0000
0000
,
3003
0000
1000
1000
0100
0010
0010
0100
,
0001
0001
0100
0010
0010
0100
1000
0001
,
1000
0000
0001
0001
0100
0010
0010
0100
,
1000
1000
0100
0010
0010
0100
0001
1000
,
0001
0000
1000
0100
0010
0100
1000
0001
,
0100
1000
0100
0010
1000
0100
0010
0001
,
1000
0010
1010
0000
0001
0101
0000
0000
,
1001
0000
0000
0000
0000
0000
0001
0000
0000
0010
0000
0000
0100
0000
0000
1000
0000
0000
0001
0000
0100
0000
0001
0000
,
1000
0000
0000
0000
0000
0000
0000
0000
0000
0000
0000
0000
0000
0000
0000
0000
0001
0000
0000
0000
0000
0000
0000
0000
0000
0000
0000
0000
0000
0000
0000
0000
1000
0000
0000
0000
0000
0000
0000
0000
0000
0000
0000
0000
0000
0000
0000
0000
0000
0000
0000
0000
0000
0000
0000
0000
0000
0000
0000
0000
0000
0000
0000
0000
0000
0000
0000
0000
0000
0000
0000
0000
0000
0000
0000
0000
0000
0000
0000
0000
0000
0000
0000
0000
0000
0000
0000
0000
0000
0000
0000
0000
0000
0000
0000
0000
0000
0000
0000
0000
0000
0000
0000
0000
0000
0000
0000
0000
0000
0000
0000
0000
0000
0000
0000
0000
0000
0000
0000
0000
0000
0000
0000
0000
0000
0000
0000
0000
0000
0000
0000
0000
0000
0000
0000
0000
0000
0000
0000
0000
0000
0000
0000
0000
0000
0000
0000
0000
0000
0000
0000
0000
0000
0001
0000
0000
0000
0000
0000
0000
0000
0000
0000
0000
0000
0000
0000
0000
0000
0000
0000
0000
0000
0000
0000
0000
0000
0000
0000
0000
0000
0000
0000
0000
0000
0000
0000
0000
0000
0000
0000
0000
,
0000
0000
0000
0000
0000
0000
0000
0000
0000
0000
0000
0000
0000
0000
0000
0000
0000
0000
0000
0000
0000
0000
0000
0000
0000
0000
0000
0000
0000
0000
0000
0000
0000
0000
0000
0000
0000
0000
0000
0000
0000
0000
0000
0000
0000
0000
0000
0100
0000
0000
0000
0000
0000
0000
0000
0000
0000
0000
0000
0000
0000
0000
0000
0000
0000
0000
0000
0000
0000
0000
0000
0000
0000
0000
0000
0000
0000
0000
0000
0000
0000
0000
0000
0000
0000
0000
0000
0000
0000
0000
0100
0000
0000
0000
0000
0000
0000
0000
0000
0000
0000
0000
0000
0000
0000
0000
0000
0000
0000
0000
0000
0000
0000
0000
0000
0000
0000
0000
0000
0000
0000
0000
0000
0000
0000
0000
0000
0000
0000
0000
0000
0000
0000
0000
0000
0000
0000
0000
0000
0000
0000
0000
0000
0000
0000
0000
0000
0000
0000
0000
0000
0000
0000
0000
0000
0000
0000
0000
0000
0000
0000
0000
0000
0000
0000
0000
0000
0000
0000
0000
0000
0000
0000
0000
0000
0000
0000
0010
0000
0000
0000
0000
0000
0000
0000
0000
0000
0000
0000
0000
0000
0000
,
0000
0000
0000
0000
0000
0000
0000
0000
0000
0000
0000
0000
0000
0000
0000
0000
0000
0000
0000
0000
0000
0000
0000
0000
0000
0000
0000
0000
0000
0000
0000
0000
0010
0000
0000
0000
0000
0000
0000
0000
0000
0000
0000
0000
0000
0000
0000
0000
0000
0000
0000
0000
0000
0000
0000
0000
0000
0000
0000
0000
0000
0000
0000
0000
0000
0000
0000
0000
0000
0000
0000
0000
0000
0000
0000
0000
0000
0000
0000
0000
0000
0000
0000
0000
0000
0000
0000
0000
0000
0000
0000
0000
0000
0000
0000
0000
0000
0000
0000
0000
0000
0000
0000
0000
0000
0000
0000
0000
0000
0000
0000
0000
0000
0000
0000
0000
0000
0000
0000
0000
0000
0000
0000
0000
0000
0000
0000
0000
0000
0000
0000
0000
0000
0000
0000
0000
0000
0000
0000
0000
0000
0000
0000
0000
0000
0000
0000
0000
0000
0000
0000
0000
0000
0000
0000
0000
0000
0000
0000
2000
0000
0000
0000
0000
0000
0000
0000
0000
0000
0000
0000
0000
0000
0000
0000
0000
0000
0000
0000
0000
0000
0000
0000
0000
0000
0000
0000
0000
0000
0000
0000
0000
,
0000
0000
0000
0000
0000
0000
0000
0000
0000
0000
0002
0000
,
0000
0000
0000
0000
,
0000
0000
3003
0000
;

//---------------dance-single - ----------------
#NOTES:
     dance-single:
     :
     Hard:
     15:
     0.791053,0.839085,0.567935,0.449615,0.449615,702.000000,630.000000,72.000000,57.000000,0.000000,0.000000,0.791053,0.839085,0.567935,0.449615,0.449615,702.000000,630.000000,72.000000,57.000000,0.000000,0.000000:
0000
0000
0000
0000
,
0000
0000
0000
0000
,
0000
0000
0000
0000
,
1001
0000
0000
0000
2100
0000
0000
0000
3001
0100
0001
0000
1000
0000
0100
0000
,
0000
0000
0012
0000
0000
0000
1003
0000
0010
0100
0010
0000
1000
0100
0010
0001
,
1000
0000
0000
0000
0102
0000
0000
0000
1003
0100
1000
0000
0001
0000
0100
0000
,
0000
0000
2010
0000
0000
0000
3001
0000
0010
0100
0010
0000
0001
0100
0010
1000
,
0001
0000
0000
0000
2010
0000
0000
0000
3001
0010
0001
0010
0001
0000
1000
0000
,
0000
0000
0102
0000
0000
0000
0103
0000
0010
0100
0010
0000
1000
0100
0010
0001
,
1000
0000
0000
0000
0012
0000
0000
0000
1003
0010
1000
0010
1000
0000
0001
0000
,
0000
0000
2100
0000
0000
0000
3100
0000
0010
0100
0010
0000
0001
0100
0010
1000
,
0001
0000
1000
0000
0100
0000
1000
0100
0010
0000
2000
0000
0000
0000
3010
0000
,
0002
0000
0000
0000
0103
0000
0001
0100
0010
0000
0002
0000
0000
0000
0013
0000
,
1000
0000
0001
0000
0100
0000
0001
1000
0001
0000
0010
0000
0100
0000
0100
0000
,
0100
0000
0000
0000
0100
0000
1000
0001
1000
0000
0010
0000
0100
0000
0100
0000
,
0100
0000
0000
0000
0001
0000
1000
0100
0010
0000
2000
0000
0000
0000
3010
0000
,
0002
0000
0000
0000
1003
0000
0001
0100
0010
0000
0002
0000
0000
0000
0013
0000
,
2000
0000
0000
0000
0000
0000
3001
0000
0010
0000
0001
0000
1000
0000
0100
0000
1000
0000
0010
0000
0000
0100
0000
0000
,
0001
0000
0102
0000
0000
0000
1003
0100
1000
0000
0100
0010
0100
0000
0010
0000
,
0001
0000
0000
0000
2010
0000
0000
0000
3001
0010
0001
0000
1000
0100
1000
0000
,
0001
0200
0000
0000
0010
0000
0010
0000
,
0310
0000
0000
0000
1000
0010
1000
0000
0001
0000
0010
0001
0010
0000
0001
0000
,
0100
0000
0010
0000
1000
0100
0000
0100
0010
0000
0001
0000
0100
0000
0010
0000
,
1000
0001
1000
0001
2000
0000
0000
0000
3100
0000
0100
0000
0001
0000
0100
0000
,
1000
0010
0100
0010
0100
1000
0100
0001
,
1000
0000
0001
0100
0010
0100
1000
0100
,
0010
0000
0100
0000
0001
0000
1000
0100
1000
0000
0001
0100
0001
0000
1000
0000
,
0100
0000
1002
0000
0103
0100
1000
0100
,
0001
0010
0100
0010
0100
0001
0100
1000
,
0001
0000
1000
0010
0100
0010
0001
0010
,
0100
0000
0010
0000
1000
0100
1000
0000
0001
0100
0001
0000
1000
0100
0010
0001
,
1000
0101
0101
1010
,
0110
2002
0000
3003
,
1001
1100
1100
0011
,
0110
2002
0000
3003
,
0001
1000
0001
1000
0010
0000
0000
0000
1010
0000
0000
0000
0101
0000
0000
0000
,
0110
2002
0000
3003
,
0010
1001
1100
1001
,
0202
0000
0303
0000
2001
0000
3001
0001
,
1000
1000
0100
0010
1000
0010
0100
1000
,
0010
0000
0100
0001
0100
0000
0010
0000
1000
0000
0001
0000
0100
0000
0010
0100
,
0010
0000
1000
0001
0010
0000
0100
0000
0001
0000
0100
0000
0010
0000
0001
0000
,
0100
0000
0010
1000
0010
0000
0100
0000
0001
0000
1000
0000
0001
0010
0100
0000
,
1000
0000
0000
0000
1100
0000
0000
0000
0101
0000
0000
1000
0100
0000
0010
0000
,
0001
0200
0000
1300
0100
0002
0000
1003
,
0100
0000
1000
0010
0001
0010
1000
0100
,
0010
0000
0001
0000
1000
0000
0001
0100
0001
0000
1000
0010
1000
0000
0001
0010
,
0100
1000
0001
0000
0100
0000
0100
0000
1000
0000
0100
0000
0001
0000
0010
0000
,
0100
0000
1000
0001
1000
0000
0010
0000
0100
0000
0001
0000
0010
0000
0001
1000
,
0001
0000
1000
0100
0010
0000
0010
0000
1000
0000
0010
0000
0001
0000
0100
0000
,
0010
0000
1000
0001
1000
0000
0100
0000
0010
0000
0001
0000
0100
0000
0001
0010
,
0100
0000
1000
0000
1001
0000
0000
0000
1010
0000
0000
0001
0010
0000
0100
0000
,
1000
0010
0100
1000
0100
0002
0000
1003
,
0100
0000
0010
0000
0001
0000
0100
0010
0100
0000
0001
0000
0010
0000
0100
0000
,
1000
0000
0010
0000
0110
0000
0000
0000
0001
1000
0001
1000
0001
0000
0010
0000
,
0100
1000
2010
0000
3001
0010
0012
0000
,
1003
1010
0000
0110
0000
0001
0010
0100
,
1000
0000
0012
0000
1003
0010
2010
0000
,
3001
0020
0000
0100
0130
0000
2002
0000
,
3003
0000
0102
0000
1003
0100
2100
0000
,
3001
0101
0000
0110
0000
1000
0100
0010
,
0001
0000
2100
0000
3001
0100
0102
0000
,
1003
0200
0000
0010
0310
0000
0110
0000
,
0000
0000
1001
0000
1010
0010
0100
0000
,
0101
0100
0010
1000
1001
0000
0110
0000
,
1001
0000
0001
0000
0011
0010
0100
0000
,
1100
0000
1000
0000
0010
0000
0100
0000
0002
0000
0000
0000
0103
0000
0010
0100
,
0010
0000
1000
0001
1000
0000
0000
0000
1100
0000
0001
0000
0100
0000
0000
0000
,
0101
1000
0100
0010
1000
0010
0100
0010
,
0001
1000
0010
0000
1000
1100
0000
0110
,
0000
0000
0000
0000
0001
0000
0000
0000
0200
0000
0300
0000
0000
0000
0000
0000
0200
0000
0000
0300
0000
0000
0000
0000
0200
0000
0000
0000
0300
0000
0000
0000
,
0200
0000
0000
0000
0000
0300
0000
0000
2001
0000
0000
0000
0000
0000
0000
0000
3001
0000
0100
0000
0001
0000
0000
0000
0100
0000
0000
0000
0010
0000
0000
0000
,
0000
0000
1020
0000
0000
0000
1030
0000
0001
0000
0000
0000
1000
0100
0010
0100
,
1000
0000
0000
0000
0012
0000
0000
0000
1003
0010
1000
0000
0010
0000
0100
0000
,
0000
0000
0201
0000
0000
0000
0301
0000
1000
0000
0000
0000
0001
0010
0100
0010
,
0001
0000
1000
0000
0010
0100
0010
0000
0100
0010
0100
0000
0001
0000
0010
0000
,
0100
0000
1000
0000
0001
0100
0001
0000
0100
0001
0100
0000
0010
0000
1000
0000
,
0100
0000
0010
0000
0001
0000
0000
0000
1000
0010
0100
0000
0001
0100
0010
0000
,
1000
0100
0000
2002
0000
0000
0000
0000
,
3003
0000
0000
0000
1000
0001
0100
0000
0001
0000
1000
0001
0100
0000
0001
0000
,
1000
0001
0100
0000
0001
0010
0100
0000
1000
0000
0000
0000
1100
0000
0000
0000
,
0011
0000
0000
0000
0001
1000
0010
0000
1000
0000
0001
1000
0010
0000
1000
0000
,
0001
1000
0010
0000
1000
0100
0010
0000
0001
0000
1000
0000
1001
0000
0000
0000
,
0101
0000
0000
0000
1000
0100
0010
0100
1000
0000
0001
0000
0100
0010
0100
0000
,
0001
0000
1000
0000
0001
0100
0010
0100
0001
0000
1000
0000
0100
0010
0100
0000
,
1000
0000
0001
0000
1000
0100
0000
1000
0100
0000
0010
0001
0000
0010
0001
0000
,
0100
0000
0000
0010
0000
0000
0100
0000
0000
0000
0000
0000
0001
0000
0000
0000
0000
0000
1000
0000
0000
0000
0000
0000
0010
0000
0000
0100
0000
0000
0010
0000
0000
0000
0000
0000
1000
0000
0000
0000
0100
0000
0000
0000
0010
0000
0000
0000
,
0001
0000
0000
0000
0000
0000
0000
0000
0000
0000
0000
0000
0000
0000
0000
0000
1000
0000
0000
0000
0000
0000
0000
0000
0000
0000
0000
0000
0000
0000
0000
0000
0001
0000
0000
0000
0000
0000
0000
0000
0000
0000
0000
0000
0000
0000
0000
0000
0000
0000
0000
0000
0000
0000
0000
0000
0000
0000
0000
0000
0000
0000
0000
0000
0000
0000
0000
0000
0000
0000
0000
0000
0000
0000
0000
0000
0000
0000
0000
0000
0000
0000
0000
0000
0000
0000
0000
0000
0000
0000
0000
0000
0000
0000
0000
0000
0000
0000
0000
0000
0000
0000
0000
0000
0000
0000
0000
0000
0000
0000
0000
0000
0000
0000
0000
0000
0000
0000
0000
0000
0000
0000
0000
0000
0000
0000
0000
0000
0000
0000
0000
0000
0000
0000
0000
0000
0000
0000
0000
0000
0000
0000
0000
0000
0000
0000
0000
0000
0000
0000
0000
0000
0000
1000
0000
0000
0000
0000
0000
0000
0000
0000
0000
0000
0000
0000
0000
0000
0000
0000
0000
0000
0000
0000
0000
0000
0000
0000
0000
0000
0000
0000
0000
0000
0000
0000
0000
0000
0000
0000
0000
0000
,
0000
0000
0000
0000
0001
0000
0000
0000
0000
0000
0000
0000
0000
0000
0000
0000
0000
0000
0000
0000
0000
0000
0000
0000
0000
0000
0000
0000
0000
0000
0000
0000
0000
0000
0000
0000
0000
0000
0000
0000
0000
0000
0000
0000
0000
0000
0000
0100
0000
0000
0000
0000
0000
0000
0000
0000
0000
0000
0000
0000
0000
0000
0000
0000
0000
0000
0000
0000
0000
0000
0000
0000
0000
0000
0000
0000
0000
0000
0000
0000
0000
0000
0000
0000
0000
0000
0000
0000
0000
0000
0010
0000
0000
0000
0000
0000
0000
0000
0000
0000
0000
0000
0000
0000
0000
0000
0000
0000
0000
0000
0000
0000
0000
0000
0000
0000
0000
0000
0000
0000
0000
0000
0000
0000
0000
0000
0000
0000
0000
0000
0000
0000
0000
0000
0000
0000
0000
0000
0000
0000
0000
0000
0000
0000
0000
0000
0000
0000
0000
0000
0000
0000
0000
0000
0000
0000
0000
0000
0000
0000
0000
0000
0000
0000
0000
0000
0000
0000
0000
0000
0000
0000
0000
0000
0000
0000
0000
1000
0000
0000
0000
0000
0000
0000
0000
0000
0000
0000
0000
0000
0000
0000
,
0000
0000
0000
0000
0000
0000
0000
0000
0000
0000
0000
0000
0000
0000
0000
0000
0000
0000
0000
0000
0000
0000
0000
0000
0000
0000
0000
0000
0000
0000
0000
0000
0001
0000
0000
0000
0000
0000
0000
0000
0000
0000
0000
0000
0000
0000
0000
0000
0000
0000
0000
0000
0000
0000
0000
0000
0000
0000
0000
0000
0000
0000
0000
0000
0000
0000
0000
0000
0000
0000
0000
0000
0000
0000
0000
0000
0000
0000
0000
0000
0000
0000
0000
0000
0000
0000
0000
0000
0000
0000
0000
0000
0000
0000
0000
0000
0000
0000
0000
0000
0000
0000
0000
0000
0000
0000
0000
0000
0000
0000
0000
0000
0000
0000
0000
0000
0000
0000
0000
0000
0000
0000
0000
0000
0000
0000
0000
0000
0000
0000
0000
0000
0000
0000
0000
0000
0000
0000
0000
0000
0000
0000
0000
0000
0000
0000
0000
0000
0000
0000
0000
0000
0000
0000
0000
0000
0000
0000
0000
0020
0000
0000
0000
0000
0000
0000
0000
0000
0000
0000
0000
0000
0000
0000
0000
0000
0000
0000
0000
0000
0000
0000
0000
0000
0000
0000
0000
0000
0000
0000
0000
0000
,
0000
0000
0000
0000
0000
0000
0000
0000
0000
0000
0200
0000
,
0000
0000
0000
0000
,
0000
0000
0330
0000
;

//---------------dance-single - ----------------
#NOTES:
     dance-single:
     :
     Challenge:
     17:
     0.911626,1.094459,0.504831,0.425951,0.757247,809.000000,745.000000,64.000000,54.000000,0.000000,0.000000,0.911626,1.094459,0.504831,0.425951,0.757247,809.000000,745.000000,64.000000,54.000000,0.000000,0.000000:
0000
0000
0000
0000
,
0000
0000
0000
0000
,
0000
0000
0000
0000
,
1001
0000
0000
0000
0102
0000
0000
0000
1003
0100
1000
0100
1000
0000
0001
0100
,
0010
0000
0200
0000
0000
0000
0310
0000
1000
0001
1000
0000
0001
0010
0100
1000
,
0020
0000
0130
0000
2010
0000
0000
0000
3001
0010
0001
0010
0001
0000
1000
0100
,
0010
0000
0200
0000
0000
0000
0310
0000
0001
1000
0001
0000
1000
0010
0100
0001
,
0010
0000
0001
1000
0002
0000
0000
0000
0103
0010
0100
0010
1000
0010
0100
0000
,
0001
0000
2000
0000
0000
0000
3100
0000
0010
0001
0010
0000
0001
0100
0010
1000
,
0002
0000
0103
0000
2001
0000
0000
0000
3010
0100
0010
0100
0001
0100
0010
0000
,
1000
0000
0002
0000
0000
0000
0013
0000
0100
1000
0100
0000
1000
0001
0100
0010
,
1000
0001
1000
0001
0100
0000
0001
0010
0100
0000
0020
0000
1000
0000
0000
0000
,
0031
0000
0100
0000
0010
0000
1000
0100
0010
0000
0200
0000
0001
0000
0000
0000
,
1300
0000
0001
0000
0100
0000
0001
0010
0100
0000
1000
0000
0010
0000
0100
0000
,
0110
0000
1000
0000
0001
0000
1000
0100
0010
0000
0001
0000
0100
0000
0010
0000
,
0110
0000
0001
1000
0001
0000
1000
0001
0100
0000
0020
0000
0001
0000
0000
0000
,
0130
0000
0001
0000
1000
0000
0001
1000
0100
0000
0020
0000
1000
0000
0000
0000
,
0031
0000
0000
0000
0000
0000
1000
0000
0000
0000
0000
0000
0010
0000
0000
0000
0100
0000
0000
0000
0010
0000
0000
0000
1000
0000
0000
0000
0001
0000
0000
0000
1000
0000
0000
0000
0100
0000
0000
0000
0000
0000
1000
0000
0000
0010
0000
0000
,
0100
0000
0002
0000
0000
0000
1003
0100
0010
0000
0001
0100
0010
0000
1000
0001
,
1000
0100
0010
0001
0200
0000
0000
0000
0310
1000
0001
1000
0100
0000
1000
0010
,
0100
0000
0020
0000
0000
0000
0130
0000
0001
1000
0001
0000
1000
0100
0010
0001
,
0200
0000
0320
0000
1030
0100
1000
0000
0001
0100
0001
0000
1000
0010
1000
0000
,
0001
0010
0001
0000
1000
0100
0010
0001
0100
0010
1000
0001
0020
0000
0000
0000
,
0031
1000
0001
1000
0020
0000
0000
0000
0031
0000
0001
0000
0010
0000
0100
0000
,
0010
1000
0100
0001
1000
0010
0001
0100
,
0010
0100
0100
1000
0100
0001
0010
0100
,
1000
0000
0001
0100
0001
0000
1000
0100
1000
0000
0001
0010
0100
0000
1000
0010
,
0100
0000
0001
1000
0200
0000
0000
0000
0301
0000
0001
0000
0100
0000
0100
0000
,
1000
0010
0001
1000
0100
0001
1000
1000
,
0001
0010
0010
1000
0010
0001
0100
0100
,
0010
0000
1000
0000
0001
0010
0100
1000
0001
0000
0100
0000
0010
1000
0001
0000
,
1000
0000
0001
0100
0001
0000
0000
0000
0101
0000
0000
0000
0110
0000
0000
0000
,
1010
0000
0000
0000
1001
0000
0000
0000
1000
0100
0010
0100
1000
0100
0010
0100
,
1000
1100
0110
0011
,
1001
0000
0000
0000
0001
0000
0000
0100
0000
0000
1000
0000
0000
0100
0000
0000
,
0001
1000
0001
1000
0100
0000
0000
0000
1100
0000
0000
0000
0110
0000
0000
0000
,
0011
2002
0000
0003
,
3010
0101
0110
1010
,
1001
0000
0000
0000
1002
0000
0013
0100
,
0010
0100
1000
0001
0010
2000
0000
3010
,
0001
0000
0100
0010
1000
0000
0001
0000
0100
0000
0100
0000
0010
0000
1000
0100
,
0010
0000
0001
1000
0001
0000
1000
0000
0100
0000
0002
0000
0000
0000
0103
0000
,
1000
0000
0010
0100
0001
0000
1000
0000
0010
0000
0010
0000
0100
0001
0010
0100
,
1000
0000
0010
0000
2010
0000
0000
0000
3100
0000
0010
0001
0000
0001
1000
0000
,
0001
0102
0000
1003
0100
2000
0000
3001
,
0100
0010
1000
1000
0100
0100
0001
0001
,
0100
0000
0010
0000
0001
0000
1000
0010
0100
0000
0001
0010
0100
0000
1000
0001
,
1000
0010
0100
0001
0010
0000
0010
0000
1000
0000
0010
0000
0001
0000
0100
0000
,
0010
0000
1000
0100
0010
0000
0001
0000
1000
0000
0010
0000
0100
0000
0001
0010
,
0100
0010
0001
1000
0010
0000
0010
0000
0001
0000
0010
0000
1000
0000
0100
0000
,
0010
0000
0001
0100
0010
0000
1000
0000
0001
0000
0010
0000
0001
0100
0010
1000
,
0100
0010
0001
1000
0002
0000
0000
0000
0103
0000
0010
0000
2000
0000
0000
0000
,
3100
0010
0100
0100
1000
0002
0000
0103
,
0010
0000
1000
0000
0001
0010
0001
0010
0001
0000
1000
0000
0010
0000
0100
0000
,
0001
0000
1000
0000
0100
0000
1000
0010
0100
0001
0010
0100
1000
0001
0100
0010
,
1000
0100
0010
0001
2000
0000
0000
0000
3010
0000
1001
0000
1002
0000
0000
0000
,
0013
1100
0000
0101
0000
1010
0010
1000
,
0001
0000
0012
0000
1003
0010
0201
0000
,
0310
2010
0000
0001
3001
0000
1001
0000
,
0000
0000
1002
0000
0103
1001
2001
0000
,
3100
0011
0000
1010
0000
0101
0100
0001
,
1000
0000
2100
0000
3001
0100
1020
0000
,
0130
1002
0000
0010
0013
0000
2200
0000
,
3300
0000
1001
0000
1010
0010
0100
0001
,
1000
0100
0010
0001
0100
0010
0010
0010
,
1001
0000
0001
0000
0101
0100
0010
1000
,
0001
0000
0010
0000
0100
0000
1000
0000
0010
0000
0100
0010
0100
0000
0001
0100
,
0010
0000
1000
0100
0010
0000
0001
0000
0101
0000
0100
0000
0010
0000
1000
0000
,
1100
0100
0010
0001
0011
0000
1001
0000
,
1001
0000
0001
0100
0010
1010
0000
0110
,
0001
0000
0000
0000
1000
0000
0000
0000
0200
0000
0300
0000
0000
0000
0000
0000
0200
0000
0000
0300
0000
0000
0000
0000
0200
0000
0000
0000
0300
0000
0000
0000
,
0200
0000
0000
0000
0000
0300
0000
0000
1001
0000
0000
0000
0000
0000
0000
0000
0001
0000
0100
0000
0001
0000
0100
0000
0010
0000
0000
0000
1000
0000
0001
0000
,
1000
0020
0000
0000
0130
0000
0101
0000
,
1010
0000
0000
0000
0001
0010
0001
0010
0001
0010
0001
0000
1000
0010
1000
0010
,
1000
0010
1000
0000
0001
0100
0010
0000
1000
0100
0010
0000
0001
1000
0100
0000
,
1000
0001
0100
0000
0001
0100
0001
0100
0010
1000
0010
0000
1000
0100
1000
0100
,
0010
0001
0010
0000
0001
0100
0010
1000
0100
0010
0001
1000
0010
0000
0100
0000
,
0001
0000
1000
0000
0001
0010
0100
1000
0010
0100
0010
1000
0100
0010
0001
0100
,
0010
1000
0001
0000
0010
0000
2002
0000
0000
0000
0000
0000
0000
0000
0000
0000
,
3003
0000
0000
0000
0001
0100
0001
0100
0010
0000
1000
0100
1000
0100
0010
0000
,
0001
0010
0001
0010
0100
0000
1000
0010
1000
0010
0100
0000
0001
0000
0000
0000
,
0101
0000
0000
0000
1000
0100
1000
0100
0010
0000
0001
0100
0001
0100
0010
0000
,
1000
0010
1000
0010
0100
0000
0001
0010
0001
0010
0100
0000
1000
0000
0000
0000
,
1100
0000
0000
0000
1000
0010
1000
0010
0100
0001
1000
0100
1000
0100
0010
0001
,
1000
0010
0100
0001
0010
0000
0000
0000
0011
0000
0000
0000
1100
0000
0000
0000
,
1001
0000
0000
0000
0001
0010
0100
1000
0010
0100
0001
1000
0100
1000
0001
0100
,
0001
0000
0000
1000
0000
0000
0100
0000
0000
0010
0000
0000
0001
0000
0000
0100
0000
0000
0010
0000
0000
1000
0000
0000
0001
0000
0000
0010
0000
0000
0100
0000
0000
1000
0000
0000
0010
0000
0000
0000
0100
0000
0000
0000
0001
0000
0000
0000
,
1000
0000
0000
0000
0000
0000
0000
0000
0000
0000
0000
0000
0000
0000
0000
0000
0100
0000
0000
0000
0000
0000
0000
0000
0000
0000
0000
0000
0000
0000
0000
0000
0010
0000
0000
0000
0000
0000
0000
0000
0000
0000
0000
0000
0000
0000
0000
0000
0000
0000
0000
0000
0000
0000
0000
0000
0000
0000
0000
0000
0000
0000
0000
0000
0000
0000
0000
0000
0000
0000
0000
0000
0000
0000
0000
0000
0000
0000
0000
0000
0000
0000
0000
0000
0000
0000
0000
0000
0000
0000
0000
0000
0000
0000
0000
0000
0000
0000
0000
0000
0000
0000
0000
0000
0000
0000
0000
0000
0000
0000
0000
0000
0000
0000
0000
0000
0000
0000
0000
0000
0000
0000
0000
0000
0000
0000
0000
0000
0000
0000
0000
0000
0000
0000
0000
0000
0000
0000
0000
0000
0000
0000
0000
0000
0000
0000
0000
0000
0000
0000
0000
0000
0000
0001
0000
0000
0000
0000
0000
0000
0000
0000
0000
0000
0000
0000
0000
0000
0000
0000
0000
0000
0000
0000
0000
0000
0000
0000
0000
0000
0000
0000
0000
0000
0000
0000
0000
0000
0000
0000
0000
0000
,
0000
0000
0000
0000
1000
0000
0000
0000
0000
0000
0000
0000
0000
0000
0000
0000
0000
0000
0000
0000
0000
0000
0000
0000
0000
0000
0000
0000
0000
0000
0000
0000
0000
0000
0000
0000
0000
0000
0000
0000
0000
0000
0000
0000
0000
0000
0000
0010
0000
0000
0000
0000
0000
0000
0000
0000
0000
0000
0000
0000
0000
0000
0000
0000
0000
0000
0000
0000
0000
0000
0000
0000
0000
0000
0000
0000
0000
0000
0000
0000
0000
0000
0000
0000
0000
0000
0000
0000
0000
0000
0100
0000
0000
0000
0000
0000
0000
0000
0000
0000
0000
0000
0000
0000
0000
0000
0000
0000
0000
0000
0000
0000
0000
0000
0000
0000
0000
0000
0000
0000
0000
0000
0000
0000
0000
0000
0000
0000
0000
0000
0000
0000
0000
0000
0000
0000
0000
0000
0000
0000
0000
0000
0000
0000
0000
0000
0000
0000
0000
0000
0000
0000
0000
0000
0000
0000
0000
0000
0000
0000
0000
0000
0000
0000
0000
0000
0000
0000
0000
0000
0000
0000
0000
0000
0000
0000
0000
0001
0000
0000
0000
0000
0000
0000
0000
0000
0000
0000
0000
0000
0000
0000
,
0000
0000
0000
0000
0000
0000
0000
0000
0000
0000
0000
0000
0000
0000
0000
0000
0000
0000
0000
0000
0000
0000
0000
0000
0000
0000
0000
0000
0000
0000
0000
0000
1000
0000
0000
0000
0000
0000
0000
0000
0000
0000
0000
0000
0000
0000
0000
0000
0000
0000
0000
0000
0000
0000
0000
0000
0000
0000
0000
0000
0000
0000
0000
0000
0000
0000
0000
0000
0000
0000
0000
0000
0000
0000
0000
0000
0000
0000
0000
0000
0000
0000
0000
0000
0000
0000
0000
0000
0000
0000
0000
0000
0000
0000
0000
0000
0000
0000
0000
0000
0000
0000
0000
0000
0000
0000
0000
0000
0000
0000
0000
0000
0000
0000
0000
0000
0000
0000
0000
0000
0000
0000
0000
0000
0000
0000
0000
0000
0000
0000
0000
0000
0000
0000
0000
0000
0000
0000
0000
0000
0000
0000
0000
0000
0000
0000
0000
0000
0000
0000
0000
0000
0000
0000
0000
0000
0000
0000
0000
0200
0000
0000
0000
0000
0000
0000
0000
0000
0000
0000
0000
0000
0000
0000
0000
0000
0000
0000
0000
0000
0000
0000
0000
0000
0000
0000
0000
0000
0000
0000
0000
0000
,
0000
0000
0000
0000
0000
0000
0000
0000
0000
0000
0020
0000
,
0000
0000
0000
0000
,
0000
0000
0330
0000
;

//---------------dance-double - ----------------
#NOTES:
     dance-double:
     :
     Easy:
     9:
     0.434966,0.547229,0.370736,0.567935,0.027608,386.000000,339.000000,47.000000,72.000000,0.000000,0.000000,0.434966,0.547229,0.370736,0.567935,0.027608,386.000000,339.000000,47.000000,72.000000,0.000000,0.000000:
00000000
00000000
00000000
00000000
,
00000000
00000000
00000000
00000000
,
00000000
00000000
00000000
00000000
,
00011000
00000000
00020000
00000000
00030010
00000000
00001000
00000100
,
00000000
00000020
00000000
00000000
00000031
00000000
00001000
00000010
,
00001000
00000000
00000002
00000000
00000103
00000000
00000001
00001000
,
00000000
00000200
00000000
00000000
00010300
00000000
00001000
00010000
,
00001000
00000000
00102000
00000000
01003000
00000000
00010000
00100000
,
00000000
02000000
00000000
00000000
13000000
00000000
00010000
01000000
,
00010000
00000000
20000000
00000000
30100000
00000000
10000000
00010000
,
00000000
00200000
00000000
00000000
00301000
00000000
00010000
00001000
,
00010000
00000000
00000010
00010000
00000010
00020000
00000000
00000000
,
00031000
00000000
00100000
00001000
00100000
00002000
00000000
00000000
,
00013000
00000000
00001000
01000000
00001000
00000000
00010000
00010000
,
00010000
00000000
00010000
00000100
00010000
00000000
00001000
00001000
,
00001000
00000000
00100000
00010000
00100000
00002000
00000000
00000000
,
00013000
00000000
00000010
00001000
00000010
00020000
00000000
00000000
,
00031000
01000000
01010000
10000000
,
00010000
00200000
00000000
00000000
00302000
00000000
00023000
00000000
,
00030100
00012000
01000000
01000000
,
00013000
00000020
00000000
00000000
00000100
00000000
00000100
00000000
,
00000130
00000000
00000001
00000010
00000100
00000000
00001000
00000010
,
00000100
00000000
00000010
00010000
00001000
00000000
00022000
00000000
,
00033000
00000000
00002000
00000000
00103000
00020000
00000000
20030000
,
00000000
30100000
01000000
00100000
01000000
00000000
00010000
10000000
,
01000000
00000000
10000000
01000000
10000000
00000000
00010000
01000000
,
00010000
01010000
01010000
02002000
,
03003000
00000000
00010000
00000100
00010000
00000000
00000010
00000100
,
00000010
00000000
00001000
00000001
00001000
00000000
00000001
00000010
,
00000100
00001000
00001000
00000010
,
00010000
00022000
00000000
00000000
,
00033000
00001000
00001000
00100000
,
00100000
00001000
00000000
00000000
,
00000000
00010000
00010000
00000010
,
00000010
00010000
00000000
00000000
,
00000000
00001000
00001000
01000000
,
01000000
00001000
00000000
00000000
,
00000000
00010000
00010000
00000100
,
00000100
00000000
00002002
00000000
,
00003003
00001001
00001000
00000001
,
00001000
00000000
00000100
00000000
00010000
00001000
00010000
00000000
,
00000000
00001000
01000000
00100000
,
10000000
00000000
00010000
00000000
10000000
01000000
10000000
00000000
,
00000000
00110000
00110000
11000000
,
00010000
02000000
00000000
03001000
00010000
00002000
00000000
00000000
,
00103000
00000000
00001000
00010000
00001000
00000000
00010000
00000010
,
00010000
00000000
00001000
00000000
00100000
00000000
00010000
10000000
,
00100000
10010000
00010000
10000000
,
00010000
00000000
00100000
00000000
00001000
00010000
00001000
00000000
,
00000000
00010000
00000010
00000100
,
00000001
00000000
00001000
00000000
00000001
00000010
00000001
00000000
,
00000000
00001100
00001100
00000011
,
00002000
00000000
00003010
00010000
00000010
00020000
00000000
00000000
,
00031000
00000000
00100000
00010000
00100000
00000000
00010000
01000000
,
00010000
10000000
01000000
00100000
,
00001000
00000000
00022000
00000000
00033000
00100000
00002000
00000000
,
00003000
01000000
00000000
01000000
00000000
00001000
00010000
00000000
,
00001000
00000000
00022000
00000000
00033000
00000010
00020000
00000000
,
00030000
00000100
00000000
00000100
00010000
00000000
00011000
00000000
,
00000000
00000000
00022000
00000000
00033000
00200000
00020000
00000000
,
00330000
10000000
00000000
00010000
00000000
01000000
01000000
00000000
,
10010000
00000000
00022000
00000000
00033000
00000020
00002000
00000000
,
00003030
00000001
00000000
00000010
00000010
00000000
00001001
00000000
,
00000000
00000001
00002002
00003003
,
00002200
00003300
00010000
00001000
,
00022000
00033000
02002000
03003000
,
20020000
30030000
10000000
01000000
,
22000000
33000000
20020000
30030000
,
00202000
00303000
00010000
00001000
,
00022000
00000000
00033000
00000000
00010000
00000010
00000000
00000010
,
00000000
00000100
00000000
00000000
00000000
00000000
00000000
00000000
,
00000000
00002002
00000000
00003003
,
00000000
00000220
00000000
00000000
00000000
00000000
00000000
00000000
,
00000330
00000001
00001000
00000010
,
00000100
00001000
00010000
00100000
,
10000000
00010000
00010000
10000000
,
10000000
01000000
00100000
00010000
,
01000000
00001000
00001000
00010000
,
00000100
00000000
00000000
00022000
00000000
00000000
00000000
00000000
,
00033000
00000000
00001000
00100000
00000000
00001000
00100000
00000000
,
00001000
00100000
00000000
00000000
00001000
00000000
00011000
00000000
,
00011000
00000000
00010000
00000010
00000000
00010000
00000010
00000000
,
00010000
00000010
00000000
00000000
00010000
00000000
00011000
00000000
,
00011000
00000000
00001000
00001000
00000000
01000000
01000000
00000000
,
00100000
00100000
00000000
00000000
10010000
00000000
10010000
00000000
,
10010000
00000000
00010000
00010000
00000000
00100000
00100000
00000000
,
00001000
00001000
00000000
00000000
00011000
00000000
00011000
00000000
,
00011000
00000000
00000000
00000000
00000000
00000000
00000000
00000000
00000000
00000000
00000000
00000000
00000000
00000000
00000000
00000000
00000000
00000000
00000000
00000000
00000000
00000000
00000000
00000000
00000000
00000000
00000000
00000000
00000000
00000000
00000000
00000000
00000000
00000000
00000000
00000000
00000000
00000000
00000000
00000000
00000000
00000000
00000000
00000000
00000000
00000000
00000000
00000000
00000000
00000000
00000000
00010000
00000000
00000000
00000000
00000000
00000000
00000000
00000000
00000000
00000000
00000000
00000000
00000000
,
00000000
00000000
00000000
00000000
00000000
00000000
00000000
00000000
00000000
00000000
00000000
00000000
00000000
00000000
00000000
00000000
00000000
00000000
00000000
00000000
00000000
00000000
00000000
00000000
00000000
00000000
00000000
00000000
00000000
00000000
00000000
00000000
00000000
00000000
00000000
00000000
00000000
00000000
00000000
00000000
00000000
00000000
00000000
00000000
00000000
00000000
00000000
00000010
00000000
00000000
00000000
00000000
00000000
00000000
00000000
00000000
00000000
00000000
00000000
00000000
00000000
00000000
00000000
00000000
00000000
00000000
00000000
00000000
00000000
00000000
00000000
00000000
00000000
00000000
00000000
00000000
00000000
00000000
00000000
00000000
00000000
00000000
00000000
00000000
00000000
00000000
00000000
00000000
00000000
00000000
00000010
00000000
00000000
00000000
00000000
00000000
00000000
00000000
00000000
00000000
00000000
00000000
00000000
00000000
00000000
00000000
00000000
00000000
00000000
00000000
00000000
00000000
00000000
00000000
00000000
00000000
00000000
00000000
00000000
00000000
00000000
00000000
00000000
00000000
00000000
00000000
00000000
00000000
00000000
00000000
00000000
00000000
00000000
00000000
00000000
00000000
00000000
00000000
00000000
00000000
00000000
00000000
00000000
00000000
00000000
00000000
00000000
00000000
00000000
00000000
00000000
00000000
00000000
00000000
00000000
00000000
00000000
00000000
00000000
00000000
00000000
00000000
00000000
00000000
00000000
00000000
00000000
00000000
00000000
00000000
00000000
00000000
00000000
00000000
00000000
00000000
00000000
00010000
00000000
00000000
00000000
00000000
00000000
00000000
00000000
00000000
00000000
00000000
00000000
00000000
00000000
00000000
,
00000000
00000000
00000000
00000000
00000000
00000000
00000000
00000000
00000000
00000000
00000000
00000000
00000000
00000000
00000000
00000000
00000000
00000000
00000000
00000000
00000000
00000000
00000000
00000000
00000000
00000000
00000000
00000000
00000000
00000000
00000000
00000000
00010000
00000000
00000000
00000000
00000000
00000000
00000000
00000000
00000000
00000000
00000000
00000000
00000000
00000000
00000000
00000000
00000000
00000000
00000000
00000000
00000000
00000000
00000000
00000000
00000000
00000000
00000000
00000000
00000000
00000000
00000000
00000000
00000000
00000000
00000000
00000000
00000000
00000000
00000000
00000000
00000000
00000000
00000000
00000000
00000000
00000000
00000000
00000000
00000000
00000000
00000000
00000000
00000000
00000000
00000000
00000000
00000000
00000000
00000000
00000000
00000000
00000000
00000000
00000000
00000000
00000000
00000000
00000000
00000000
00000000
00000000
00000000
00000000
00000000
00000000
00000000
00000000
00000000
00000000
00000000
00000000
00000000
00000000
00000000
00000000
00000000
00000000
00000000
00000000
00000000
00000000
00000000
00000000
00000000
00000000
00000000
00000000
00000000
00000000
00000000
00000000
00000000
00000000
00000000
00000000
00000000
00000000
00000000
00000000
00000000
00000000
00000000
00000000
00000000
00000000
00000000
00000000
00000000
00000000
00000000
00000000
00000000
00000000
00000000
00000000
00000000
00000000
00000200
00000000
00000000
00000000
00000000
00000000
00000000
00000000
00000000
00000000
00000000
00000000
00000000
00000000
00000000
00000000
00000000
00000000
00000000
00000000
00000000
00000000
00000000
00000000
00000000
00000000
00000000
00000000
00000000
00000000
00000000
00000000
00000000
,
00000000
00000000
00000000
00000000
00000000
00000000
00000000
00000000
00000000
00000000
00000020
00000000
,
00000000
00000000
00000000
00000000
,
00000000
00000000
00000330
00000000
;

//---------------dance-double - ----------------
#NOTES:
     dance-double:
     :
     Medium:
     13:
     0.620898,0.693157,0.512719,0.654703,0.078880,551.000000,486.000000,65.000000,83.000000,0.000000,0.000000,0.620898,0.693157,0.512719,0.654703,0.078880,551.000000,486.000000,65.000000,83.000000,0.000000,0.000000:
00000000
00000000
00000000
00000000
,
00000000
00000000
00000000
00000000
,
00000000
00000000
00000000
00000000
,
00011000
00000000
02001000
00000000
03010000
00100000
00010000
02000000
,
00000000
03002000
00000000
00013000
00000200
00000000
00000310
00000001
,
00001000
00000000
00002100
00000000
00003010
00010000
00000100
00020000
,
00000000
00030020
00000000
00000130
00000001
00000000
00001000
00000100
,
00010000
00000000
00000010
00010000
00000020
00000000
00000000
00000000
00001030
00000000
00000100
00000000
00001000
00000000
00000020
00000000
,
00000000
00020030
00000000
00031000
00200000
00000000
01300000
10000000
,
00010000
00000000
00120000
00000000
01030000
00001000
00100000
00002000
,
00000000
02003000
00000000
03100000
10000000
00000000
00010000
00100000
,
00001000
00000000
00010000
00000000
00000100
00000000
00010000
00001000
00010000
00000000
00000020
00000000
00000000
00000000
00010030
00000000
,
00001000
00000000
00000000
00000000
00100000
00000000
00001000
00010000
00001000
00000000
02000000
00000000
00000000
00000000
03001000
00000000
,
00010000
00000000
00001000
00010000
00000100
00000010
00000001
00000001
,
00000001
00000000
00001000
00000001
00000100
00000010
00010000
00010000
,
00010000
00000000
00000000
00000000
00001000
00000000
00010000
00000010
00010000
00000000
00000020
00000000
00000000
00000000
00010030
00000000
,
00001000
00000000
00000000
00000000
00010000
00000000
00001000
00100000
00001000
00000000
00200000
00000000
00000000
00000000
00301000
00000000
,
00010000
00000000
00001000
00010000
00100000
10000000
01000000
00100000
,
00001000
00020000
00000000
00000000
00100000
00000000
00100000
00000000
,
00031000
00000000
00012000
00000000
00003010
00000100
00000010
00000100
,
00001000
00000020
00000000
00000000
00000001
00000000
00000100
00000000
,
00001030
00000000
00000001
00000010
00000100
00001000
00000010
00000100
,
00000010
00001000
00000100
00010000
00002000
00000000
02003000
00000000
,
03100000
00000000
20100000
00000000
31000000
00020000
00000000
00032000
,
00000000
00003010
00000100
00000010
00000200
00000000
00001300
00000010
,
00000100
00000000
00000001
00000100
00000010
00000100
00001000
00000100
,
00000010
00000000
00000100
00000010
00000100
00000000
00000001
00000000
00001000
00000000
00000000
00000000
00001100
00000000
00000000
00000000
,
00021000
00000000
00030010
00000100
00000010
00000100
00001000
00010000
,
00001000
00010000
01000000
00100000
02000000
00000000
13000000
00100000
,
01000000
00000000
00010000
01000000
00100000
01000000
10000000
01000000
,
00100000
00000000
10000000
00000000
00020000
00000000
00000000
00000000
00230000
00000000
00000000
00000000
00301000
00000000
00010000
00001000
,
00010000
00010010
00010010
00101000
,
00010010
00010010
00000000
00000000
,
00011000
00110000
00110000
00001100
,
00110000
00110000
00000000
00000000
,
00010000
00001000
00011000
00000000
00101000
00000000
00011000
00000000
,
00010010
00011000
00000000
00000000
,
00010000
00011000
10010000
00011000
,
00001001
00000000
00000000
00000000
00000110
00000000
00000001
00000010
,
00000100
00001000
00000010
00010000
00000010
00010000
00001000
00100000
,
00010000
01000000
00100000
10000000
00010000
00100000
00110000
00000000
,
10010000
00000000
01001000
00001000
01000000
00001000
00010000
00000100
,
00001000
00000000
00000010
00000000
00000100
00000000
00000001
00000000
00001000
00000000
00000100
00000000
00001000
00000001
00001000
00000000
,
00000010
00001002
00000023
00002030
,
00013000
02000000
00000000
03100000
00010000
20000000
00000000
30100000
,
01000000
00010000
00100000
00001000
00010000
00001000
00000100
00001000
,
00010000
00001000
00100000
00000000
00101000
00000000
00001000
01000000
,
00100000
00000000
10010000
00010000
10000000
01000000
00100000
10000000
,
00100000
00010000
01000000
00001000
00010000
00000010
00002000
00000000
,
00003001
00000000
00000001
00001000
00000001
00000010
00000100
00000001
,
00000100
00001000
00000010
00010000
00001000
01000000
00200000
00000000
,
10300000
20010000
32000000
03020000
,
00031000
00000010
00000100
00001000
00000010
00000200
00000000
00000000
,
00000301
00001000
00000100
00010000
00001000
00010000
00100000
00010000
,
00001000
00010000
00000100
00000000
00010100
00000000
00010000
00000010
,
00000100
00000000
00002002
00000000
00003003
00020000
00000200
00000000
,
00030300
00010100
00000000
00101000
00000000
00001000
00100000
00010000
,
01000000
00000000
02020000
00000000
03030000
20000000
00200000
00000000
,
30300000
20000000
00000000
31000000
00200000
00000000
00310000
00000000
,
00000000
00000000
20020000
00000000
30030000
00002000
02000000
00000000
,
03003000
01001000
00000000
00010010
00000000
00010000
00000010
00001000
,
00000100
00000000
00002200
00000000
00003300
00000002
00000020
00000000
,
00000033
00000201
00000000
00000010
00000310
00000000
00001001
00000000
,
00000000
00000001
00000012
00001003
,
00002010
00003100
00010100
00011000
,
00102000
00103000
00120000
10030000
,
20100000
00000000
30010000
00000000
10000000
01000000
00010000
01000000
,
10000000
10010000
21000000
30010000
,
01020000
00130000
00101000
00011000
,
00020100
00000000
00030100
00001000
00000001
00000200
00000000
00002300
,
00000000
00013000
00000000
00000000
00000000
00000000
00000000
00000000
,
00000000
00000000
00012000
00000000
01003000
00100000
01000000
00001000
,
00000000
02001000
00000000
03100000
10000000
00000000
00010000
00100000
,
00001000
00000000
00010000
00000010
00010000
00000010
00010000
00000010
,
00010000
00000010
00001000
00000100
00000010
00000001
00002000
00000000
,
00003010
00000000
00001000
00000001
00001000
00000001
00000010
00000100
,
00000010
00000100
00010000
00001000
00010000
00001000
01000000
00100000
,
01000000
00100000
20000000
00000000
30010000
00100000
01000000
10000000
,
00100000
01000000
00000000
20020000
00000000
00000000
00000000
00000000
,
30030000
00000000
10000000
01000000
01000000
00100000
01000000
01000000
,
00100000
00001000
00010000
00000010
00000200
00000000
00000310
00000000
,
00001001
00000000
00000001
00000100
00000100
00000010
00000100
00000100
,
00000010
00010000
00001000
00100000
02000000
00000000
03100000
00000000
,
10010000
00000000
10000000
01000000
00010000
01000000
10000000
00100000
,
01000000
00010000
00100000
00001000
00010000
00100000
00010000
00001000
,
00000100
00000010
00002000
00000000
00000000
00003002
00000000
00000000
,
00001003
00000000
00000000
00000000
00000000
00000000
00000001
00000000
00000000
00000010
00000000
00000000
00000100
00000000
00000000
00000000
00000000
00000000
00001000
00000000
00000001
00000000
00001000
00000000
,
00000001
00000000
00000000
00000000
00000000
00000000
00000000
00000000
00000000
00000000
00000000
00000000
00000000
00000000
00000000
00000000
00001000
00000000
00000000
00000000
00000000
00000000
00000000
00000000
00000000
00000000
00000000
00000000
00000000
00000000
00000000
00000000
00000001
00000000
00000000
00000000
00000000
00000000
00000000
00000000
00000000
00000000
00000000
00000000
00000000
00000000
00000000
00000000
00000000
00000000
00000000
00000000
00000000
00000000
00000000
00000000
00000000
00000000
00000000
00000000
00000000
00000000
00000000
00000000
00000000
00000000
00000000
00000000
00000000
00000000
00000000
00000000
00000000
00000000
00000000
00000000
00000000
00000000
00000000
00000000
00000000
00000000
00000000
00000000
00000000
00000000
00000000
00000000
00000000
00000000
00000000
00000000
00000000
00000000
00000000
00000000
00000000
00000000
00000000
00000000
00000000
00000000
00000000
00000000
00000000
00000000
00000000
00000000
00000000
00000000
00000000
00000000
00000000
00000000
00000000
00000000
00000000
00000000
00000000
00000000
00000000
00000000
00000000
00000000
00000000
00000000
00000000
00000000
00000000
00000000
00000000
00000000
00000000
00000000
00000000
00000000
00000000
00000000
00000000
00000000
00000000
00000000
00000000
00000000
00000000
00000000
00000000
00000000
00000000
00000000
00000000
00000000
00000000
00000001
00000000
00000000
00000000
00000000
00000000
00000000
00000000
00000000
00000000
00000000
00000000
00000000
00000000
00000000
00000000
00000000
00000000
00000000
00000000
00000000
00000000
00000000
00000000
00000000
00000000
00000000
00000000
00000000
00000000
00000000
00000000
00000000
00000000
00000000
00000000
00000000
00000000
00000000
,
00000000
00000000
00000000
00000000
00000100
00000000
00000000
00000000
00000000
00000000
00000000
00000000
00000000
00000000
00000000
00000000
00000000
00000000
00000000
00000000
00000000
00000000
00000000
00000000
00000000
00000000
00000000
00000000
00000000
00000000
00000000
00000000
00000000
00000000
00000000
00000000
00000000
00000000
00000000
00000000
00000000
00000000
00000000
00000000
00000000
00000000
00000000
00000010
00000000
00000000
00000000
00000000
00000000
00000000
00000000
00000000
00000000
00000000
00000000
00000000
00000000
00000000
00000000
00000000
00000000
00000000
00000000
00000000
00000000
00000000
00000000
00000000
00000000
00000000
00000000
00000000
00000000
00000000
00000000
00000000
00000000
00000000
00000000
00000000
00000000
00000000
00000000
00000000
00000000
00000000
00010000
00000000
00000000
00000000
00000000
00000000
00000000
00000000
00000000
00000000
00000000
00000000
00000000
00000000
00000000
00000000
00000000
00000000
00000000
00000000
00000000
00000000
00000000
00000000
00000000
00000000
00000000
00000000
00000000
00000000
00000000
00000000
00000000
00000000
00000000
00000000
00000000
00000000
00000000
00000000
00000000
00000000
00000000
00000000
00000000
00000000
00000000
00000000
00000000
00000000
00000000
00000000
00000000
00000000
00000000
00000000
00000000
00000000
00000000
00000000
00000000
00000000
00000000
00000000
00000000
00000000
00000000
00000000
00000000
00000000
00000000
00000000
00000000
00000000
00000000
00000000
00000000
00000000
00000000
00000000
00000000
00000000
00000000
00000000
00000000
00000000
00000000
00001000
00000000
00000000
00000000
00000000
00000000
00000000
00000000
00000000
00000000
00000000
00000000
00000000
00000000
00000000
,
00000000
00000000
00000000
00000000
00000000
00000000
00000000
00000000
00000000
00000000
00000000
00000000
00000000
00000000
00000000
00000000
00000000
00000000
00000000
00000000
00000000
00000000
00000000
00000000
00000000
00000000
00000000
00000000
00000000
00000000
00000000
00000000
00001000
00000000
00000000
00000000
00000000
00000000
00000000
00000000
00000000
00000000
00000000
00000000
00000000
00000000
00000000
00000000
00000000
00000000
00000000
00000000
00000000
00000000
00000000
00000000
00000000
00000000
00000000
00000000
00000000
00000000
00000000
00000000
00000000
00000000
00000000
00000000
00000000
00000000
00000000
00000000
00000000
00000000
00000000
00000000
00000000
00000000
00000000
00000000
00000000
00000000
00000000
00000000
00000000
00000000
00000000
00000000
00000000
00000000
00000000
00000000
00000000
00000000
00000000
00000000
00000000
00000000
00000000
00000000
00000000
00000000
00000000
00000000
00000000
00000000
00000000
00000000
00000000
00000000
00000000
00000000
00000000
00000000
00000000
00000000
00000000
00000000
00000000
00000000
00000000
00000000
00000000
00000000
00000000
00000000
00000000
00000000
00000000
00000000
00000000
00000000
00000000
00000000
00000000
00000000
00000000
00000000
00000000
00000000
00000000
00000000
00000000
00000000
00000000
00000000
00000000
00000000
00000000
00000000
00000000
00000000
00000000
00000000
00000000
00000000
00000000
00000000
00000000
00200000
00000000
00000000
00000000
00000000
00000000
00000000
00000000
00000000
00000000
00000000
00000000
00000000
00000000
00000000
00000000
00000000
00000000
00000000
00000000
00000000
00000000
00000000
00000000
00000000
00000000
00000000
00000000
00000000
00000000
00000000
00000000
00000000
,
00000000
00000000
00000000
00000000
00000000
00000000
00000000
00000000
00000000
00000000
02000000
00000000
,
00000000
00000000
00000000
00000000
,
00000000
00000000
03300000
00000000
;

//---------------dance-double - ----------------
#NOTES:
     dance-double:
     :
     Hard:
     15:
     0.761755,0.839085,0.575823,0.567935,0.418063,676.000000,603.000000,73.000000,72.000000,0.000000,0.000000,0.761755,0.839085,0.575823,0.567935,0.418063,676.000000,603.000000,73.000000,72.000000,0.000000,0.000000:
00000000
00000000
00000000
00000000
,
00000000
00000000
00000000
00000000
,
00000000
00000000
00000000
00000000
,
00011000
00000000
00000000
00000000
00010020
00000000
00000000
00000000
00001030
00000100
00001000
00000000
00000001
00000000
00000100
00000000
,
00000000
00000000
00000102
00000000
00000000
00000000
00001003
00000000
00000020
00000000
00000000
00000000
00010030
00001000
00010000
00001000
,
00010000
00000000
00001000
00000000
00200000
00000000
00000000
00000000
00310000
01000000
00010000
00000000
10000000
00000000
01000000
00000000
,
00000000
00000000
21000000
00000000
00000000
00000000
30010000
00000000
00200000
00000000
00000000
00000000
00301000
00010000
00001000
00000000
,
00010000
00000000
00000010
00001000
00000020
00000000
00000000
00000000
00000130
00000001
00000100
00000000
00000010
00001000
00000010
00000000
,
00001000
00000000
00000200
00000000
00000000
00000000
00010300
00000000
00001000
00000000
01000000
00000000
00010000
10000000
00010000
10000000
,
00010000
00000000
00100000
00000000
02000000
00000000
00000000
00000000
13000000
00100000
10000000
00000000
00010000
00100000
00010000
00000000
,
01000000
00000000
00002000
00000000
00000000
00000000
00013000
00000000
00000100
00000000
00001000
00000000
00000010
00000100
00000010
00000000
,
00001000
00000001
00001000
00000001
00001000
00000000
00000001
00000010
00000100
00000000
00020000
00000000
00000000
00000000
00031000
00000000
,
00100000
00000000
00100000
00000000
00010000
00000000
10000000
00100000
01000000
00000000
00002000
00000000
00000000
00000000
00013000
00000000
,
00000010
00000000
00000010
00000000
00001000
00000000
00000001
00000100
00000010
00000000
00001000
00000000
00000100
00000000
00000100
00000000
,
00010100
00000000
00000000
00000000
00010000
00000000
00001000
00100000
00010000
00000000
01000000
00000000
00100000
00000000
00100000
00000000
,
10100000
00000000
00000000
00000000
00010000
00000000
00100000
01000000
00100000
00000000
00002000
00000000
00010000
00000000
00000000
00000000
,
00003010
00000000
00000001
00000000
00001000
00000000
00000010
00000100
00000010
00000000
00020000
00000000
00001000
00000000
00000000
00000000
,
00130000
00000000
00000000
01000000
00000000
00000000
00010000
00000000
10000000
00000000
00010000
00000000
00100000
00000000
01000000
00000000
00100000
00000000
00001000
00000000
00000000
00010000
00000000
00000000
,
00010000
00000000
00000020
00000000
00000000
00000000
00001030
00000100
00001000
00000000
00000001
00000100
00000001
00000000
00001000
00000100
,
00000010
00000000
00002001
00000000
00003100
00000001
00000100
00010000
,
00001000
02000000
00000000
00000000
00100000
00000000
00100000
00000000
,
03100000
00000000
00000000
00000000
10000000
00100000
10000000
00000000
01000000
00000000
00100000
00000000
00001000
00010000
00001000
00000000
,
00010000
00000000
00000010
00000000
00000100
00000010
00000100
00000000
00000001
00000000
00001000
00000000
00000200
00000000
00000000
00000000
,
00010300
00001000
00010000
00001000
00020000
00000000
00000000
00000000
00130000
00000000
00200000
00000000
00000000
00000000
10300000
00000000
,
00010000
10000000
01000000
00010000
02000000
00000000
03100000
00001000
,
00010000
00000000
00001000
00010000
00100000
00010000
00001000
00010000
,
00100000
00000000
00010000
00001000
00010000
00000000
00000100
00001000
00000100
00000000
00001000
00000010
00010000
00000000
00001000
00010000
,
00001000
00000000
00011000
00010000
00000100
00000100
00000010
00000010
,
00000001
00000100
00001000
00000100
00000020
00000000
00010030
00010000
,
00001000
00000000
00010000
00001000
00000010
00001000
00010000
00001000
,
00000010
00000000
00001000
00000000
00010000
00001000
00010000
00001000
00010000
00000000
00001000
00000000
01000000
00010000
00100000
01000000
,
10000000
10010000
10010000
00011000
,
00011000
00002002
00000000
00003003
,
00000110
00001001
00001001
00011000
,
00011000
00000000
20020000
00000000
00000000
00000000
00000000
30030000
,
00010000
10000000
00010000
10000000
00010000
00000000
00000000
00000000
10010000
00000000
00000000
00000000
00011000
00000000
00000000
00000000
,
00011000
00002002
00000000
00003003
,
00000010
00001001
00001001
00011000
,
00011000
00000000
00000000
00000000
10020000
00000000
01030000
01000000
,
00001000
00001000
00021000
00000000
00030100
00000010
00000100
00000001
,
00000100
00000000
00000010
00000100
00000010
00000000
00000001
00000000
00000100
00000000
00000010
00000000
00001000
00000000
00000001
00000100
,
00000010
00000000
00010000
00001000
00010000
00000000
00001000
00000000
00100000
00000000
01000000
00000000
00100000
00000000
10000000
00000000
,
00100000
00000000
01000000
00100000
01000000
00000000
10000000
00000000
00100000
00000000
01000000
00000000
00010000
10000000
00100000
01000000
,
00010000
00000000
00000000
00000000
01010000
00000000
00000000
00000000
10010000
00000000
00000000
10000000
01000000
00000000
00010000
00000000
,
00001000
00000020
00000000
00000031
00000100
00000020
00000000
00001030
,
00000001
00000000
00001000
00000010
00000100
00000010
00000001
00000010
,
00001000
00000000
00000100
00000000
00010000
00000000
00000100
00010000
00000100
00000000
00010000
00001000
00010000
00000000
00001000
01000000
,
00100000
00000000
20100000
00000000
30010000
01000000
10000000
01000000
,
00010000
00000000
00100000
00001000
00010000
00000000
00000100
00000000
00000010
00000000
00000001
00000000
00001000
00000000
00000001
00000100
,
00000010
00000000
00001000
00000100
00000010
00000000
00000001
00000000
00001000
00000000
00000010
00000000
00000001
00000000
00000010
00000000
,
00001000
00000000
00000100
00010000
00001000
00000000
00100000
00000000
01000000
00000000
10000000
00000000
00010000
01000000
00010000
01000000
,
00100000
10000000
00100000
10000000
00010000
00000000
00000000
00000000
01010000
00000000
00000000
00000000
00011000
00000000
00000000
00000000
,
00001100
00000000
00000001
00000010
00000100
00002000
00000000
00003010
,
00000200
00000000
00000000
00000000
00000301
00001000
00000001
00000000
00000100
00000000
00000010
00000000
00001000
00000000
00000100
00000000
,
00010000
00000000
00001000
00000000
00201000
00000000
00000000
00000000
00310000
10000000
00010000
10000000
00100000
00000000
01000000
00000000
,
00010000
00000000
20020000
00000000
30030000
00002000
00200000
00000000
,
00303000
00101000
00000000
00011000
00000000
00010000
00000010
00000100
,
00000001
00000000
00000202
00000000
00000303
00002000
00000200
00000000
,
00003300
00020100
00000000
00031000
00001000
00000000
00011000
00000000
,
00000000
00000000
00002002
00000000
00003003
00020000
00000020
00000000
,
00030030
00010010
00000000
00011000
00000000
00001000
00100000
01000000
,
10000000
00000000
22000000
00000000
33000000
00020000
02000000
00000000
,
03030000
01001000
00000000
00011000
00011000
00000000
00010100
00000000
,
00000000
00010000
00020010
00031000
,
00102000
00013000
00010100
01001000
,
00011000
00010000
00020100
00031000
,
01002000
00000000
00000000
00000000
00013000
00000000
00000000
00000000
00011000
00000000
00000000
00000000
00010000
00000000
00001000
00100000
,
00010000
00000000
10000000
00100000
01000000
00000000
00000000
00000000
10010000
00000000
00010000
00000000
00100000
00000000
00000000
00000000
,
00011000
00010000
00000010
00000000
00001010
00000000
00000110
00000000
,
00001001
00000000
00001000
00000010
00000100
00000101
00000000
00000110
,
00000000
00000000
00000000
00001010
00000000
00000000
00020000
00030000
00000000
00000000
00000000
00000000
00002000
00000000
00003000
00000000
00000000
00000000
00020000
00000000
00000000
00030000
00000000
00000000
,
00002000
00000000
00000000
00000000
00000000
00000000
00000000
00000000
00003000
00000000
00000000
00000000
00201000
00000000
00000000
00000000
00000000
00000000
00000000
00000000
00000000
00000000
00000000
00000000
00310000
00000000
00000000
10000000
00000000
00000000
00010000
00000000
00000000
00000000
00000000
00000000
01000000
00000000
00000000
00000000
00000000
00000000
00100000
00000000
00000000
00000000
00000000
00000000
,
00100000
20000000
00000000
00000000
01000000
00000000
00010000
00000000
,
31000000
00000000
00000000
00000000
10000000
00010000
10000000
00000000
00100000
00000000
01000000
00000000
00010000
01000000
00010000
00000000
,
00100000
00000000
00001000
00000000
00010000
00000010
00001000
00000000
00000010
00001000
00000100
00000000
00000020
00000000
00000000
00000000
,
00000031
00000000
00000000
00000000
00001000
00000001
00001000
00000000
00000100
00000000
00010000
00000000
00001000
00100000
00001000
00000000
,
00100000
00000000
00010000
00000000
01000000
00100000
01000000
00000000
00010000
00000000
10000000
00000000
10100000
00000000
00000000
00000000
,
10010000
00000000
01020000
00000000
00130000
00001000
00010000
00000010
,
00000100
00000100
00000000
00002002
00000000
00000000
00000000
00000000
,
00003003
00000000
00000000
00000000
00000001
00000100
00000010
00000000
00001000
00000000
00000001
00000100
00000010
00000000
00001000
00000000
,
00000001
00000100
00000010
00000000
00001000
00000000
00000100
00000000
00010200
00000000
00000000
00000000
00010300
00000000
00001000
00000000
,
01000000
00000000
00100000
00000000
10000000
01000000
00100000
00000000
00010000
00000000
10000000
01000000
00100000
00000000
00010000
00000000
,
10000000
01000000
00100000
00000000
00010000
10000000
00010000
10000000
00020000
00000000
00000000
00000000
00130000
00000000
00001000
01000000
,
00001000
00000000
00010000
00001000
00010000
00000000
00000100
00000000
00000010
00000000
00000001
00000000
00000100
00000010
00001000
00000000
,
00000100
00000000
00010000
00000000
00001000
00000000
00100000
00000000
00010000
00000000
10000000
00000000
00010000
01000000
00100000
00000000
,
10000000
00000000
00010000
00000000
10000000
01000000
00000000
10000000
01000000
00000000
00100000
00010000
00000000
00100000
00010000
00000000
,
01000000
00000000
00000000
00001000
00000000
00000000
01000000
00000000
00000000
00000000
00000000
00000000
00001000
00000000
00000000
00000000
00000000
00000000
00010000
00000000
00000000
00000000
00000000
00000000
00021000
00000000
00000000
00000000
00000000
00000000
00000000
00000000
00000000
00000000
00000000
00000000
00030100
00000000
00000000
00000000
00001000
00000000
00000000
00000000
00000001
00000000
00000000
00000000
,
00001000
00000000
00000000
00000000
00000000
00000000
00000000
00000000
00000000
00000000
00000000
00000000
00000000
00000000
00000000
00000000
00000010
00000000
00000000
00000000
00000000
00000000
00000000
00000000
00000000
00000000
00000000
00000000
00000000
00000000
00000000
00000000
00000100
00000000
00000000
00000000
00000000
00000000
00000000
00000000
00000000
00000000
00000000
00000000
00000000
00000000
00000000
00000000
00000000
00000000
00000000
00000000
00000000
00000000
00000000
00000000
00000000
00000000
00000000
00000000
00000000
00000000
00000000
00000000
00000000
00000000
00000000
00000000
00000000
00000000
00000000
00000000
00000000
00000000
00000000
00000000
00000000
00000000
00000000
00000000
00000000
00000000
00000000
00000000
00000000
00000000
00000000
00000000
00000000
00000000
00000000
00000000
00000000
00000000
00000000
00000000
00000000
00000000
00000000
00000000
00000000
00000000
00000000
00000000
00000000
00000000
00000000
00000000
00000000
00000000
00000000
00000000
00000000
00000000
00000000
00000000
00000000
00000000
00000000
00000000
00000000
00000000
00000000
00000000
00000000
00000000
00000000
00000000
00000000
00000000
00000000
00000000
00000000
00000000
00000000
00000000
00000000
00000000
00000000
00000000
00000000
00000000
00000000
00000000
00000000
00000000
00000000
00000000
00000000
00000000
00000000
00000000
00000000
00000001
00000000
00000000
00000000
00000000
00000000
00000000
00000000
00000000
00000000
00000000
00000000
00000000
00000000
00000000
00000000
00000000
00000000
00000000
00000000
00000000
00000000
00000000
00000000
00000000
00000000
00000000
00000000
00000000
00000000
00000000
00000000
00000000
00000000
00000000
00000000
00000000
00000000
00000000
,
00000000
00000000
00000000
00000000
00000100
00000000
00000000
00000000
00000000
00000000
00000000
00000000
00000000
00000000
00000000
00000000
00000000
00000000
00000000
00000000
00000000
00000000
00000000
00000000
00000000
00000000
00000000
00000000
00000000
00000000
00000000
00000000
00000000
00000000
00000000
00000000
00000000
00000000
00000000
00000000
00000000
00000000
00000000
00000000
00000000
00000000
00000000
00000010
00000000
00000000
00000000
00000000
00000000
00000000
00000000
00000000
00000000
00000000
00000000
00000000
00000000
00000000
00000000
00000000
00000000
00000000
00000000
00000000
00000000
00000000
00000000
00000000
00000000
00000000
00000000
00000000
00000000
00000000
00000000
00000000
00000000
00000000
00000000
00000000
00000000
00000000
00000000
00000000
00000000
00000000
00001000
00000000
00000000
00000000
00000000
00000000
00000000
00000000
00000000
00000000
00000000
00000000
00000000
00000000
00000000
00000000
00000000
00000000
00000000
00000000
00000000
00000000
00000000
00000000
00000000
00000000
00000000
00000000
00000000
00000000
00000000
00000000
00000000
00000000
00000000
00000000
00000000
00000000
00000000
00000000
00000000
00000000
00000000
00000000
00000000
00000000
00000000
00000000
00000000
00000000
00000000
00000000
00000000
00000000
00000000
00000000
00000000
00000000
00000000
00000000
00000000
00000000
00000000
00000000
00000000
00000000
00000000
00000000
00000000
00000000
00000000
00000000
00000000
00000000
00000000
00000000
00000000
00000000
00000000
00000000
00000000
00000000
00000000
00000000
00000000
00000000
00000000
00000100
00000000
00000000
00000000
00000000
00000000
00000000
00000000
00000000
00000000
00000000
00000000
00000000
00000000
00000000
,
00000000
00000000
00000000
00000000
00000000
00000000
00000000
00000000
00000000
00000000
00000000
00000000
00000000
00000000
00000000
00000000
00000000
00000000
00000000
00000000
00000000
00000000
00000000
00000000
00000000
00000000
00000000
00000000
00000000
00000000
00000000
00000000
00010000
00000000
00000000
00000000
00000000
00000000
00000000
00000000
00000000
00000000
00000000
00000000
00000000
00000000
00000000
00000000
00000000
00000000
00000000
00000000
00000000
00000000
00000000
00000000
00000000
00000000
00000000
00000000
00000000
00000000
00000000
00000000
00000000
00000000
00000000
00000000
00000000
00000000
00000000
00000000
00000000
00000000
00000000
00000000
00000000
00000000
00000000
00000000
00000000
00000000
00000000
00000000
00000000
00000000
00000000
00000000
00000000
00000000
00000000
00000000
00000000
00000000
00000000
00000000
00000000
00000000
00000000
00000000
00000000
00000000
00000000
00000000
00000000
00000000
00000000
00000000
00000000
00000000
00000000
00000000
00000000
00000000
00000000
00000000
00000000
00000000
00000000
00000000
00000000
00000000
00000000
00000000
00000000
00000000
00000000
00000000
00000000
00000000
00000000
00000000
00000000
00000000
00000000
00000000
00000000
00000000
00000000
00000000
00000000
00000000
00000000
00000000
00000000
00000000
00000000
00000000
00000000
00000000
00000000
00000000
00000000
00000000
00000000
00000000
00000000
00000000
00000000
00002000
00000000
00000000
00000000
00000000
00000000
00000000
00000000
00000000
00000000
00000000
00000000
00000000
00000000
00000000
00000000
00000000
00000000
00000000
00000000
00000000
00000000
00000000
00000000
00000000
00000000
00000000
00000000
00000000
00000000
00000000
00000000
00000000
,
00000000
00000000
00000000
00000000
00000000
00000000
00000000
00000000
00000000
00000000
00020000
00000000
,
00000000
00000000
00000000
00000000
,
00000000
00000000
00033000
00000000
;

//---------------dance-double - ----------------
#NOTES:
     dance-double:
     :
     Challenge:
     17:
     0.889089,0.985013,0.560047,0.362848,0.686255,789.000000,718.000000,71.000000,46.000000,0.000000,0.000000,0.889089,0.985013,0.560047,0.362848,0.686255,789.000000,718.000000,71.000000,46.000000,0.000000,0.000000:
00000000
00000000
00000000
00000000
,
00000000
00000000
00000000
00000000
,
00000000
00000000
00000000
00000000
,
00011000
00000000
00000000
00000000
00210000
00000000
00000000
00000000
00301000
00010000
00001000
00010000
00001000
00000000
01000000
00000000
,
00100000
00000000
00020000
00000000
00000000
00000000
00030010
00000000
00001000
00000000
00000100
00000000
00001000
00000010
00001000
00000100
,
00010000
00000000
00000010
00000000
00010020
00000000
00000000
00000000
00010030
00001000
00010000
00001000
00010000
00000000
00000010
00000000
,
00000100
00000000
00002000
00000000
00000000
00000000
01003000
00000000
00010000
00000000
00100000
00000000
00010000
01000000
00010000
00100000
,
00001000
00000000
00010000
00001000
00020000
00000000
00000000
00000000
00030100
00000010
00000100
00000010
00000001
00000010
00000001
00000000
,
00001000
00000000
00000020
00000000
00000000
00000000
00000130
00000000
00000001
00001000
00000001
00000000
00001000
00000100
00000010
00000100
,
00020000
00000000
00031000
00000000
00102000
00000000
00000000
00000000
00103000
01000000
00100000
01000000
10000000
01000000
10000000
00000000
,
00010000
00000000
02000000
00000000
00000000
00000000
03100000
00000000
10000000
00010000
10000000
00000000
00010000
01000000
00100000
01000000
,
00010000
10000000
00010000
10000000
00100000
00000000
10000000
01000000
00100000
00000000
00002000
00000000
00010000
00000000
00000000
00000000
,
00003010
00000000
00000001
00000000
00000100
00000000
00000001
00000100
00000010
00000000
00020000
00000000
00001000
00000000
00000000
00000000
,
00130000
00000000
01000000
00000000
00010000
00000000
00100000
01000000
00100000
00000000
00001000
00000000
00010000
00000000
00010000
00000000
,
00010000
00000000
00000010
00000000
00001000
00000000
00000100
00000010
00000100
00000000
00010000
00000000
00001000
00000000
00001000
00000000
,
00001000
00000000
00100000
00010000
01000000
00000000
00010000
10000000
00010000
00000000
00200000
00000000
00010000
00000000
00000000
00000000
,
00301000
00000000
00010000
00000000
00000010
00000000
00001000
00000001
00001000
00000000
00000200
00000000
00001000
00000000
00000000
00000000
,
00010300
00000000
00000000
00001000
00000000
00000000
01000000
00000000
00010000
00000000
01000000
00000000
00100000
00000000
10000000
00000000
00100000
00000000
10000000
00000000
00000000
00010000
00000000
00000000
,
00100000
00000000
00102000
00000000
00000000
00000000
00013000
00000010
00010000
00000000
00000010
00000100
00000010
00000000
00001000
00000100
,
00000010
00000001
00000100
00000010
00020000
00000000
00000000
00000000
00030100
00001000
00000100
00001000
00000100
00000000
00010000
00000000
,
00001000
02001000
00000000
00000000
00010000
00000000
00100000
00000000
,
03100000
00000000
00000000
00000000
10000000
00100000
10000000
00100000
01000000
00000000
00010000
00100000
00010000
00100000
01000000
00000000
,
00100000
00000000
00001000
00000000
00010000
00000100
00010000
00000100
00001000
00000010
00000100
00000001
00000020
00000000
00000000
00000000
,
00000031
00001000
00000001
00001000
00000020
00000000
00000000
00000000
00000031
00000000
00000010
00000000
00000100
00000000
00000010
00000000
,
00001000
00000100
00010000
01000000
00010000
00001000
01000000
01000000
,
00100000
00000000
10000000
00100000
01000000
00100000
00010000
00100000
,
10000000
00000000
00010000
00100000
00010000
00000000
10000000
01000000
10000000
00000000
00010000
01000000
00100000
00000000
10000000
01000000
,
00100000
00000000
00010000
10000000
00100000
00000000
01000000
00000000
10000000
00000000
01000000
00000000
00100000
00000000
01000000
00000000
,
00010000
00100000
00001000
00000010
00001000
00010000
00000010
00000010
,
00000100
00000000
00000001
00000100
00000010
00000100
00001000
00000100
,
00000001
00000000
00001000
00000000
00000001
00000010
00000100
00000000
00001000
00000010
00000100
00000000
00000001
00001000
00000100
00000010
,
00000001
00000101
00001010
01010000
,
10100000
00000000
00000000
00000000
10010000
00000000
00000000
00000000
10000000
01000000
00100000
01000000
10000000
01000000
00100000
01000000
,
10000000
11000000
00110000
00001100
,
00000011
00000000
00000000
00000000
00001000
00000000
00000000
00000001
00000000
00000000
00000100
00000000
00000000
00000000
00000000
00000000
,
00000001
00001000
00000001
00001000
00000001
00000000
00000000
00000000
00001100
00000000
00000000
00000000
00110000
00000000
00000000
00000000
,
11000000
10010000
00000000
00000000
,
00100000
10100000
01010000
00001010
,
00000101
00000000
00000000
00000000
00001002
00000000
00000103
00000100
,
00000010
00000010
00010000
00001000
00000100
00001000
00010000
00100000
,
10000000
00000000
00010000
00100000
01000000
00000000
10000000
00000000
00100000
00000000
01000000
00000000
00010000
00000000
10000000
01000000
,
00100000
00000000
00001000
00100000
00001000
00000000
00010000
00000000
00100000
00000000
00010000
00000000
00001000
00000000
00000100
00000000
,
00000001
00000000
00001000
00000100
00000010
00000000
00000001
00000000
00000100
00000000
00000010
00000000
00001000
00000001
00001000
00000100
,
00000010
00000000
00000000
00000000
00000011
00000000
00000001
00000000
00001000
00000000
00000010
00010000
00000010
00010000
00000010
00000000
,
00010000
00002000
00000000
00103000
01000000
00200000
00000000
00310000
,
10000000
00100000
01000000
01000000
10000000
10000000
01000000
00010000
,
00100000
00000000
00001000
00010000
00001000
00000000
00010000
00000010
00010000
00000000
00001000
00100000
00001000
00000000
00010000
00001000
,
00010000
00000100
00000010
00000001
00001000
00000000
00000000
00000000
00000101
00000000
00000100
00000000
00000010
00000000
00000001
00000000
,
00000010
00000000
00001000
00000100
00010000
00000000
00001000
00000000
01000000
00000000
00100000
00000000
10000000
01000000
10000000
01000000
,
00100000
00010000
00100000
00010000
10000000
00000000
00000000
00000000
10100000
00000000
00100000
00000000
01000000
00000000
10000000
00000000
,
01000000
00000000
00010000
00100000
00001000
00000000
00010000
00000000
00000010
00000000
00000100
00000000
00000001
00000010
00000100
00001000
,
00000010
00000100
00000001
00001000
00000002
00000000
00000000
00000000
00000103
00000000
00001000
00000000
00020000
00000000
00000000
00000000
,
00130000
01000000
00001000
00010000
01000000
20000000
00000000
30100000
,
01000000
00000000
00100000
00000000
10000000
00010000
10000000
00010000
00100000
00000000
01000000
00000000
00100000
00000000
00001000
00000000
,
00010000
00000000
00000010
00000000
00000100
00000000
00000001
00000100
00000001
00001000
00000100
00001000
00000001
00000010
00000100
00001000
,
00000010
00010000
00001000
00000000
00200000
00000000
00000000
00000000
00301000
00000000
00011000
00000000
00021000
00000000
00000000
00000000
,
00030010
00001010
00000000
00000201
00000000
00001300
00000100
00000001
,
00001000
00000000
00001200
00000000
00010300
00011000
00012000
00000000
,
01003000
01020000
00000000
10000000
10030000
00000000
10010000
00000000
,
00000000
00000000
21000000
00000000
30100000
10010000
10020000
00000000
,
00130000
00011000
00000000
00010010
00000000
00010000
00000100
00000010
,
00000001
00000000
00000012
00000000
00000103
00001001
00002001
00000000
,
00003010
00010010
00000000
00011000
00012000
00000000
00103000
00000000
,
00000000
00000000
00110000
00000000
10010000
10000000
00100000
00000000
,
10010000
00010000
00100000
00001000
00011000
00000000
01001000
00000000
,
00011000
00000000
00000010
00000000
00001001
00000001
00000100
00000000
,
00001001
00000000
00001000
00000000
00000100
00000000
00010000
00000000
00011000
00000000
00000000
00000000
00010000
00000000
00000010
00010000
,
00001000
00000000
00100000
00001000
00010000
00000000
00000000
00000000
01001000
00000000
01000000
00000000
00100000
00000000
10000000
00000000
,
11000000
01000000
00100000
00010000
00110000
00000000
00011000
00000000
,
00011000
00000000
00010100
00000100
00000010
00000011
00000000
00001001
,
00000000
00000000
00000000
00001010
00000000
00000000
00020000
00030000
00000000
00000000
00000000
00000000
00002000
00000000
00003000
00000000
00000000
00000000
00020000
00000000
00000000
00030000
00000000
00000000
,
00002000
00000000
00000000
00000000
00000000
00000000
00000000
00000000
00003000
00000000
00000000
00000000
02001000
00000000
00000000
00000000
00000000
00000000
00000000
00000000
00000000
00000000
00000000
00000000
03100000
00000000
00000000
10000000
00000000
00000000
00010000
00000000
00000000
10000000
00000000
00000000
00100000
00000000
00000000
01000000
00000000
00000000
00100000
00000000
00000000
00000000
00000000
00000000
,
01000000
00000000
00002000
00000000
00000000
00000000
00103000
00000000
00010000
00000000
01000000
00000000
00001000
00010000
00001000
00010000
,
00001000
00000000
00000000
00000000
00010000
00000010
00010000
00000000
00000010
00010000
00000010
00000000
00001000
00000100
00001000
00000000
,
00000001
00000100
00000001
00000000
00001000
00000001
00001000
00000001
00000010
00000001
00001000
00000001
00000200
00000000
00000000
00000000
,
00000310
00000000
00000000
00000000
00001000
00000010
00000100
00000000
00000001
00000010
00000100
00000000
00001000
00000100
00001000
00000000
,
00000100
00010000
00000100
00000000
00010000
00001000
01000000
00000000
00010000
01000000
00100000
00000000
10000000
00100000
01000000
00010000
,
10000000
00000000
01000000
00000000
01000000
00000000
00000000
00000000
10000000
00010000
10000000
00100000
01000000
00010000
00100000
00001000
,
00010000
00000100
00000000
00022000
00000000
00000000
00000000
00000000
,
00033000
00000000
00000000
00000000
00001000
01000000
00001000
01000000
00010000
00000000
01000000
00010000
01000000
00010000
00100000
00000000
,
00010000
00100000
00010000
00100000
01000000
00000000
00100000
00001000
00100000
00001000
00010000
00000000
00011000
00000000
00000000
00000000
,
00011000
00000000
00000000
00000000
00010000
00000010
00010000
00000010
00001000
00000000
00000010
00001000
00000010
00001000
00000100
00000000
,
00001000
00000100
00001000
00000100
00000010
00000000
00000100
00010000
00000100
00010000
00001000
00000000
00011000
00000000
00000000
00000000
,
00011000
00000000
00000000
00000000
00010000
00001000
00100000
00001000
00010000
00000000
00001000
00010000
00000010
00010000
00001000
00000000
,
00010000
00001000
01000000
00001000
00010000
00000000
00001000
00010000
00000100
00010000
00001000
00000000
00010000
00001000
01000000
00100000
,
10000000
00000000
00010000
00000000
10000000
01000000
00100000
00010000
01000000
00000000
00001000
00010000
00001000
00010000
00001000
00000000
,
00010000
00000000
00000000
00000100
00000000
00000000
00000010
00000000
00000000
00000001
00000000
00000000
00001000
00000000
00000000
00000000
00000000
00000000
00000010
00000000
00000000
00000100
00000000
00000000
00000010
00000000
00000000
00000000
00000000
00000000
00001000
00000000
00000000
00000000
00000000
00000000
00000001
00000000
00000000
00000000
00000010
00000000
00000000
00000000
00000100
00000000
00000000
00000000
,
00001000
00000000
00000000
00000000
00000000
00000000
00000000
00000000
00000000
00000000
00000000
00000000
00000000
00000000
00000000
00000000
00000010
00000000
00000000
00000000
00000000
00000000
00000000
00000000
00000000
00000000
00000000
00000000
00000000
00000000
00000000
00000000
00010000
00000000
00000000
00000000
00000000
00000000
00000000
00000000
00000000
00000000
00000000
00000000
00000000
00000000
00000000
00000000
00000000
00000000
00000000
00000000
00000000
00000000
00000000
00000000
00000000
00000000
00000000
00000000
00000000
00000000
00000000
00000000
00000000
00000000
00000000
00000000
00000000
00000000
00000000
00000000
00000000
00000000
00000000
00000000
00000000
00000000
00000000
00000000
00000000
00000000
00000000
00000000
00000000
00000000
00000000
00000000
00000000
00000000
00000000
00000000
00000000
00000000
00000000
00000000
00000000
00000000
00000000
00000000
00000000
00000000
00000000
00000000
00000000
00000000
00000000
00000000
00000000
00000000
00000000
00000000
00000000
00000000
00000000
00000000
00000000
00000000
00000000
00000000
00000000
00000000
00000000
00000000
00000000
00000000
00000000
00000000
00000000
00000000
00000000
00000000
00000000
00000000
00000000
00000000
00000000
00000000
00000000
00000000
00000000
00000000
00000000
00000000
00000000
00000000
00000000
00000000
00000000
00000000
00000000
00000000
00000000
00010000
00000000
00000000
00000000
00000000
00000000
00000000
00000000
00000000
00000000
00000000
00000000
00000000
00000000
00000000
00000000
00000000
00000000
00000000
00000000
00000000
00000000
00000000
00000000
00000000
00000000
00000000
00000000
00000000
00000000
00000000
00000000
00000000
00000000
00000000
00000000
00000000
00000000
00000000
,
00000000
00000000
00000000
00000000
00001000
00000000
00000000
00000000
00000000
00000000
00000000
00000000
00000000
00000000
00000000
00000000
00000000
00000000
00000000
00000000
00000000
00000000
00000000
00000000
00000000
00000000
00000000
00000000
00000000
00000000
00000000
00000000
00000000
00000000
00000000
00000000
00000000
00000000
00000000
00000000
00000000
00000000
00000000
00000000
00000000
00000000
00000000
01000000
00000000
00000000
00000000
00000000
00000000
00000000
00000000
00000000
00000000
00000000
00000000
00000000
00000000
00000000
00000000
00000000
00000000
00000000
00000000
00000000
00000000
00000000
00000000
00000000
00000000
00000000
00000000
00000000
00000000
00000000
00000000
00000000
00000000
00000000
00000000
00000000
00000000
00000000
00000000
00000000
00000000
00000000
00100000
00000000
00000000
00000000
00000000
00000000
00000000
00000000
00000000
00000000
00000000
00000000
00000000
00000000
00000000
00000000
00000000
00000000
00000000
00000000
00000000
00000000
00000000
00000000
00000000
00000000
00000000
00000000
00000000
00000000
00000000
00000000
00000000
00000000
00000000
00000000
00000000
00000000
00000000
00000000
00000000
00000000
00000000
00000000
00000000
00000000
00000000
00000000
00000000
00000000
00000000
00000000
00000000
00000000
00000000
00000000
00000000
00000000
00000000
00000000
00000000
00000000
00000000
00000000
00000000
00000000
00000000
00000000
00000000
00000000
00000000
00000000
00000000
00000000
00000000
00000000
00000000
00000000
00000000
00000000
00000000
00000000
00000000
00000000
00000000
00000000
00000000
10000000
00000000
00000000
00000000
00000000
00000000
00000000
00000000
00000000
00000000
00000000
00000000
00000000
00000000
00000000
,
00000000
00000000
00000000
00000000
00000000
00000000
00000000
00000000
00000000
00000000
00000000
00000000
00000000
00000000
00000000
00000000
00000000
00000000
00000000
00000000
00000000
00000000
00000000
00000000
00000000
00000000
00000000
00000000
00000000
00000000
00000000
00000000
00010000
00000000
00000000
00000000
00000000
00000000
00000000
00000000
00000000
00000000
00000000
00000000
00000000
00000000
00000000
00000000
00000000
00000000
00000000
00000000
00000000
00000000
00000000
00000000
00000000
00000000
00000000
00000000
00000000
00000000
00000000
00000000
00000000
00000000
00000000
00000000
00000000
00000000
00000000
00000000
00000000
00000000
00000000
00000000
00000000
00000000
00000000
00000000
00000000
00000000
00000000
00000000
00000000
00000000
00000000
00000000
00000000
00000000
00000000
00000000
00000000
00000000
00000000
00000000
00000000
00000000
00000000
00000000
00000000
00000000
00000000
00000000
00000000
00000000
00000000
00000000
00000000
00000000
00000000
00000000
00000000
00000000
00000000
00000000
00000000
00000000
00000000
00000000
00000000
00000000
00000000
00000000
00000000
00000000
00000000
00000000
00000000
00000000
00000000
00000000
00000000
00000000
00000000
00000000
00000000
00000000
00000000
00000000
00000000
00000000
00000000
00000000
00000000
00000000
00000000
00000000
00000000
00000000
00000000
00000000
00000000
00000000
00000000
00000000
00000000
00000000
00000000
00200000
00000000
00000000
00000000
00000000
00000000
00000000
00000000
00000000
00000000
00000000
00000000
00000000
00000000
00000000
00000000
00000000
00000000
00000000
00000000
00000000
00000000
00000000
00000000
00000000
00000000
00000000
00000000
00000000
00000000
00000000
00000000
00000000
,
00000000
00000000
00000000
00000000
00000000
00000000
00000000
00000000
00000000
00000000
00002000
00000000
,
00000000
00000000
00000000
00000000
,
00000000
00000000
00303000
00000000
;
