#TITLE:Afraid To Feel;
#SUBTITLE:;
#ARTIST:LF SYSTEM;
#TITLETRANSLIT:;
#SUBTITLETRANSLIT:;
#ARTISTTRANSLIT:;
#GENRE:;
#CREDIT:;
#BANNER:banner.png;
#BACKGROUND:bg.png;
#LYRICSPATH:;
#CDTITLE:;
#MUSIC:Afraid To Feel.ogg;
#OFFSET:-0.637000;
#SAMPLESTART:88.194191;
#SAMPLELENGTH:15.196877;
#SELECTABLE:YES;
#BPMS:0.000000=100.000000
,33.000000=128.000000
,97.000000=126.999992
,101.000000=125.999992
,105.000000=124.000000
,109.000000=122.000000
,113.000000=121.000000
,117.000000=120.000000
,119.000000=118.000000
,124.000000=117.000000
,126.000000=116.000000
,128.000000=115.000000
,129.000000=100.000000
,167.000000=128.000000
,231.000000=100.000000
;
#STOPS:
;
#BGCHANGES:;
#KEYSOUNDS:;
#ATTACKS:;

//---------------dance-single - DS FS XO----------------
#NOTES:
     dance-single:
     :
     Challenge:
     14:
     0.540300,0.614592,0.059796,0.523216,0.661494,506.000000,498.000000,8.000000,70.000000,14.000000,0.000000,0.540300,0.614592,0.059796,0.523216,0.661494,506.000000,498.000000,8.000000,70.000000,14.000000,0.000000:
// measure 0
0000
0000
0000
0000
,  // measure 1
0000
0000
0000
0000
,  // measure 2
0000
0000
0000
0000
,  // measure 3
0000
0000
0000
0000
,  // measure 4
0000
1000
0100
0010
0001
0000
1000
0020
0000
0000
0000
0000
0000
0000
0000
0000
,  // measure 5
0000
0000
0000
0000
0130
0000
0001
0000
1000
0000
0000
0000
0001
0000
0020
0000
0000
0000
0000
0030
0000
0000
0000
0000
0000
0000
0000
0000
0000
0000
0000
0000
,  // measure 6
0000
0000
0000
0001
0100
0000
0100
0010
0000
0010
2000
0000
0000
0000
0000
0000
,  // measure 7
0000
0000
0000
0000
0000
0000
0000
0000
3001
0000
0100
00M0
0200
0000
1000
0000
0000
0000
0000
0000
0320
0000
0000
0000
0000
0000
0000
0000
0000
0000
0000
0000
,  // measure 8
0031
2000
0000
0000
3010
0000
0100
0000
0001
1000
0001
1000
0200
0000
0000
0320
,  // measure 9
0000
0031
1000
0010
0200
1000
0000
0310
,  // measure 10
1000
0000
0001
0010
0001
0000
0100
00M0
0100
0000
2000
0000
0000
3100
0010
0000
,  // measure 11
0001
0000
1000
0000
0010
0000
0100
1000
0100
0000
0001
0000
0010
0000
0100
0000
,  // measure 12
1000
0001
0100
0001
0010
0000
0010
0002
0000
0000
1003
0100
0000
0100
1000
0000
,  // measure 13
0001
1000
0100
1000
0010
0000
0010
2000
0000
0000
3001
0100
0000
0100
0001
0000
,  // measure 14
1000
0100
00M0
0100
0001
0000
0100
1000
0000
0100
0020
0000
0000
0000
1030
0000
,  // measure 15
0001
0000
0000
0000
0010
0000
0000
0000
0001
0000
0100
00M0
0200
0000
1000
0000
0000
0000
0000
0000
0320
0000
0000
0000
0000
0000
0000
0000
0000
0000
0031
0000
,  // measure 16
0010
0100
1000
0001
0100
00M0
0100
0000
1000
0001
1000
0001
0200
0000
0000
0320
,  // measure 17
0000
1030
0001
0010
0200
0001
0000
0310
,  // measure 18
0001
0000
1000
0010
1000
0000
0100
00M0
0100
0000
0002
0000
0000
0103
0010
0000
,  // measure 19
1000
0000
0001
0000
0010
0000
0100
0001
0100
0000
1000
0000
0010
0000
0100
0000
,  // measure 20
0001
1000
0100
1000
0010
0000
0010
2000
0000
0000
3001
0100
0000
0100
0001
0000
,  // measure 21
1000
0001
0100
0001
0010
0000
0010
0002
0000
0000
1003
0100
0000
0100
1000
0000
,  // measure 22
0001
0100
00M0
0100
1000
0000
0100
0001
0000
0100
0020
0000
0000
0000
0031
0000
,  // measure 23
1000
0000
0000
0000
0010
0000
0000
0000
1000
0000
0100
00M0
0200
0000
0001
0000
0000
0000
0000
0000
0320
0000
0000
0000
0000
0000
0000
0000
0000
0000
1030
0000
,  // measure 24
0010
0100
0001
1000
0200
0000
0000
0000
0000
0310
0001
0000
2000
0000
0000
3020
,  // measure 25
0000
0000
0130
0001
0200
1000
0000
0310
,  // measure 26
1000
0000
0001
0000
1000
0100
1000
0100
0000
0000
0010
0001
0010
0001
0000
0000
,  // measure 27
1000
0000
0000
0010
0000
0000
1000
0000
0000
0010
0000
0000
0000
0000
0000
0000
0000
0000
0100
0000
0000
0001
0000
0000
0100
0000
0000
0001
0000
0000
0000
0000
0000
0000
0000
0000
1000
0000
0000
0000
0100
0000
0000
0000
0010
0000
0000
0000
,  // measure 28
0001
1000
0020
0000
0000
0230
0000
0000
,  // measure 29
0000
0000
0301
0010
0100
0000
1000
0000
0200
0000
0001
0000
0000
0000
0310
0000
,  // measure 30
0001
0000
0010
0100
1000
0000
0100
00M0
0100
0000
0002
0000
0000
0000
0000
0000
,  // measure 31
0000
0000
2000
0000
0000
3003
0000
0000
,  // measure 32
1000
0001
0000
0000
1000
0000
1000
0000
0200
0000
0000
0000
0310
0000
0010
0000
,  // measure 33
0002
0000
0010
0000
1003
0000
0001
0100
0001
0000
1000
0010
1000
0000
0001
0100
,  // measure 34
0001
1000
0001
0010
0001
0000
0001
0000
0200
0000
0000
0000
0310
0000
0010
1000
,  // measure 35
0001
0001
1000
1100
0001
0012
0000
0000
,  // measure 36
1003
0000
0001
0001
0200
0000
0310
0010
,  // measure 37
2000
0000
0010
0000
3001
0000
1000
0100
1000
0000
0001
0010
0001
0000
1000
0100
,  // measure 38
1000
0001
1000
0010
1000
0000
2000
0000
0000
0100
0000
0000
3002
0000
0000
0103
,  // measure 39
0010
1000
0001
0101
1000
2010
0000
0000
,  // measure 40
0000
0000
0000
0000
0000
0000
0000
0000
3000
0000
0000
0000
0001
0020
0000
0000
,  // measure 41
0030
0000
0100
2000
0000
0000
3000
0000
0001
2000
0000
0000
3010
0000
0100
0000
,  // measure 42
0001
1000
0001
1000
0100
0010
0001
0000
0001
0010
0000
0000
0100
0000
1000
0000
,  // measure 43
0200
0000
0001
0000
0000
0000
0310
0000
0001
0000
0010
0100
1000
0000
0100
00M0
,  // measure 44
0100
0000
0001
0100
0000
0100
0010
0000
0010
1000
0000
0000
0001
0000
0010
1000
,  // measure 45
0010
0000
0100
1000
0000
1000
0100
0000
1000
0001
0100
0001
0010
0000
0010
0002
,  // measure 46
0000
0000
1003
0100
0000
0100
1000
0000
0001
1000
0100
1000
0010
0000
0010
2000
,  // measure 47
0000
0000
3001
0100
0000
0100
0001
0000
1000
0100
00M0
0100
0001
0000
0100
1000
,  // measure 48
0000
0000
0100
0000
0020
0000
0000
0000
0000
0000
0000
0000
0000
0000
0000
0000
2030
0000
0000
0000
0000
0000
0000
0000
3001
0000
0100
00M0
0200
0000
1000
0000
,  // measure 49
0000
0000
0320
0000
0000
0000
0000
0031
0010
0100
1000
0001
0100
00M0
0100
0000
,  // measure 50
1000
0001
1000
0001
0100
0010
1000
0000
1000
0010
0000
0000
0100
0000
0001
0000
,  // measure 51
0200
0000
1000
0000
0000
0000
0310
0000
1000
0000
0010
0100
0001
0100
0010
1000
,  // measure 52
0000
0000
0010
0100
0001
1000
0000
0000
0001
0010
0100
1000
0000
0000
0100
0010
,  // measure 53
0001
0000
0000
1000
0000
0000
0000
0000
0000
0000
0000
0000
0001
0000
0000
0000
0100
0000
0000
0000
0001
0000
0000
0000
0010
0000
0000
0100
0000
0000
1000
0000
0000
0100
0000
0000
0020
0000
0000
0000
0000
0000
0000
0000
0000
0000
0000
0000
,  // measure 54
0031
0000
1000
0010
0M00
0010
0001
0000
1000
0001
0100
0001
0010
0000
0010
0002
,  // measure 55
0000
0000
1003
0100
0000
0100
1000
0000
0001
0100
0001
0010
0100
0000
1000
0000
,  // measure 56
0200
0000
0001
0000
0000
0000
0000
0000
0320
0000
0000
0000
0031
0010
0100
2000
,  // measure 57
0000
0000
3002
0000
0000
0000
0000
0000
1003
0020
0000
0000
0130
0000
0100
0000
,  // measure 58
0002
0000
0000
0000
1003
0000
1000
0000
0200
0000
0010
0000
1300
0000
0001
0100
,  // measure 59
0001
0000
1000
0010
1000
0000
0001
0100
0001
1000
0001
0010
0100
0000
0100
0000
,  // measure 60
2000
0000
0000
0000
3001
0000
0001
0100
0010
0000
1000
0000
1001
0000
0011
0000
,  // measure 61
0110
0000
2100
0000
0000
3001
0010
0001
0100
0010
1000
0100
1000
0001
0100
0020
,  // measure 62
0000
2030
0000
0000
3001
0020
0000
0000
0030
0000
0100
2000
0000
0000
3000
0000
,  // measure 63
0002
2000
0000
0000
3003
0000
0000
0000
0000
0000
0000
0000
0000
0000
0000
0000
;

//---------------dance-single - ----------------
#NOTES:
     dance-single:
     :
     Hard:
     12:
     0.428183,0.496401,0.089694,0.396149,0.321404,401.000000,389.000000,12.000000,53.000000,0.000000,0.000000,0.428183,0.496401,0.089694,0.396149,0.321404,401.000000,389.000000,12.000000,53.000000,0.000000,0.000000:
0000
0000
0000
0000
,
0000
0000
0000
0000
,
0000
0000
0000
0000
,
0000
0000
0000
0000
,
1000
0100
0001
0100
0020
0000
0000
0000
,
0031
0010
1000
0010
0200
0300
0000
0000
,
1000
0000
0001
0100
0001
0000
1000
0100
0000
0010
0002
0000
0000
0000
0000
0000
,
0000
0000
0000
0000
1003
0010
0100
0002
0000
0000
0000
0000
0000
0000
0000
0000
,
2003
0000
0000
0000
3100
0000
0010
0000
0001
0000
1000
0010
1000
0000
0100
0000
,
0020
0000
0031
1000
0200
0001
0000
0310
,
0001
0000
1000
0010
1000
0000
0100
0000
0010
0000
0002
0000
0000
0000
0000
0000
,
1003
0000
0010
0000
0100
0000
0001
1000
0001
0000
0020
0000
0000
0000
0000
0000
,
0000
0130
1000
0100
1000
0000
0100
2000
0000
0000
0000
0000
0000
0000
0000
0000
,
0000
0000
3001
0100
0001
0000
0100
0002
0000
0000
0003
0000
0000
0000
0000
0000
,
0000
0000
0000
1000
0100
0000
0100
0010
0000
0010
0002
0000
0000
0000
0000
0000
,
0000
0000
0000
0000
1003
0010
0100
0002
0000
0000
0000
0000
1003
0000
0000
0000
,
0110
0000
1001
0100
1001
1000
0100
0010
,
0001
0000
1000
0001
0200
1000
0000
0310
,
1000
0000
0001
0010
0001
0000
0100
0000
0010
0000
2000
0000
0000
0000
0000
0000
,
3001
0000
0010
0000
0100
0000
1000
0001
1000
0000
0020
0000
0000
0000
0000
0000
,
0000
0130
0001
0100
0001
0000
0100
0002
0000
0000
0000
0000
0000
0000
0000
0000
,
0000
0000
1003
0100
1000
0000
0100
2000
0000
0000
3000
0000
0000
0000
0000
0000
,
0000
0000
0000
0001
0100
0000
0100
0010
0000
0010
2000
0000
0000
0000
0000
0000
,
0000
0000
0000
0000
3001
0010
0100
2000
0000
0000
3000
0000
0000
0000
0000
0000
,
0001
0000
0100
0010
1000
0000
0000
0000
1000
0000
0000
0000
0100
0000
0000
0000
,
0100
0000
1000
0001
0020
1000
0000
0130
,
1000
0000
0100
0000
0010
0000
0010
0001
0000
0000
1000
0000
1000
0010
0000
0000
,
0100
0000
0000
0000
0000
0000
0100
0000
0000
0001
0000
0000
0000
0000
0000
0000
0000
0000
1000
0000
0000
0000
0000
0000
1000
0000
0000
0100
0000
0000
0000
0000
0000
0000
0000
0000
0010
0000
0000
0000
0001
0000
0000
0000
0010
0000
0000
0000
,
0001
0000
2000
0000
3010
0200
0000
0000
,
0301
1000
0100
1000
0020
0001
0000
0130
,
0001
1000
0100
0010
0002
0000
0000
0000
,
0000
2000
0000
0000
,
3003
0000
1000
2000
0100
0000
3001
0001
,
0100
0010
1000
0001
0001
0010
0010
0100
,
0100
1000
0001
0002
0100
0000
1003
1000
,
0100
0010
0011
0001
1000
1020
0000
0000
,
0130
0000
0001
0002
0010
0000
1003
1000
,
0010
0100
0001
1000
1000
0100
0100
0010
,
0010
0000
0001
0000
1000
0000
2000
0000
0000
3020
0000
0000
0130
0000
0000
0001
,
1000
0010
1010
1000
0001
0021
0000
0000
,
0000
0000
0000
0000
0000
0000
0000
0000
0130
0000
0000
0000
1000
0001
0000
0000
,
0000
0000
1000
0001
0000
0000
0000
0000
1000
0001
0000
0000
0100
0000
0010
0000
,
1000
0000
0001
0010
0001
0000
0100
0000
0020
0000
0000
0000
1030
0000
0001
0000
,
0200
0000
1000
0000
0000
0000
0310
0000
1000
0000
0001
0010
0001
0000
0100
0000
,
0010
0000
2000
0000
0000
3100
1000
0000
0001
0000
0010
0000
0100
0000
1000
0001
,
1000
0000
0020
0000
0000
0000
0000
0000
0000
0130
0001
0100
0001
0000
0100
0002
,
0000
0000
0000
0013
0000
0100
0010
0000
0100
0000
1000
0100
1000
0000
0100
2000
,
0000
0000
3000
0010
0000
0100
0010
0000
0100
0000
0000
0001
0100
0000
0100
0010
,
0000
0010
2000
0000
0000
0000
0000
0000
0000
0000
0000
0000
3001
0010
0100
2000
,
0000
0000
3001
0000
0110
0000
1001
0100
,
1001
0000
1000
0100
1000
0000
0010
0000
0100
0000
0000
0000
0001
0000
1000
0000
,
0200
0000
0001
0000
0000
0000
0310
0000
0001
0000
1000
0010
1000
0000
0001
0100
,
0000
0000
0010
0000
0010
1000
0000
0000
0001
0000
0001
0010
0000
0000
0100
0000
,
0100
0000
0000
1000
0000
0000
0000
0000
0000
0000
0000
0000
0001
0000
0000
0000
1000
0000
0000
0000
0001
0000
0000
0000
1000
0000
0000
0100
0000
0000
1000
0000
0000
0100
0000
0000
0020
0000
0000
0000
0000
0000
0000
0000
0000
0000
0000
0000
,
0031
0000
2000
0000
0000
0000
0000
0000
0000
0000
3001
0100
0001
0000
0100
0002
,
0000
0000
0003
0010
0000
0100
0010
0000
0100
0000
1000
0100
0001
0000
1000
0000
,
0010
0000
0002
0000
0000
0000
0000
0000
0000
0000
0000
0000
1003
0010
0100
0002
,
0000
0000
0003
0000
1000
0000
0100
0000
0010
0001
0000
0000
1000
0000
2000
0000
,
0010
0000
3001
0001
0100
1000
0100
0010
,
0010
1000
1000
0100
0100
0010
0001
0002
,
0100
0000
1003
1000
0010
0100
0101
0001
,
1000
0000
2100
0000
0000
3100
0001
0000
0100
1000
0100
0000
0010
0001
1000
0001
,
0000
0200
0000
0000
0301
1000
0000
0000
0000
0000
0001
1000
0000
0000
0000
0000
,
0200
0020
0000
0000
0330
0000
0000
0000
0000
0000
0000
0000
0000
0000
0000
0000
;
