#VERSION:0.83;
#TITLE:Acceleration / Fission;
#SUBTITLE:;
#ARTIST:DV-i feat. PAiDA;
#TITLETRANSLIT:;
#SUBTITLETRANSLIT:;
#ARTISTTRANSLIT:;
#GENRE:Pop;
#CREDIT:;
#MUSIC:Acceleration - Fission.ogg;
#BANNER:Acceleration - Fission.png;
#BACKGROUND:Acceleration - Fission-bg.png;
#CDTITLE:;
#SAMPLESTART:34.652;
#SAMPLELENGTH:15.000;
#SELECTABLE:YES;
#OFFSET:0.000;
#BPMS:0.000=187.000;
#STOPS:;
#TIMESIGNATURES:0.000=4=4;
#BGCHANGES:;
#FGCHANGES:;

//--------------- dance-single - Extraordiberry ----------------
#NOTEDATA:;
#STEPSTYPE:dance-single;
#DESCRIPTION:Extraordiberry;
#DIFFICULTY:Beginner;
#METER:4;
#RADARVALUES:0,0,0,0,0;
#CREDIT:Extraordiberry;
#NOTES:
0000
0000
0000
0000
,
0000
0000
0000
0000
,
0000
0000
0000
0000
,
0000
0000
0000
0000
,
0000
0000
0000
0000
,
0000
0000
0000
0000
,
0000
0000
0000
0000
,
0000
0000
0000
0000
,
0000
0000
0000
0000
,
1000
0000
0000
0000
,
0000
0000
0000
0000
,
0001
0000
0000
0000
,
0000
0000
0000
0000
,
0010
0000
0000
0000
,
0000
0000
0000
0000
,
0100
0000
0000
0000
,
1000
0000
0001
0000
,
1000
0000
0000
0000
,
0000
0000
0000
0000
,
0001
0000
0000
0000
,
0100
0000
0000
0000
,
0010
0000
0000
0000
,
1000
0000
0000
0000
,
0001
0000
0000
0000
,
0010
0000
0010
0000
,
0010
0000
0000
0000
,
0100
0000
0000
0000
,
1000
0000
0000
0000
,
0010
0000
0000
0000
,
0100
0000
0000
0000
,
0001
0000
0000
0000
,
1000
0000
0000
0000
,
0100
0000
0100
0000
,
0100
0000
0000
0000
,
0010
0000
0000
0000
,
1001
0000
0000
0000
,
0000
0000
0000
0000
,
1001
0000
0000
0000
,
0000
0000
0000
0000
,
1000
0000
0000
0000
,
0010
0000
0000
0000
,
1000
0000
0000
0000
,
0001
0001
0001
0000
,
1000
0000
0100
0000
,
1000
0000
0000
0000
,
0001
0000
0010
0000
,
0001
0000
0000
0000
,
0100
0000
0010
0000
,
0100
0000
0000
0000
,
0001
0000
0001
0000
,
1000
1000
1000
0000
,
0001
0000
0000
0000
,
0000
0000
0000
0000
,
0010
0000
0000
0000
,
0000
0000
0000
0000
,
0100
0000
0000
0000
,
0000
0000
0000
0000
,
1000
0000
0000
0000
,
0000
0000
0000
0000
,
0001
0000
0100
0000
,
0001
0000
0000
0000
,
1000
0000
0100
0000
,
1000
0000
0000
0000
,
0001
0000
0000
0000
,
0010
0000
0010
0000
,
0010
0000
0000
0000
,
0001
0000
0000
0000
,
1000
0000
0010
0000
,
1000
0000
0000
0000
,
0001
0000
0010
0000
,
0001
0000
0000
0000
,
1000
0000
0000
0000
,
0010
0000
0010
0000
,
0010
0000
0000
0000
,
1000
0000
0000
0000
,
0001
0000
1000
0000
,
0001
0000
0000
0000
,
0010
0000
0100
0000
,
0010
0000
0000
0000
,
0001
0000
0000
0000
,
0100
0000
0100
0000
,
0100
0000
0000
0000
,
0001
0000
0000
0000
,
1001
0000
0000
0000
;

//--------------- dance-single - Extraordiberry ----------------
#NOTEDATA:;
#STEPSTYPE:dance-single;
#DESCRIPTION:Extraordiberry;
#DIFFICULTY:Easy;
#METER:7;
#RADARVALUES:0,0,0,0,0;
#BPMS:0.000=187.000;
#STOPS:68.000=2.0855614973262032085561497326203
,68.500=0.1604278074866310160427807486631
,225.000=0.96256684491978609625668449197861
;
#TIMESIGNATURES:0.000=4=4,
68.000=1=4,
69.000=4=4,
225.000=1=4,
226.000=4=4
;
#CREDIT:Extraordiberry;
#NOTES:
0000
0000
0000
0000
,
0000
0000
0000
0000
,
0000
0000
0000
0000
,
0000
0000
0000
0000
,
0000
0000
0000
0000
,
0000
0000
0000
0000
,
0000
0000
0000
0000
,
0000
0000
0000
0000
,
0000
0000
0000
0000
,
2000
0000
0000
0000
,
0000
0000
0000
0000
,
3002
0000
0000
0000
,
0000
0000
0000
0000
,
0203
0000
0000
0000
,
0320
0000
0000
0000
,
2030
0000
0000
0000
,
0010
0000
0100
0000
,
3002
0003
0000
0000
1000
0000
0000
0000
0100
0000
0000
0000
0010
0000
0000
0000
,
0001
1000
1000
0001
,
0000
1000
0010
0100
,
0000
0001
0010
0100
,
0000
1001
0000
0001
,
0100
0010
1000
0001
,
0000
1000
0100
0010
,
0000
0001
0001
0100
,
0000
0001
0010
0100
,
1000
0001
0001
1000
,
0000
0001
0100
0010
,
0000
1000
0100
0010
,
0000
1001
0000
0001
,
0100
0010
1000
0001
,
0000
1000
0100
0010
,
0000
0001
0100
0010
,
1000
2002
0000
0000
,
0000
0000
0000
3003
,
0000
0220
0000
0000
,
0330
1000
0100
0010
,
0001
1000
0010
0100
,
0000
0001
0010
0100
,
0000
1000
1000
0010
,
0010
1000
0100
0001
,
0100
1000
1000
0001
,
0100
0010
0010
1000
,
0000
0001
0001
0010
,
0100
2000
0000
3002
,
0000
1003
1000
0010
,
0100
0001
0001
0001
,
0001
1000
0100
0010
,
0100
1000
0010
0001
,
0010
2000
0000
0000
,
0000
3200
0000
0000
,
0000
0320
0000
0032
,
0000
2003
0000
3020
,
0000
0230
0000
0302
,
0000
2003
3200
0320
,
0032
2003
0000
0001
,
3001
0000
0000
0000
2000
3000
0000
0000
0001
0000
0000
0000
0100
0000
0000
0000
,
0010
1000
0001
0001
,
1000
0000
0001
0010
,
0100
0000
1000
0010
,
0100
0000
1001
0000
,
0001
0010
0001
0100
,
1000
0100
0001
0010
,
0100
0000
1000
0010
,
0100
0000
1001
1000
,
0100
0010
0001
0001
,
0100
0000
0010
1000
,
0001
0000
0010
0001
,
1000
0000
1001
0000
,
1000
0010
1000
0100
,
0001
0100
1000
0010
,
0100
0000
0001
0010
,
0100
0000
1001
0001
,
0100
0010
1000
1000
,
0100
0000
0010
0001
,
1000
0000
0010
1000
,
0001
0000
1001
0000
,
1000
0100
1000
0010
,
0001
0010
1000
0100
,
0010
0010
0001
0100
,
0010
0010
2002
0000
,
0000
0000
0000
0000
,
0000
0000
0000
0000
,
0000
0000
3003
0000
;

//--------------- dance-single - Extraordiberry ----------------
#NOTEDATA:;
#STEPSTYPE:dance-single;
#DESCRIPTION:Extraordiberry;
#DIFFICULTY:Medium;
#METER:12;
#RADARVALUES:0,0,0,0,0;
#BPMS:0.000=187.000;
#STOPS:68.000=2.0855614973262032085561497326203
,68.500=0.1604278074866310160427807486631
,225.000=0.96256684491978609625668449197861
;
#TIMESIGNATURES:0.000=4=4,
68.000=1=4,
69.000=4=4,
225.000=1=4,
226.000=4=4
;
#CREDIT:Extraordiberry;
#NOTES:
0000
0000
0000
0000
,
0000
0000
0000
0000
,
0000
0000
0000
0000
,
0000
0000
0000
0000
,
0000
0000
0000
0000
,
0000
0000
0000
0000
,
0000
0000
0000
0000
,
0000
0000
0000
0000
,
0000
0000
0000
0000
0000
0000
0000
1000
,
0010
0200
0000
0302
0000
2003
0000
3200
,
0000
0001
0000
0320
0000
0000
0000
0031
,
0010
0200
0000
2300
0000
3002
0000
0203
,
0000
1000
0000
0320
0000
0000
0000
1030
,
0100
0020
0000
0032
0000
2003
0000
3020
,
0000
0001
0000
0230
0000
0302
0000
2003
,
0000
3100
0020
0000
0000
0000
0000
0000
,
0230
0000
2300
0000
,
3002
0003
0000
0000
1000
0000
0000
0000
0001
0000
0100
0000
0010
0000
0100
0000
,
0001
0000
0110
0000
1000
0100
0010
0100
,
1000
0101
1000
1010
,
0001
0000
1000
0100
0010
0000
0001
0100
,
0010
0000
1001
0000
1000
0000
0100
0010
,
0001
0000
0000
0000
1000
0000
0000
1000
0010
0000
0000
0010
0100
0000
0000
0100
,
0001
0000
1001
0000
0001
0000
1000
0100
,
0010
0000
0001
0000
0100
0010
0000
0010
,
1000
0000
1001
0000
1000
0100
0010
0100
,
1000
0000
0110
0000
0001
0100
0010
0100
,
0001
1100
0001
0011
,
1000
0000
0001
0100
0010
0000
1000
0100
,
0010
0000
0110
0000
0001
0000
0100
0010
,
1000
0000
0000
0000
0001
0000
0000
0001
0010
0000
0000
0010
0100
0000
0000
0100
,
1000
1001
0001
0101
,
1000
0000
0001
0010
0100
1000
0001
0100
,
0010
2002
0000
0000
,
0000
0000
0000
3003
,
0000
0020
0200
0000
0000
0000
0000
0000
,
0330
2000
3020
0230
,
0302
0000
1003
0100
0000
0010
0000
0100
,
0100
1000
0001
0100
0000
0010
0000
0100
,
0100
0001
1000
0100
0010
0100
1000
0100
,
0001
0100
1000
1000
0001
0001
1000
0001
,
1001
0000
0000
0000
1000
0000
0010
0000
0100
0010
0000
0000
1000
0000
0100
0000
,
0010
0000
0001
0001
0100
1000
0100
0100
,
0001
0000
0000
0000
1000
0000
0100
0000
0010
0100
0000
0000
1000
0000
1000
0000
,
0010
0000
1000
0100
0020
0000
0031
0100
,
0020
0000
0000
0000
1030
0000
0001
0000
0010
0000
0100
0000
1000
0001
1000
0000
,
0001
0000
1000
1000
0100
0100
0001
1000
,
0010
0000
0001
0000
1000
0000
1000
0000
0010
0100
0000
0000
0001
0000
0010
0000
,
0100
1000
0001
0001
0100
1000
0001
0010
,
1000
0001
2000
0000
0000
0000
0000
0000
,
0000
3200
0000
0000
,
0010
0320
0000
0032
,
0000
0203
0000
0320
,
0000
2030
0000
3200
,
0000
0320
0032
0203
,
0320
2030
0000
0001
,
3001
0000
0000
0000
2002
3003
0000
0000
1000
0000
0000
0000
0001
0000
0100
0000
,
1000
0100
0001
0000
0110
0000
1000
0100
,
0001
0100
1000
0000
0101
0000
1000
0000
,
1010
0000
0001
0000
1000
0100
0010
0000
,
0001
0100
0010
0000
1001
0000
1000
0100
,
0010
0000
0001
0000
0100
0000
0000
0000
0001
0000
0000
0001
0100
0000
0000
0100
,
0010
0000
0000
0010
1000
0000
0000
0000
1001
0000
0000
0000
0001
0000
1000
0000
,
0100
0010
0001
0000
0101
0000
1010
0000
,
1100
0000
0011
0000
1001
0000
1000
0100
,
0001
0100
1000
0000
0011
0000
0001
0100
,
1000
0100
0001
0000
1010
0000
0001
0000
,
0011
0000
1000
0000
0001
0100
0010
1000
,
0001
0010
0100
0000
1001
0000
0001
0100
,
0010
0000
1000
0000
0100
0000
0000
0000
1000
0000
0000
1000
0100
0000
0000
0100
,
0010
0000
0000
0010
0001
0000
0000
0000
1001
0000
0000
0000
0001
0000
0100
0000
,
1000
0100
0001
0000
1100
0000
0011
0000
,
0101
0000
1010
0000
1001
0000
0001
0010
,
1000
0010
0001
0000
1100
0000
1000
0010
,
0001
0010
1000
0000
0101
0000
1000
0000
,
1100
0000
0001
0000
1000
0010
1010
0000
,
0001
0010
0011
0000
1001
0000
1000
0010
,
0100
0000
0001
0000
0010
0000
0000
0000
0001
0000
0000
0001
0010
0000
0000
0010
,
0100
0000
0000
0100
1000
0000
0000
0000
1001
0000
0000
0000
1000
0000
0010
0000
,
0001
0010
1000
0000
0001
1000
1001
0000
,
0100
0010
0110
0000
2002
0000
0000
0000
,
0000
0000
0000
0000
,
0000
0000
0000
0000
,
0000
0000
3003
0000
;

//--------------- dance-single - Extraordiberry ----------------
#NOTEDATA:;
#STEPSTYPE:dance-single;
#DESCRIPTION:Extraordiberry;
#DIFFICULTY:Hard;
#METER:16;
#RADARVALUES:0,0,0,0,0;
#BPMS:0.000=187.000;
#STOPS:68.000=2.0855614973262032085561497326203
,68.500=0.1604278074866310160427807486631
,225.000=0.96256684491978609625668449197861
;
#TIMESIGNATURES:0.000=4=4,
68.000=1=4,
69.000=4=4,
225.000=1=4,
226.000=4=4
;
#CREDIT:Extraordiberry;
#NOTES:
0000
0000
0000
0000
,
0000
0000
0000
0000
,
0000
0000
0000
0000
,
0000
0000
0000
0000
,
0000
0000
0000
0000
,
0000
0000
0000
0000
,
0000
0000
0000
0000
,
0000
0000
0000
0000
,
0000
0000
0000
0000
0000
0000
0000
1000
,
0100
0200
0000
0320
0000
0032
0000
0203
,
0000
0302
0000
0023
0000
0000
0000
0031
,
0100
0200
0000
0320
0000
2030
0000
3200
,
0000
2300
0000
3020
0000
0000
0000
1030
,
0100
0200
0000
0320
0000
0032
0000
0203
,
0000
2300
0000
3200
0000
0302
0000
2003
,
0000
3001
0020
0000
0000
0000
0000
0000
,
2030
0000
3020
0000
,
0032
0003
0000
0000
1000
0000
0010
0000
0100
0000
0001
0000
1000
0000
0100
0000
,
0001
0100
0000
1000
0001
0100
1000
0100
,
0001
1000
0001
0010
0100
0000
1000
0010
,
0100
0000
0000
0000
0001
0010
0001
0000
1000
0000
0000
0000
1000
0010
1000
0000
,
0001
0000
1001
0000
0001
0010
0100
1000
,
0010
0000
0002
0023
0230
2300
3200
0320
,
2030
3000
0001
1000
0100
0000
1000
0001
,
0100
0010
0001
0000
0010
0100
0000
0001
,
1000
0000
0001
0010
0100
1000
0001
0100
,
1000
0100
0000
0001
1000
0100
0001
0100
,
1000
0001
1000
0010
0100
0000
0001
0010
,
0100
0000
0000
0000
1000
0010
1000
0000
0001
0000
0000
0000
0001
0010
0001
0000
,
1000
0000
1001
0000
1000
0010
0100
0001
,
0010
0000
2000
3020
0230
0302
0203
0320
,
0032
0003
1000
0001
0100
0000
0001
1000
,
0100
0000
0000
0000
1000
0010
0100
0000
0001
0000
1000
0000
0001
0010
0100
0000
,
1000
0001
2002
0000
0000
0000
0000
0000
,
0000
0000
0000
3003
,
0000
0100
0220
0000
0000
0000
0000
0000
,
0330
1100
0011
0101
,
1010
0000
1000
0100
0001
0100
0000
1000
,
0010
1000
0001
0100
1000
0100
0000
0001
,
0010
0001
1000
0100
0001
0100
0010
1000
,
0001
0000
0100
0000
1000
0000
1000
0000
0001
0000
0001
0000
0100
0010
1000
0000
,
0010
0100
0001
0000
1000
0000
0001
0000
0010
0100
0000
0100
1000
0000
0010
0000
,
0100
0000
0100
0000
0001
0000
1000
0000
0100
0010
0001
0000
2000
0000
0010
0000
,
3010
0000
0100
0000
0001
0000
1000
0000
0100
0010
0000
0000
0001
0000
0100
0000
,
0101
0001
1000
0100
0020
0000
0031
0100
,
0020
0000
0000
0000
1030
0000
0001
0000
0010
0000
0100
0000
1000
0010
0100
0000
,
0001
1000
0100
0100
0010
0010
0001
0100
,
0010
1000
0001
0010
0100
0000
1000
0000
0010
0100
0000
0100
0001
0000
0010
0000
,
0011
0000
0001
0000
1000
0010
0100
0000
0001
1000
0100
0000
0010
0001
0010
0001
,
1000
0010
0100
0000
0002
0000
0000
0000
0000
0000
0000
0000
0000
0000
0000
0000
,
0000
0023
0000
0000
,
1000
2030
0000
3020
,
0000
0032
0000
2003
,
0000
3020
0000
0032
,
0000
2003
3200
0302
,
2003
3200
0000
0320
,
0031
0000
0000
0000
2002
3003
0000
0000
1000
0000
0100
0000
0010
0000
0001
0000
,
1000
0010
0001
0010
0000
1000
0001
0010
,
1000
0010
0001
1000
0001
0100
1000
0000
,
0001
0000
0010
0000
1000
0000
0000
0000
0001
0010
0001
0000
0010
0000
0100
0000
,
1000
0010
1000
0000
0001
0000
0000
0000
0011
0000
0010
0000
0001
0000
0100
0000
,
0010
1000
0100
0000
0002
0203
0320
2030
,
3020
0230
0302
0203
1300
0001
0101
0000
,
1000
0000
0100
0000
1100
0000
0000
0000
1000
0010
0100
0000
0001
0000
1000
0000
,
0001
0010
0100
0000
1000
0000
0001
0000
1001
0000
1000
0000
0001
0000
0100
0000
,
0001
0010
1000
0010
0000
0100
0001
0100
,
1000
0010
0100
0001
0010
0100
0001
0000
,
1000
0000
0010
0000
0100
0000
0000
0000
1000
0010
0100
0000
0001
0000
1000
0000
,
0100
0010
0001
0000
0100
0000
0010
0000
1010
0000
1000
0000
0001
0000
0010
0000
,
0100
1000
0001
0100
2000
3200
0320
0032
,
2003
3002
0023
0230
0301
0010
0110
0000
,
1000
0000
0010
0000
0110
0000
0000
0000
0001
1000
0100
0000
0010
0000
0001
0000
,
0100
0001
1000
0000
0010
0000
1000
0000
1001
0000
0001
0000
0010
0000
0001
0000
,
1000
0010
0001
1000
0000
0001
1000
0100
,
0001
1000
0100
0010
0001
1000
0010
0000
,
0001
0000
1000
0000
0100
0000
0000
0000
0001
1000
0100
0000
0010
0000
0001
0000
,
0100
0001
1000
0000
0100
0000
0010
0000
0011
0000
0001
0000
1000
0000
0010
0000
,
0100
0001
1000
0100
0002
0203
0320
2030
,
3002
2003
3020
0230
1300
0010
0110
0100
,
0001
0000
0010
0000
0110
0000
0100
0000
1000
0001
0100
0000
0010
0000
1000
0000
,
0100
0010
0100
0010
0001
1000
0001
0000
2002
0000
0000
0000
0000
0000
0000
0000
,
0000
0000
0000
0000
,
0000
0000
0000
0000
,
0000
0000
3003
0000
;

//--------------- dance-double - Extraordiberry ----------------
#NOTEDATA:;
#STEPSTYPE:dance-double;
#DESCRIPTION:Extraordiberry;
#DIFFICULTY:Easy;
#METER:7;
#RADARVALUES:0,0,0,0,0;
#BPMS:0.000=187.000;
#STOPS:68.000=2.0855614973262032085561497326203
,68.500=0.1604278074866310160427807486631
,225.000=0.96256684491978609625668449197861
;
#TIMESIGNATURES:0.000=4=4,
68.000=1=4,
69.000=4=4,
225.000=1=4,
226.000=4=4
;
#CREDIT:Extraordiberry;
#NOTES:
00000000
00000000
00000000
00000000
,
00000000
00000000
00000000
00000000
,
00000000
00000000
00000000
00000000
,
00000000
00000000
00000000
00000000
,
00000000
00000000
00000000
00000000
,
00000000
00000000
00000000
00000000
,
00000000
00000000
00000000
00000000
,
00000000
00000000
00000000
00000000
,
00000000
00000000
00000000
00000000
,
00020000
00000000
00000000
00000000
,
00000000
00000000
00000000
00000000
,
00032000
00000000
00000000
00000000
,
00000000
00000000
00000000
00000000
,
02003000
00000000
00000000
00000000
,
03020000
00000000
00000000
00000000
,
20030000
00000000
00000000
00000000
,
32000000
00000000
03020000
00000000
,
00032000
00003000
00000000
00000000
00010000
00000000
00000000
00000000
00001000
00000000
00000000
00000000
00010000
00000000
00000000
00000000
,
00000100
00001000
00000100
00000010
,
00000000
00000001
00000100
00000010
,
00000000
00001000
00000010
00010000
,
00000000
00011000
00000000
00001000
,
00000000
01000000
01000000
00010000
,
00010000
10000000
00000000
00010000
,
00100000
00001000
00010000
00010000
,
00000000
00001000
00010000
00001000
,
01000000
00010000
01000000
00100000
,
00000000
10000000
01000000
00100000
,
00000000
00010000
00100000
00001000
,
00000000
00011000
00000000
00010000
,
00000000
00000100
00000100
00001000
,
00001000
00000001
00000100
00001000
,
00000000
00010000
00100000
10000000
,
00000000
20020000
00000000
00000000
,
00000000
00000000
00000000
30030000
,
00000000
00022000
00000000
00000000
,
00033000
00010000
00001000
00000010
,
00000001
00001000
00000010
00000100
,
00000000
00000010
00010000
00001000
,
00000000
01000000
00010000
10000000
,
01000000
00010000
00001000
00000010
,
00000001
00001000
00001000
00000010
,
00010000
00001000
00001000
00100000
,
00000000
00001000
00001000
01000000
,
00100000
20000000
00000000
30020000
,
00000000
10030000
10000000
01000000
,
00010000
00001000
00000010
00000001
,
00001000
00000001
00000001
00000100
,
00001000
00010000
00001000
00000010
,
00000001
00002000
00000000
00000000
,
00000000
00003020
00000000
00000000
,
00010000
00020030
00000000
00032000
,
00000000
00203000
00000000
00320000
,
00000000
20030000
00000000
30200000
,
00000000
02300000
03002000
00023000
,
00032000
00003020
00000000
00002030
,
00013000
00000000
00000000
00000000
00002000
00003000
00000000
00000000
00010000
00000000
00000000
00000000
00001000
00000000
00000000
00000000
,
00010000
00000010
00001000
00000010
,
00000100
00000000
00000001
00000010
,
00000100
00000000
00001000
00000100
,
00010000
00000000
00011000
00000000
,
00001000
01000000
00010000
00010000
,
10000000
10000000
01000000
00010000
,
00001000
00000000
00000010
00000001
,
00000100
00000100
00001000
00010000
,
00001000
00100000
00010000
00100000
,
01000000
00000000
10000000
00100000
,
01000000
00000000
00010000
01000000
,
00001000
00000000
00011000
00000000
,
00010000
00000100
00001000
00001000
,
00000001
00000001
00000100
00001000
,
00010000
00000000
00100000
10000000
,
01000000
01000000
00010000
00001000
,
00010000
00000100
00001000
00000100
,
00000010
00000000
00000001
00000100
,
00000010
00010000
00001000
00100000
,
00001000
00000000
00011000
00000000
,
00001000
00100000
00010000
00010000
,
10000000
10000000
00100000
00010000
,
00001000
00000100
00000001
00000100
,
00001000
00010000
00022000
00000000
,
00000000
00000000
00000000
00000000
,
00000000
00000000
00000000
00000000
,
00000000
00000000
00033000
00000000
;

//--------------- dance-double - Extraordiberry ----------------
#NOTEDATA:;
#STEPSTYPE:dance-double;
#DESCRIPTION:Extraordiberry;
#DIFFICULTY:Medium;
#METER:12;
#RADARVALUES:0,0,0,0,0;
#BPMS:0.000=187.000;
#STOPS:68.000=2.0855614973262032085561497326203
,68.500=0.1604278074866310160427807486631
,225.000=0.96256684491978609625668449197861
;
#TIMESIGNATURES:0.000=4=4,
68.000=1=4,
69.000=4=4,
225.000=1=4,
226.000=4=4
;
#CREDIT:Extraordiberry;
#NOTES:
00000000
00000000
00000000
00000000
,
00000000
00000000
00000000
00000000
,
00000000
00000000
00000000
00000000
,
00000000
00000000
00000000
00000000
,
00000000
00000000
00000000
00000000
,
00000000
00000000
00000000
00000000
,
00000000
00000000
00000000
00000000
,
00000000
00000000
00000000
00000000
,
00000000
00000000
00000000
00000000
00000000
00000000
00000000
00010000
,
00001000
00020000
00000000
00030200
00000000
00002300
00000000
00003020
,
00000000
00001000
00000000
00020030
00000000
00000000
00000000
00031000
,
00010000
00002000
00000000
02003000
00000000
03020000
00000000
00230000
,
00000000
00010000
00000000
00302000
00000000
00000000
00000000
00013000
,
00001000
00020000
00000000
00030020
00000000
00002030
00000000
00003200
,
00000000
00000001
00000000
00000010
00000000
00001000
00000000
00020300
,
00000000
00031000
02000000
00000000
00000000
00000000
00000000
00000000
,
03002000
00000000
00023000
00000000
,
00032000
00003000
00000000
00000000
00010000
00000000
00000000
00000000
00001000
00000000
01000000
00000000
00010000
00000000
01000000
00000000
,
00100000
00000000
01100000
00000000
10000000
01000000
00010000
00001000
,
00010000
00011000
00000010
00000110
,
00000001
00000000
00001000
00000010
00000100
00000000
00000001
00000100
,
00001000
00000000
00011000
00000000
01000000
00000000
00010000
10000000
,
01000000
00000000
00000000
00000000
10000000
00000000
00000000
10000000
01000000
00000000
00000000
01000000
00010000
00000000
00000000
00010000
,
00001000
00011000
00000010
00000110
,
00000001
00000100
00000010
00000000
00010000
00001000
00000000
00010000
,
00001000
00000000
00011000
00000000
00010000
00000100
00001000
00000100
,
00000010
00000000
00000110
00000000
00000001
00000100
00001000
00010000
,
00001000
00011000
00100000
01100000
,
10000000
00000000
00010000
00100000
01000000
00000000
10000000
01000000
,
00010000
00000000
00011000
00000000
00000100
00000000
00001000
00000001
,
00000100
00000000
00000000
00000000
00000001
00000000
00000000
00000001
00000100
00000000
00000000
00000100
00001000
00000000
00000000
00001000
,
00010000
00011000
00100000
01100000
,
10000000
00000000
00010000
00100000
00001000
00010000
00000100
00001000
,
00000001
00002002
00000000
00000000
,
00000000
00000000
00000000
00003003
,
00000000
00022000
00000000
00000000
,
00033000
00002000
00023000
00230000
,
20300000
00000000
30010000
10000000
01000000
00010000
00000000
00001000
,
00010000
00001000
00000010
00000001
00001000
00000010
00000000
00000100
,
00000001
00000100
00001000
00010000
00000100
00001000
00000001
00000100
,
00001000
00010000
00100000
10000000
00010000
00100000
00001000
00010000
,
00011000
00000000
00000000
00000000
00001000
00000000
00010000
00000000
00000100
00001000
00000000
00000000
00000001
00000000
00000100
00000000
,
00001000
00000000
00010000
00100000
10000000
10000000
00010000
00100000
,
00100000
00000000
00000000
00000000
00001000
00000000
00001000
00000000
00010000
00001000
00010000
00000000
00000010
00000000
00000100
00000000
,
00000001
00001000
00000100
00010000
00002000
00000000
00103000
00001000
,
00020000
00000000
00000000
00000000
00031000
00000000
00010000
00000000
00100000
00000000
10000000
00000000
00010000
00100000
00010000
00000000
,
10000000
00000000
10000000
01000000
00100000
00010000
00001000
00000100
,
00000010
00000000
00000001
00000000
00001000
00000000
00001000
00000000
00000010
00000100
00000000
00000000
00000001
00000000
00000010
00000000
,
00001000
00000010
00000001
00000100
00000010
00001000
00010000
01000000
,
00100000
10000000
00020000
00000000
00000000
00000000
00000000
00000000
,
00000000
00230000
00000000
00000000
,
00001000
00302000
00000000
00023000
,
00000000
00230000
00000000
20300000
,
00000000
32000000
00000000
03020000
,
00000000
00032000
00003020
00000032
,
00000203
00002300
00000000
00010000
,
00013000
00000000
00000000
00000000
00022000
00033000
00000000
00000000
00010000
00000000
00000000
00000000
00001000
00000000
00100000
00000000
,
00010000
00100000
01000000
00000000
01100000
00000000
10000000
00100000
,
00010000
00001000
00010000
00000000
00011000
00000000
00000100
00000000
,
00000110
00000000
00000001
00000000
00001000
00000010
00000100
00000000
,
00000001
00000010
00001000
00000000
00011000
00000000
01000000
00010000
,
10000000
00000000
01000000
00000000
00100000
00000000
00000000
00000000
00010000
00000000
00000000
10000000
00100000
00000000
00000000
00100000
,
00010000
00000000
00000000
00010000
00001000
00000000
00000000
00000000
00011000
00000000
00000000
00000000
00000010
00000000
00000000
00000000
,
00000110
00000000
00000001
00000000
00001000
00000100
00010000
00001000
,
00100000
01000000
00010000
00000000
00011000
00000000
00010000
00000010
,
00001000
00000010
00000100
00000000
00000110
00000000
00000001
00000010
,
00001000
00010000
00001000
00000000
00011000
00000000
01000000
00000000
,
01100000
00000000
10000000
00000000
00010000
00100000
01000000
00000000
,
10000000
00100000
00010000
00000000
00011000
00000000
00000100
00001000
,
00000001
00000000
00000100
00000000
00000010
00000000
00000000
00000000
00001000
00000000
00000000
00000001
00000010
00000000
00000000
00000010
,
00001000
00000000
00000000
00001000
00010000
00000000
00000000
00000000
00011000
00000000
00000000
00000000
00100000
00000000
00000000
00000000
,
01100000
00000000
10000000
00000000
01000000
00010000
00001000
00000010
,
00000001
00001000
00000010
00000000
00011000
00000000
00001000
00100000
,
00010000
00100000
01000000
00000000
01100000
00000000
10000000
00100000
,
00010000
00001000
00010000
00000000
00011000
00000000
00000100
00000000
,
00000110
00000000
00001000
00000000
00000001
00000100
00000010
00001000
,
00010000
01000000
00100000
00000000
10010000
00000000
10000000
00100000
,
00010000
00000000
00001000
00000000
01000000
00000000
00000000
00000000
00010000
00000000
00000000
10000000
01000000
00000000
00000000
01000000
,
00010000
00000000
00000000
00010000
00001000
00000000
00000000
00000000
00000110
00000000
00000000
00000000
00010000
00000000
00000000
00000000
,
00011000
00000000
01000000
00000000
00010000
10000000
01000000
00100000
,
00010000
00001000
00000100
00000010
00000002
00000000
00000000
00000000
,
00000000
00000000
00000000
00000000
,
00000000
00000000
00000000
00000000
,
00000000
00000000
00000003
00000000
;

//--------------- dance-double - Extraordiberry ----------------
#NOTEDATA:;
#STEPSTYPE:dance-double;
#DESCRIPTION:Extraordiberry;
#DIFFICULTY:Hard;
#METER:16;
#RADARVALUES:0,0,0,0,0;
#BPMS:0.000=187.000;
#STOPS:68.000=2.0855614973262032085561497326203
,68.500=0.1604278074866310160427807486631
,225.000=0.96256684491978609625668449197861
;
#TIMESIGNATURES:0.000=4=4,
68.000=1=4,
69.000=4=4,
225.000=1=4,
226.000=4=4
;
#CREDIT:Extraordiberry;
#NOTES:
00000000
00000000
00000000
00000000
,
00000000
00000000
00000000
00000000
,
00000000
00000000
00000000
00000000
,
00000000
00000000
00000000
00000000
,
00000000
00000000
00000000
00000000
,
00000000
00000000
00000000
00000000
,
00000000
00000000
00000000
00000000
,
00000000
00000000
00000000
00000000
,
00000000
00000000
00000000
00000000
00000000
00000000
00000000
00010000
,
00001000
00002000
00000000
00023000
00000000
00230000
00000000
20300000
,
00000000
30200000
00000000
00320000
00000000
00000000
00000000
00030100
,
00010000
00020000
00000000
00032000
00000000
00003020
00000000
00000032
,
00000000
00000023
00000000
00002030
00000000
00000000
00000000
00013000
,
00001000
00002000
00000000
00023000
00000000
00230000
00000000
20300000
,
00000000
32000000
00000000
03020000
00000000
00032000
00000000
02003000
,
00000000
03010000
20000000
00000000
00000000
00000000
00000000
00000000
,
32000000
00000000
03020000
00000000
,
00032000
00003000
00000000
00000000
00010000
00000000
00001000
00000000
01000000
00000000
00010000
00000000
10000000
00000000
01000000
00000000
,
00010000
00001000
00000000
00010000
01000000
10000000
00010000
01000000
,
00001000
00010000
00001000
00000010
00000001
00000000
00001000
00000010
,
00000100
00000000
00000001
00000010
00001000
00000000
00010000
00100000
,
10000000
00000000
10010000
00000000
10000000
00010000
00100000
00001000
,
00010000
00000000
00002000
00003200
00000320
00000032
00000023
00000230
,
00002300
00003000
00010000
00000100
00001000
00000000
00000001
00000100
,
00001000
00010000
00001000
00000000
00100000
01000000
00000000
01000000
,
00010000
00000000
00001000
00010000
00000100
00001000
00000001
00000100
,
00001000
00010000
00000000
00001000
00000100
00000001
00001000
00000100
,
00010000
00001000
00010000
00100000
10000000
00000000
00010000
00100000
,
01000000
00000000
10000000
00100000
00010000
00000000
00001000
00000010
,
00000001
00000000
00001001
00000000
00000001
00001000
00000010
00010000
,
00001000
00000000
00020000
02030000
03200000
20300000
30200000
02300000
,
03020000
00030000
00001000
01000000
00010000
00000000
10000000
01000000
,
00010000
00000000
00000000
00000000
00001000
00010000
00001000
00000000
01000000
00000000
00000000
00000000
00010000
10000000
00010000
00000000
,
00100000
00022000
00000000
00000000
,
00000000
00000000
00000000
00033000
,
00000000
00000010
00000220
00000000
00000000
00000000
00000000
00000000
,
00000330
00000101
00001010
01010000
,
10100000
00000000
10000000
01000000
00010000
00001000
00000000
00010000
,
01000000
00010000
00001000
00000010
00000001
00001000
00000000
00000001
,
00001000
00000001
00000100
00001000
00010000
00000010
00001000
00010000
,
01000000
00000000
00100000
00000000
10000000
00000000
01000000
00000000
00010000
00000000
00001000
00000000
00000010
00000001
00000010
00000000
,
00000011
00000000
00000000
00000000
00000001
00000000
00000100
00000000
00001000
00010000
00000000
00010000
00001000
00000000
00010000
00000000
,
00100000
00000000
10000000
00000000
00010000
00000000
00100000
00000000
01000000
00010000
01000000
00000000
00020000
00000000
00031000
00000000
,
01000000
00000000
00010000
00000000
10000000
00000000
01000000
00000000
00010000
01000000
00000000
00000000
00010000
00000000
00001000
00000000
,
00000010
00000010
00000001
00000100
00002000
00000000
00013000
01000000
,
20000000
00000000
00000000
00000000
30010000
00000000
10000000
00000000
00100000
00000000
00100000
00000000
00010000
00001000
00010000
00000000
,
00001000
00100000
00010000
00010000
00001000
00001000
00000100
00000010
,
00000001
00000100
00001000
00000000
00010000
00000000
00001000
00000000
01000000
00100000
01000000
00000000
00010000
00000000
10000000
00000000
,
01000000
00000000
00100000
00000000
00001000
00010000
00001000
00000000
00000010
00001000
00000010
00000000
00000001
00000010
00000001
00000000
,
00000100
00000100
00002000
00000000
00000000
00000000
00000000
00000000
,
00000000
00023000
00000000
00000000
,
00100000
00230000
00000000
20300000
,
00000000
32000000
00000000
03020000
,
00000000
00030200
00000000
00000320
,
00000000
00000032
00002003
00003020
,
00000230
00002300
00000000
00023000
,
00031000
00000000
00000000
00000000
00022000
00033000
00000000
00000000
00010000
00000000
00001000
00000000
00100000
00000000
00010000
00000000
,
10000000
00100000
00010000
00001000
00000000
00010000
00100000
10000000
,
00010000
00100000
00001000
00010000
00000010
00001000
00000001
00000000
,
00000010
00001000
00010000
00000000
01000000
10000000
00100000
00010000
,
00001000
00000010
00000001
00000000
00001001
00001000
00000010
00010000
,
00001000
00100000
01000000
00000000
00020000
02030000
03200000
20300000
,
30200000
02300000
03020000
00032000
00003010
00000001
00001000
00000000
,
00000001
00000000
00000100
00000000
00001000
00000000
00000000
00000000
00010000
00001000
00010000
00000000
00100000
00000000
10000000
00000000
,
01000000
10000000
01000000
00000000
00010000
00000000
00001000
00000000
00011000
00000000
00010000
00000000
00000010
00000000
00001000
00000000
,
00000001
00000010
00001000
00010000
00000000
00001000
00000010
00000001
,
00001000
00000010
00010000
00001000
00100000
00010000
01000000
00000000
,
00100000
00010000
00000010
00000000
00001000
00000001
00000010
00001000
,
00010000
00100000
10000000
00010000
10010000
10000000
01000000
00100000
,
00001000
00010000
00000010
00000000
00000002
00000023
00000230
00002300
,
00003200
00000320
00000032
00002003
00003100
00000010
00001000
00000000
,
00000010
00000000
00001000
00000000
00100000
00000000
00000000
00000000
10000000
01000000
10000000
00000000
01000000
00000000
00010000
00000000
,
00001000
00010000
00001000
00000000
00000010
00000000
00000001
00000000
00000011
00000000
00000010
00000000
00000001
00000000
00000100
00000000
,
00001000
00010000
00001000
00000010
00000000
00001000
00010000
00001000
,
00000100
00000001
00000010
00001000
00010000
01000000
10000000
00000000
,
00100000
00010000
00000010
00000000
00001000
00000001
00000010
00001000
,
00010000
00100000
10000000
00010000
10010000
10000000
01000000
00100000
,
00001000
00010000
00100000
01000000
20000000
32000000
03200000
00320000
,
00032000
00003200
00000320
00000032
00001003
00000100
00000001
00000000
,
00000010
00000000
00001000
00000000
00100000
00000000
00000000
00000000
00010000
10000000
00010000
00000000
00100000
00010000
00100000
00000000
,
00001000
00010000
00001000
00000000
00000010
00000000
00000001
00000000
00002002
00000000
00000000
00000000
00000000
00000000
00000000
00000000
,
00000000
00000000
00000000
00000000
,
00000000
00000000
00000000
00000000
,
00000000
00000000
00003003
00000000
;
