#VERSION:0.83;
#TITLE:AIM HIGHER;
#SUBTITLE:;
#ARTIST:U-ske feat. 棗いつき;
#TITLETRANSLIT:AIM HIGHER;
#SUBTITLETRANSLIT:;
#ARTISTTRANSLIT:U-ske feat. Itsuki Natsume;
#GENRE:;
#ORIGIN:;
#CREDIT:;
#BANNER:AIM HIGHER-banner.png;
#BACKGROUND:AIM HIGHER-bg.png;
#PREVIEWVID:;
#JACKET:AIM HIGHER-jacket.png;
#CDIMAGE:;
#DISCIMAGE:;
#LYRICSPATH:;
#CDTITLE:;
#MUSIC:AIM HIGHER.ogg;
#OFFSET:0.016000;
#SAMPLESTART:42.654995;
#SAMPLELENGTH:12.000000;
#SELECTABLE:YES;
#BPMS:0.000=168.000;
#STOPS:;
#DELAYS:;
#WARPS:;
#TIMESIGNATURES:0.000=4=4;
#TICKCOUNTS:0.000=4;
#COMBOS:0.000=1;
#SPEEDS:0.000=1.000=0.000=0;
#SCROLLS:0.000=1.000;
#FAKES:;
#LABELS:0.000=Song Start;
#BGCHANGES:;
#KEYSOUNDS:;
#ATTACKS:
;

//---------------dance-single - ----------------
#NOTEDATA:;
#CHARTNAME:;
#STEPSTYPE:dance-single;
#DESCRIPTION:;
#CHARTSTYLE:;
#DIFFICULTY:Hard;
#METER:17;
#RADARVALUES:0.898432,1.126537,0.817936,0.490762,0.736143,692.000000,602.000000,90.000000,54.000000,0.000000,0.000000,0.000000,0.000000,0.000000,0.898432,1.126537,0.817936,0.490762,0.736143,692.000000,602.000000,90.000000,54.000000,0.000000,0.000000,0.000000,0.000000,0.000000;
#CREDIT:;
#NOTES:
0000
0000
0000
0000
,
0000
0000
0000
0000
,
0000
0000
0000
0000
,
0000
0000
0000
0000
,
0000
0000
0000
0000
,
0101
0000
0000
1100
0000
0000
0100
0000
0101
0000
0000
1100
0000
0000
0100
0000
,
0101
0000
0000
1100
0000
0000
0100
0000
0101
0000
0001
0000
1000
0000
0010
0000
,
0100
0000
0001
0100
0010
1000
0010
0100
0001
1000
0100
0010
0001
0000
1000
0100
,
1000
0100
1000
0000
0001
0000
1000
0000
0020
0000
0030
0200
0000
0300
0001
0000
,
0011
0000
0000
1010
0000
0000
0010
0000
0011
0000
0000
1010
0000
0000
0010
0000
,
0011
0000
0000
1010
0000
0000
0010
0000
0011
0000
0001
0000
0100
0000
0010
0000
,
1000
0000
0001
0100
0010
1000
0010
0100
0001
1000
0100
0010
0001
0000
1000
0100
,
0020
0000
0000
0001
0000
0000
0130
0000
0100
0000
1000
0100
1000
0100
1000
0100
,
0000
0000
1000
0000
0010
0000
0100
0000
0001
0000
0010
1000
0000
0000
0010
0000
,
0001
0000
1000
0100
0000
0001
0100
0000
0000
0000
1000
0000
1000
0010
0000
0021
,
0000
0030
0001
0000
0001
0010
0000
1020
0000
0030
1000
0000
1000
0010
0000
0021
,
0000
0030
0001
0000
0100
0000
1000
0000
0100
0000
0000
0010
0000
0000
1000
0000
,
0001
0010
0000
0110
0000
1100
0100
1000
,
0100
0001
0100
1000
0010
0001
0000
0010
,
1000
0100
0000
0100
0010
0001
1000
0001
,
0100
0000
0010
1000
0010
0100
0001
1000
0200
0000
0000
0300
0020
0000
0000
0030
,
0002
0100
1003
0100
2000
0010
3001
0010
,
0002
0100
1003
0100
2000
0010
3001
0010
,
0002
0100
2003
0100
3002
0010
2003
0010
,
3002
0100
1000
0103
2000
0100
0001
3100
,
0001
0000
0100
0000
0010
0000
1000
0000
1020
0000
0000
0100
0000
0000
0031
0000
,
0001
0000
0010
0000
1000
0000
0100
0000
0201
0000
0000
0010
0000
0000
1300
0000
,
0001
0000
0100
0000
0010
0000
1000
0000
1020
0000
0000
0001
0000
0000
1030
0000
,
0001
0000
0010
0000
0001
0000
1000
0000
0010
0000
1000
0000
0001
0000
0000
0010
0000
0000
0100
0000
0000
1000
0000
0000
,
0001
0100
0001
0100
0001
1000
0001
1000
0100
1000
0100
1000
0010
0000
0100
0000
,
1020
0000
0030
0000
0021
0000
0030
0000
1000
0010
0000
0001
0010
0000
2000
0000
,
0000
3000
0001
0000
0100
0000
0010
0000
1000
0000
1100
0000
0011
0000
0000
0000
,
0000
1100
1000
1100
1000
1100
0000
0101
,
0001
0101
0001
0101
0001
1000
0100
1000
,
0021
0000
0030
0000
1020
0000
0030
0000
0001
0010
0000
1000
0010
0000
0001
0000
,
0100
0010
1000
0100
0110
0010
0011
0001
,
1001
0000
0000
0000
0000
0000
0001
0000
0200
0000
0300
0020
0000
0030
2000
0000
,
0000
0000
3001
0000
0100
0000
0001
0000
0110
0000
0000
1010
0000
0000
1100
0000
,
0100
1000
0100
1000
0001
0100
0001
0100
0001
0010
0001
0010
0001
1000
0020
0030
,
0100
0010
0100
0010
1000
0001
1000
0001
0010
0100
0010
0100
1000
0010
0200
0300
,
0001
0010
0001
0010
0100
1000
0001
1000
0001
0100
0001
0100
0010
1000
0100
0010
,
0100
1000
0100
0010
0001
1000
0100
0010
0001
1000
0100
0010
0001
1000
0100
0010
,
0001
0000
0010
0000
0010
0000
0100
0000
1000
0000
0000
0100
0000
0000
0001
0000
,
0000
0000
0100
1000
0100
1000
0010
0100
0001
0000
0000
0100
0000
0000
1000
0000
,
0000
0000
0100
0000
0100
0000
0010
0000
0001
0000
0000
0010
0000
0000
1000
0000
,
0000
0000
0001
0010
0001
0010
0100
1000
0010
0000
0000
0100
0000
0000
0001
0000
,
1001
0000
1000
0000
0100
0000
0010
0000
0001
0000
0000
0100
0000
0000
1000
0000
,
1100
0000
0100
0000
0001
0000
0010
0000
1000
0000
0000
0010
0000
0000
0001
0000
,
0101
0000
0100
0000
0010
0000
1000
0000
0100
0000
0000
0010
0000
0000
0001
0000
,
1000
0010
1000
0010
0100
0001
0100
0001
0010
0100
1000
0010
0100
0000
0000
0000
,
0110
0000
0000
0000
2000
3000
0000
0000
,
0002
0003
0000
0000
2000
3000
0000
0000
,
0000
0000
1002
0003
2001
3000
0120
0030
1002
0003
2001
3000
0000
0000
1002
0003
,
2001
3000
0120
0030
1002
0003
2001
3000
0120
0030
0001
0000
1000
0000
0100
0000
,
0120
0000
0030
0000
0021
0000
0030
0000
1020
0000
0030
0021
0000
0030
0120
0000
,
0030
0100
1000
0010
0110
0100
0101
0001
,
1001
0000
0001
1000
0001
1000
0001
1000
0001
1000
0001
1000
0001
0000
1001
0000
,
0000
0000
1000
0000
0100
0000
0010
0000
0001
0000
1000
0100
1000
0100
1000
0100
,
0020
0000
0030
0000
0021
0000
0030
0000
1000
0010
0000
0001
0010
0000
1000
0000
,
0100
0010
0001
1000
0101
0100
1010
0000
,
0000
0101
0100
1100
0100
0101
0000
1010
,
0010
0011
0010
1010
0010
0100
0001
1000
,
1020
0000
0030
0000
0021
0000
0030
0000
0001
0010
0000
1000
0010
0000
0100
0000
,
0001
0010
0100
1000
1001
0001
0011
0010
,
0110
0000
0000
0000
0100
1000
0100
1000
0010
0100
0010
0100
0001
0010
0100
0000
,
0000
0000
1000
0000
0100
0000
0001
0000
0100
0000
0000
1100
0000
0000
1001
0000
,
0001
0010
0000
1000
0010
0000
0100
0000
0010
1000
0000
0010
0001
0000
0100
0000
,
0001
0010
0000
1000
0010
0000
0100
0000
1100
0000
1000
0000
1001
0000
0001
0000
,
0011
0000
0010
0100
1000
0100
0010
0001
1000
0001
0100
0010
1000
0001
0010
0100
,
1000
0001
0100
0000
0001
0000
0010
0000
0110
0000
0000
1010
0000
0000
1001
0000
,
1000
0010
0000
0001
0010
0000
0100
0000
0010
0001
0000
0010
1000
0000
0100
0000
,
1000
0010
0000
0001
0010
0000
0100
0000
0101
0000
0001
0000
1001
0000
1000
0000
,
1010
0000
0010
0100
0001
0100
0010
1000
0100
0010
0001
1000
0001
0000
0100
0001
,
0010
0000
0000
0010
0000
0000
0010
0000
0010
0000
0100
1000
0100
1000
0100
1000
,
0000
0000
0001
0100
0001
0100
0001
0100
0010
1000
0001
0100
0001
0010
0100
1000
,
0000
0101
0000
0000
0000
0000
0000
0000
;

//---------------dance-single - ----------------
#NOTEDATA:;
#CHARTNAME:;
#STEPSTYPE:dance-single;
#DESCRIPTION:;
#CHARTSTYLE:;
#DIFFICULTY:Medium;
#METER:13;
#RADARVALUES:0.680315,0.716887,0.418056,0.436233,0.299910,524.000000,478.000000,46.000000,48.000000,0.000000,0.000000,0.000000,0.000000,0.000000,0.680315,0.716887,0.418056,0.436233,0.299910,524.000000,478.000000,46.000000,48.000000,0.000000,0.000000,0.000000,0.000000,0.000000;
#CREDIT:;
#NOTES:
0000
0000
0000
0000
,
0000
0000
0000
0000
,
0000
0000
0000
0000
,
0000
0000
0000
0000
,
0000
0000
0000
0000
,
2010
0000
0000
0010
0000
0000
3001
0000
0012
0000
0000
0010
0000
0000
1003
0000
,
2010
0000
0000
0010
0000
0000
3001
0000
1000
0000
0010
0000
0100
0000
0001
0000
,
1000
0100
0010
0100
0001
0100
0010
0100
,
1000
0010
1000
0000
0001
0000
0010
0000
0100
0000
0000
0100
0000
0000
1000
0000
,
2010
0000
0000
0010
0000
0000
3001
0000
0012
0000
0000
0010
0000
0000
1003
0000
,
2010
0000
0000
0010
0000
0000
3001
0000
0100
0000
0010
0000
1000
0000
0100
0000
,
0010
0000
0001
0000
0100
0000
0010
0000
0100
0000
1000
0000
0100
0000
0001
0010
,
0001
0000
0000
0001
0000
0000
1000
0000
0100
0000
0020
0000
0000
0000
0030
0000
,
0000
0000
0011
0000
0001
0000
1000
0000
0001
0000
0100
0001
0000
0000
1000
0000
,
0100
0000
1000
0001
0000
0100
0001
0000
0000
0000
1000
0000
0100
0010
0000
0020
,
0000
0030
0001
0000
0100
0010
0000
0020
0000
0030
1000
0000
0100
0010
0000
0020
,
0000
0030
0000
0000
0001
0000
0100
0000
1000
0000
0000
0100
0000
0000
0001
0000
,
0010
0000
0000
0100
0000
1000
0100
1000
,
0100
1000
0100
1000
0010
0100
0000
0000
,
0001
0000
0000
0010
0001
0010
0001
0100
,
0010
0000
1000
0100
1000
0000
0001
0100
0002
0000
0000
0003
2000
0000
0000
3000
,
0010
0000
1000
0100
0001
0000
1000
0010
,
0001
0000
1000
0100
0001
0100
1000
0020
,
0000
0100
0000
0100
0000
0130
0001
1000
,
0000
0000
0000
1000
1100
0000
0011
0000
,
0010
0000
0001
0000
0100
0000
0010
0000
1000
0000
0000
0100
0000
0000
1000
0000
,
0010
0000
1000
0000
0100
0000
0010
0000
0001
0000
0000
0100
0000
0000
0001
0000
,
1000
0000
0100
0000
0010
0000
0100
0000
1000
0000
0000
0001
0000
0000
0100
0000
,
0010
0000
0000
0000
1000
0000
0010
0000
0000
0000
0100
0000
0001
0000
0000
0100
0000
0000
0010
0000
0000
1000
0000
0000
,
0002
0100
1000
0013
,
0120
0000
0000
0000
0031
0000
0000
0000
0120
0000
0000
1030
0000
0000
0120
0000
,
0000
0031
0100
1000
0100
0001
0010
0000
,
0000
0001
0100
1000
0100
0101
0000
0001
,
0100
1000
0100
0001
0101
0000
0001
1000
,
1020
0000
0000
0000
0130
0000
0000
0000
0021
0000
0000
0130
0000
0000
1020
0000
,
0000
0130
0010
1000
0100
0100
0010
0010
,
0001
0000
0000
0000
0000
0000
1000
0000
0100
0000
0000
0010
0000
0000
0012
0000
,
0000
0000
0103
0000
0010
0000
1000
0000
0001
0000
0000
0100
0000
0000
0010
0000
,
1000
0100
0010
0001
1000
0001
0010
0100
,
1000
1000
0100
0100
0010
0010
0001
0001
,
1000
0001
0010
0100
1000
0001
0010
0100
,
0010
0000
0001
0100
0001
0000
1000
0100
1000
0000
0001
0100
0001
0000
1000
0100
,
1000
0000
0100
0000
0100
0000
0010
0000
0001
0000
0000
0010
0000
0000
0100
0000
,
0000
0000
1000
0001
1000
0000
0001
0000
0100
0000
0000
0100
0000
0000
0001
0000
,
0010
0000
0100
0000
0100
0000
1000
0000
0010
0000
0000
1000
0000
0000
0100
0000
,
0000
0000
0010
0001
0010
0000
0100
0000
1000
0000
0000
1000
0000
0000
0001
0000
,
0100
0000
0010
0000
0010
0000
0010
0000
0100
0000
0000
0100
0000
0000
0100
0000
,
0001
0000
1000
0000
1000
0000
1000
0000
0001
0000
0000
0001
0000
0000
0001
0000
,
1000
0000
0100
0000
0100
0000
0100
0000
1000
0000
0000
0010
0000
0000
0100
0000
,
0001
0000
0010
0000
0100
0000
1000
0000
0001
1000
0001
1000
0001
0000
0000
0000
,
1002
0000
0003
0000
2000
0000
3000
0000
0002
0000
0003
2000
0000
3000
0002
0000
,
0003
1000
0001
1000
0100
0010
0001
0000
,
0000
1100
1000
0100
0010
0011
0000
0101
,
0001
0100
0010
1000
1010
0001
0001
1000
,
1020
0000
0000
0000
0031
0000
0000
0000
0021
0000
0000
1030
0000
0000
1020
0000
,
0000
0130
0001
0010
0100
0100
0010
0010
,
0011
0000
0000
0000
1000
0000
0001
0100
0001
0000
1000
0100
1000
0000
0110
0000
,
0000
0001
0010
0100
1000
0020
0000
0130
,
1020
0000
0000
0000
0100
0000
0000
0000
0001
0000
0000
0100
0000
0000
2030
0000
,
0000
3000
0001
0000
0010
0000
0100
0000
1100
0000
1000
0000
1100
0000
0000
0000
,
0000
1000
0100
0001
0100
1100
0000
1000
,
0100
0001
0100
1000
1100
1000
0001
0010
,
0120
0000
0030
0000
0021
0000
0030
0000
1020
0000
0030
0021
0000
0030
0120
0000
,
0030
0001
0100
0010
1000
1000
0001
0001
,
1001
0000
0000
0000
0010
0000
0100
0000
1000
0001
1000
0001
1000
0000
1002
0000
,
0003
0000
0100
0000
0001
0000
0100
0000
0010
0000
0000
1000
0000
0000
0100
0000
,
1000
0000
1000
0020
0000
0030
0100
0000
0001
0000
0001
0020
0000
0030
0100
0000
,
1000
0000
1000
0020
0000
0030
0100
0000
0001
0000
0010
0000
0100
0000
1000
0000
,
0100
0001
0100
1000
0010
0001
0010
1000
,
0100
0000
0010
0000
0001
0000
1000
0000
1001
0000
0000
0110
0000
0000
1001
0000
,
0001
0000
0001
0020
0000
0030
1000
0000
1000
0000
1000
0020
0000
0030
0001
0000
,
0001
0000
0001
0020
0000
0030
1000
0000
1000
0000
0010
0000
0001
0000
0100
0000
,
0010
0000
1000
0000
0100
0000
0001
0000
0100
0000
1000
0000
0010
0000
0100
0001
,
0100
0000
0000
0100
0000
0000
0100
0000
0100
0000
2020
0000
0000
0000
3030
0000
,
0000
0000
0202
0000
0000
0000
0303
0000
1000
0000
0100
0000
0010
0001
0010
0001
,
0000
1100
0000
0000
0000
0000
0000
0000
;

//---------------dance-single - ----------------
#NOTEDATA:;
#CHARTNAME:;
#STEPSTYPE:dance-single;
#DESCRIPTION:;
#CHARTSTYLE:;
#DIFFICULTY:Easy;
#METER:8;
#RADARVALUES:0.323280,0.409650,0.245381,0.299910,0.000000,249.000000,222.000000,27.000000,33.000000,0.000000,0.000000,0.000000,0.000000,0.000000,0.323280,0.409650,0.245381,0.299910,0.000000,249.000000,222.000000,27.000000,33.000000,0.000000,0.000000,0.000000,0.000000,0.000000;
#CREDIT:;
#NOTES:
// measure 0
0000
0000
0000
0000
,  // measure 1
0000
0000
0000
0000
,  // measure 2
0000
0000
0000
0000
,  // measure 3
0000
0000
0000
0000
,  // measure 4
0000
0000
0000
0000
,  // measure 5
1010
0000
0011
0000
,  // measure 6
1010
0000
0001
1000
,  // measure 7
0010
0100
0001
1000
,  // measure 8
0100
0100
0010
0010
,  // measure 9
0011
0000
1010
0000
,  // measure 10
0011
0000
1000
0001
,  // measure 11
0010
0010
0100
0100
,  // measure 12
1000
0000
0001
0000
2000
0000
0002
3003
,  // measure 13
0000
1001
0000
0000
0000
0000
0000
0000
,  // measure 14
0000
0000
0000
1000
,  // measure 15
0020
0031
0020
1030
,  // measure 16
0020
0031
0010
1000
,  // measure 17
0001
0000
0101
0000
,  // measure 18
1100
0000
1000
0001
,  // measure 19
1000
0000
1100
0000
,  // measure 20
0001
0100
0010
1000
,  // measure 21
0001
0001
1000
1000
,  // measure 22
0100
0100
0010
0010
,  // measure 23
0001
0010
0100
1000
,  // measure 24
0001
0100
0001
0000
,  // measure 25
1000
1000
0100
0010
,  // measure 26
0001
0001
0100
0010
,  // measure 27
1000
1000
0100
0010
,  // measure 28
0001
0001
1000
1000
,  // measure 29
2002
0000
0000
3003
,  // measure 30
0010
0010
0010
0010
,  // measure 31
1000
0010
0100
0001
,  // measure 32
0000
0011
1010
0000
,  // measure 33
1010
0011
1010
0000
,  // measure 34
0100
0100
0100
0100
,  // measure 35
0001
0100
0010
1000
,  // measure 36
0100
0000
0000
0000
1100
0000
0000
0001
,  // measure 37
0000
1000
0001
0000
,  // measure 38
1000
0100
0010
0001
,  // measure 39
1000
0001
0010
0100
,  // measure 40
1000
0100
0001
0100
,  // measure 41
1000
0100
0001
0100
,  // measure 42
2000
0000
0000
3000
,  // measure 43
0020
0000
0000
0030
,  // measure 44
0200
0000
0000
0300
,  // measure 45
0002
0000
0000
0003
,  // measure 46
2000
0000
0000
3000
0002
0000
0000
0003
,  // measure 47
0200
0000
0000
0300
0020
0000
0000
0030
,  // measure 48
2000
3000
0020
0030
0200
0300
0002
0003
,  // measure 49
1000
0000
0001
0000
1000
0001
1000
0000
,  // measure 50
1001
0000
0000
0000
,  // measure 51
0000
0000
0000
0000
,  // measure 52
0000
1000
0100
0000
0100
0000
0000
0010
,  // measure 53
0001
0001
0001
0000
,  // measure 54
1010
0011
1000
0001
,  // measure 55
0010
0100
1000
0100
,  // measure 56
0001
0000
0100
1000
,  // measure 57
0010
0000
0110
0000
,  // measure 58
1000
0020
0031
0020
,  // measure 59
1030
0020
0031
0010
,  // measure 60
0000
1010
0011
0000
,  // measure 61
0011
1010
0011
0000
,  // measure 62
0001
0200
1300
0200
,  // measure 63
0301
0200
1300
0200
,  // measure 64
0301
0000
0010
0000
0100
0000
0000
1000
,  // measure 65
0000
0001
0100
0000
,  // measure 66
1000
0020
0130
0002
,  // measure 67
0013
0200
1300
0001
,  // measure 68
0100
0100
0001
0001
,  // measure 69
0010
0100
1000
0001
,  // measure 70
1000
0002
0013
0200
,  // measure 71
1300
0020
0031
0020
,  // measure 72
1030
0001
0100
0010
,  // measure 73
1000
0000
0100
0000
0010
0001
0000
0000
,  // measure 74
0000
0100
0000
0000
1000
0000
0001
0000
,  // measure 75
0000
1001
0000
0000
0000
0000
0000
0000
;

//---------------dance-single - ----------------
#NOTEDATA:;
#CHARTNAME:;
#STEPSTYPE:dance-single;
#DESCRIPTION:;
#CHARTSTYLE:;
#DIFFICULTY:Beginner;
#METER:4;
#RADARVALUES:0.140218,0.204825,0.027265,0.090882,0.000000,108.000000,105.000000,3.000000,10.000000,0.000000,0.000000,0.000000,0.000000,0.000000,0.140218,0.204825,0.027265,0.090882,0.000000,108.000000,105.000000,3.000000,10.000000,0.000000,0.000000,0.000000,0.000000,0.000000;
#CREDIT:;
#NOTES:
0000
0000
0000
0000
,
0000
0000
0000
0000
,
0000
0000
0000
0000
,
0000
0000
0000
0000
,
0000
0000
0000
0000
,
0010
0000
0000
0000
,
0010
0000
0000
0000
,
0010
0000
1000
0000
,
0001
0000
0000
0000
,
0010
0000
0000
0000
,
0010
0000
0000
0000
,
0010
0000
0001
0000
,
1000
0000
1000
0000
,
0000
1000
1000
0000
,
1000
0000
0000
0000
,
0001
0000
0100
0000
,
1000
0000
0100
0000
,
0002
0000
0000
0000
,
0003
0000
0000
0000
,
2000
0000
0000
0000
,
3000
0000
0000
0000
,
0010
0000
0010
0000
,
0010
0000
0000
0000
,
0100
0000
0100
0000
,
0100
0000
0000
0000
,
0001
0000
1000
0000
,
0100
0000
0000
0000
,
1000
0000
0001
0000
,
0100
0000
0010
0000
,
0110
0000
0000
0000
,
0010
0000
0010
0000
,
0010
0000
1000
0000
,
0000
0001
0001
0000
,
1000
0000
1000
0000
,
0100
0000
0100
0000
,
0100
0000
0010
0000
,
0001
0000
0000
0000
,
1001
0000
0000
0000
,
1000
0000
0100
0000
,
0010
0000
0001
0000
,
1000
0000
0001
0000
,
0010
0000
0100
0000
,
2000
0000
0000
3000
,
0000
0000
0000
0000
,
0002
0000
0000
0003
,
0000
0000
0000
0000
,
0200
0000
0300
0000
,
0020
0000
0030
0000
,
2000
3000
0002
0003
,
0100
0000
0000
0000
,
1001
0000
0000
0000
,
0000
0000
0000
0000
,
0000
0001
0001
0000
,
1000
1000
1000
0000
,
0010
0000
0010
0000
,
1000
0000
0001
0000
,
0010
0000
0001
0000
,
0100
0000
0000
0000
,
0001
0000
0100
0000
,
1000
0000
0100
0000
,
0001
0000
0010
0000
,
0100
0000
1000
0000
,
1000
0000
0100
0000
,
0001
0000
0100
0000
,
1000
0000
0010
0000
,
0100
0000
0001
0000
,
0010
0000
0000
0000
,
0010
0000
0000
0000
,
0001
0000
1000
0000
,
0100
0000
1000
0000
,
0010
0000
0000
0000
,
0010
0000
0000
0000
,
1000
0000
0001
0000
,
0100
0000
0200
0000
,
0300
0000
0020
0000
,
0000
0030
0000
0000
0000
0000
0000
0000
;
