#VERSION:0.83;
#TITLE:ACE;
#SUBTITLE:;
#ARTIST:VOLTA;
#TITLETRANSLIT:;
#SUBTITLETRANSLIT:;
#ARTISTTRANSLIT:;
#GENRE:;
#CREDIT:;
#MUSIC:ACE.ogg;
#BANNER:ACE-bn.png;
#BACKGROUND:;
#JACKET:;
#DISCIMAGE:;
#CDIMAGE:;
#SELECTABLE:YES;
#LYRICSPATH:;
#CDTITLE:;
#SAMPLESTART:13.711;
#SAMPLELENGTH:12.800;
#OFFSET:0.689;
#BPMS:0.000=150.000,
100.000=143.000,
101.000=148.000,
102.000=146.000,
104.000=144.000,
105.000=143.000,
107.000=140.000,
108.000=138.000,
111.000=136.000,
112.000=135.000,
113.000=130.000,
115.000=129.000,
116.000=128.000,
117.000=127.000,
118.000=126.000,
119.000=124.000,
120.000=122.000,
121.000=120.000,
123.000=119.000,
124.000=116.000,
125.000=115.000,
126.000=114.000,
127.000=111.000,
128.000=110.000,
131.000=109.000,
166.000=111.000,
168.000=113.000,
169.000=114.000,
170.000=118.000,
171.000=120.000,
172.000=123.000,
173.000=126.000,
174.000=131.000,
175.000=137.000,
176.000=139.000,
177.000=145.000,
178.000=150.000
;
#STOPS:;
#WARPS:;
#DELAYS:;
#SPEEDS:;
#SCROLLS:;
#TICKCOUNTS:;
#TIMESIGNATURES:;
#LABELS:;
#COMBOS:;
#FAKES:;
#BGCHANGES:;
#FGCHANGES:;
#ATTACKS:;

//---------------dance-single - XMOD XO+ JU----------------
#NOTEDATA:;
#CHARTNAME:;
#CHARTSTYLE:;
#CREDIT:Talkion;
#STEPSTYPE:dance-single;
#DESCRIPTION:XMOD XO+ JU-;
#DIFFICULTY:Hard;
#METER:12;
#METERF:12;
#RADARVALUES:0,0,0,0,0;
#NOTES:
// measure 0
0000
0000
0000
0000
,  // measure 1
0000
0000
0000
0000
,  // measure 2
0000
0000
0000
0000
,  // measure 3
0000
0000
0000
0000
,  // measure 4
0000
0000
0000
0000
,  // measure 5
1000
0000
0001
0000
0100
0100
0010
1000
,  // measure 6
0001
0010
0100
2000
0001
0000
3010
0000
,  // measure 7
1000
0010
0100
0001
0010
0010
0100
1000
,  // measure 8
0002
0100
2003
0100
3001
0010
0001
0100
,  // measure 9
0110
0000
0000
0000
0020
0000
0000
1030
0000
0011
0000
0000
0001
0000
0001
0000
,  // measure 10
0010
0000
2000
3000
0010
0000
0200
0300
1000
0000
0000
0000
1001
0000
0000
0000
,  // measure 11
1000
0000
0020
0000
0100
0000
0000
0031
0000
0000
0010
0000
0100
0000
0001
0000
,  // measure 12
1000
1100
0100
0010
0001
0000
1000
0000
,  // measure 13
1020
0000
0000
0000
0230
0000
0000
0301
0000
1100
0000
0000
1000
0000
1000
0000
,  // measure 14
0100
0000
0002
0003
0100
0000
0020
0030
0001
0000
0000
0001
0000
0000
1000
0000
,  // measure 15
0010
0000
0200
0000
0010
0000
0000
1300
0000
0000
0100
0000
0010
0000
1000
0000
,  // measure 16
0002
0010
0013
0200
1000
1300
0001
0100
,  // measure 17
0110
0000
0010
1000
0100
0010
0001
1000
,  // measure 18
0010
1000
0100
0010
1000
0010
0002
0100
,  // measure 19
1003
0000
0001
0000
0100
0000
0000
0010
0000
0010
0000
0000
1000
0000
0001
0000
,  // measure 20
0010
0100
0010
0001
0100
0010
1000
0100
,  // measure 21
0110
0000
0010
0001
0100
0010
1000
0001
,  // measure 22
0010
0001
0100
0010
0001
0010
2000
0100
,  // measure 23
3001
0000
1000
0000
0100
0000
0000
0010
0000
0010
0000
0000
0001
0000
1000
0000
,  // measure 24
1010
0010
0100
0001
1000
0100
0010
0001
,  // measure 25
0100
0001
1000
0100
,  // measure 26
1000
0001
0100
0010
,  // measure 27
1000
0001
0010
0001
,  // measure 28
1000
0000
0010
0000
1000
0002
0023
0230
,  // measure 29
2300
3001
0100
0001
1000
0100
1000
0010
,  // measure 30
0100
0001
0010
0001
1000
0010
0100
0010
,  // measure 31
1000
0001
0010
0001
1000
0010
1000
0100
,  // measure 32
0020
2030
0000
3020
0032
0000
2003
0100
,  // measure 33
3002
0003
1000
0000
0000
0001
0010
0001
0000
1000
0010
1000
0000
0001
0000
0001
,  // measure 34
0000
0010
0110
0100
1000
0002
0203
0320
,  // measure 35
2030
0000
3001
0000
0000
0010
0000
0010
0000
0001
1000
0001
0000
0100
0000
0100
,  // measure 36
0000
0010
0000
0010
0000
0000
1000
0000
0001
0000
0000
0010
0000
0000
0110
0000
,  // measure 37
1002
0000
0003
0000
0000
1000
0010
1000
0000
0001
0010
0001
0000
1000
0000
1000
,  // measure 38
0000
0010
0000
0000
0110
0000
0100
0000
0001
0000
0010
0000
0110
0000
0100
0000
,  // measure 39
1000
0000
0001
0000
0000
0100
0000
0100
0000
0001
1000
0001
0000
0010
0000
0010
,  // measure 40
0000
0100
0000
0100
0000
0000
1000
0000
0001
0000
0000
0100
0000
0000
0110
0000
,  // measure 41
1001
0000
0001
0010
0100
0000
1000
0010
,  // measure 42
0100
0000
0001
1000
0100
1000
0001
0000
,  // measure 43
0100
0000
0001
1000
0100
0010
0100
0000
,  // measure 44
1000
0000
0001
0000
0100
0010
0100
0000
,  // measure 45
0001
0000
1000
0100
0010
0000
0001
0100
,  // measure 46
0010
0000
1000
0001
0010
0001
1000
0000
,  // measure 47
0010
0100
0010
0100
0001
1000
0001
1000
,  // measure 48
0100
0000
0000
0000
0020
0130
1100
0000
,  // measure 49
0101
0000
0000
0000
0100
0000
0020
0000
0001
0000
0030
1010
0000
0000
0001
0000
,  // measure 50
1000
0000
0100
0000
0010
0000
2000
3000
0010
0000
0001
0000
0102
0000
0000
0000
,  // measure 51
1003
0000
0100
0000
0010
0000
0000
0010
0000
0000
0001
0000
0100
0000
0010
0000
,  // measure 52
2000
0000
3002
0000
0013
0001
0100
0010
,  // measure 53
1000
0000
0000
0000
0001
0000
0020
0000
1000
0000
0030
0110
0000
0000
0001
0000
,  // measure 54
0100
0000
2000
3000
0100
0000
0010
0000
2000
0000
0100
0000
3100
0000
0000
0000
,  // measure 55
1000
0000
0001
0000
0100
0000
2000
3000
0100
0000
0010
0000
1000
0000
0100
0000
,  // measure 56
0020
0000
0000
0000
0031
0100
0010
0000
,  // measure 57
1010
0000
0000
0000
0012
0000
0000
0010
0000
0000
1003
0000
0001
0000
1000
0000
,  // measure 58
0001
0000
0010
0000
0100
0000
0001
0000
1000
0000
0000
0000
0010
0100
0000
0010
,  // measure 59
0100
0000
0000
0000
1000
0000
0000
0001
0000
1000
0000
0000
0010
0000
0100
0000
,  // measure 60
0002
0010
0013
0000
0001
0100
0010
1000
,  // measure 61
1100
0000
0000
0000
0100
0000
0010
0000
0002
0000
0000
1000
0000
0000
0203
0000
,  // measure 62
0000
0001
0000
0000
0320
0000
0032
0000
1003
0000
0000
0000
0100
0010
0000
0100
,  // measure 63
0010
0000
2000
0000
0000
0010
0000
0000
3001
0000
2000
0000
0000
0010
0000
0000
,  // measure 64
3200
0000
0000
0000
0310
0001
1000
0001
,  // measure 65
0000
0000
0000
0000
,  // measure 66
0000
0000
0000
0000
,  // measure 67
0000
0000
0000
0000
,  // measure 68
0000
0000
0000
0000
0000
0100
0010
1000
;

//---------------dance-single - XMOD DS FS XO JA----------------
#NOTEDATA:;
#CHARTNAME:;
#CHARTSTYLE:;
#CREDIT:Talkion;
#STEPSTYPE:dance-single;
#DESCRIPTION:XMOD DS FS XO JA-;
#DIFFICULTY:Challenge;
#METER:17;
#METERF:17;
#RADARVALUES:0,0,0,0,0;
#NOTES:
// measure 0
0000
0000
0000
0000
,  // measure 1
0000
0000
0000
0000
,  // measure 2
0000
0000
0000
0000
,  // measure 3
0000
0000
0000
0000
,  // measure 4
0000
0000
0000
0000
,  // measure 5
1000
0000
0001
0000
0100
0100
0010
1000
,  // measure 6
0001
0010
0100
1000
0010
0100
0001
1000
,  // measure 7
0001
0010
0100
0010
0001
1000
0001
0100
0010
1000
0010
1000
0001
0010
0100
1000
,  // measure 8
0002
0100
2003
0100
3001
0010
0002
0203
,  // measure 9
1300
0000
0000
0000
0100
0001
0020
0100
0030
1010
0000
1000
0001
0010
0001
0010
,  // measure 10
0100
0000
0002
0003
0100
0010
0100
1000
0002
0000
0010
0000
0203
0300
0000
0000
,  // measure 11
0001
0000
1001
0000
1000
0100
0020
1000
0000
0130
1000
0010
0100
0001
0001
0000
,  // measure 12
1000
0000
0200
0000
1300
0001
0100
0010
2000
0000
0010
0000
3001
0000
0000
0000
,  // measure 13
2001
0000
0000
0000
3100
1000
0020
0100
0030
0011
0000
0001
1000
0010
1000
0010
,  // measure 14
0100
0000
2000
3000
0100
0010
0100
0001
2000
0000
0000
3001
0010
0001
0100
0000
,  // measure 15
0000
0000
1001
0000
0001
0100
0020
0001
0000
0130
0001
0010
0100
1000
1000
0000
,  // measure 16
2010
0001
3100
0102
1000
0013
2010
3200
,  // measure 17
0301
0000
0000
0000
0100
0010
0001
0100
00M0
0100
1000
0001
0100
0010
1000
0100
,  // measure 18
00M0
0100
0001
1000
0100
0020
1000
0000
0230
0001
0000
0310
0001
1000
0010
2000
,  // measure 19
0100
0000
3001
0000
1000
0010
0100
1000
0000
0100
00M0
0100
1000
0001
0010
0100
,  // measure 20
M000
0100
0001
1000
0010
0100
000M
0100
1000
0001
0010
0100
1000
0010
0100
0010
,  // measure 21
0001
0000
0000
0000
0010
0100
0001
0010
0M00
0010
1000
0001
0010
0100
1000
0010
,  // measure 22
0M00
0010
0001
1000
0010
0200
1000
0000
0320
0001
0000
0130
0001
1000
0100
2000
,  // measure 23
0010
0000
3001
0000
1000
0100
0010
1000
0000
0010
0100
1000
0001
0010
0001
0100
,  // measure 24
2000
0000
3200
0000
0301
1000
0100
1000
0001
0000
0100
0001
0020
0000
0000
0000
,  // measure 25
0031
1000
0010
0100
0001
0010
0001
1000
,  // measure 26
0010
0100
0001
0010
0001
1000
0010
1000
,  // measure 27
0001
0010
0100
1000
0010
1000
0001
0010
,  // measure 28
0100
1000
0010
1000
0001
0020
0230
0320
,  // measure 29
0031
1000
0100
1000
0001
0100
0010
1000
0001
1000
0100
1000
0001
0100
0010
1000
,  // measure 30
0001
0010
0100
0010
0001
1000
0100
1000
0001
1000
0010
0100
0001
0010
0100
1000
,  // measure 31
0001
0100
0001
1000
0100
0010
0001
1000
0001
0100
0001
1000
0100
0010
0100
1000
,  // measure 32
0020
0032
0000
0023
2030
0000
3002
0100
,  // measure 33
0023
0030
0001
0000
1000
0001
1000
0100
00M0
0100
0002
0010
1003
0100
00M0
0100
,  // measure 34
0000
0001
2000
0010
3001
1000
0001
0100
00M0
0100
2000
0010
3001
0100
00M0
0100
,  // measure 35
1000
0000
0010
0000
1000
0100
00M0
0100
0001
1000
0002
0010
1003
0100
00M0
0100
,  // measure 36
0001
0010
0002
0010
1003
0001
0100
0010
1000
0000
0000
0001
0000
0000
0011
0000
,  // measure 37
1020
0000
0130
0000
0001
1000
0001
0010
0M00
0010
2000
0100
3001
0010
M000
0010
,  // measure 38
0200
0000
0000
0301
0010
0100
1000
0010
0M00
0010
0002
0100
1003
0001
0020
0000
,  // measure 39
0130
0000
1100
0000
1000
0010
0M00
0010
0001
1000
0002
0100
1003
0010
0M00
0010
,  // measure 40
0001
0100
0002
0100
1003
0001
0010
0100
1000
0000
0000
0001
0000
0200
0010
0310
,  // measure 41
1000
0000
0001
0000
0010
0100
1000
0001
0100
0000
0001
0000
0010
0100
1000
0001
,  // measure 42
0100
0000
0001
0000
1000
0100
1000
0100
0010
0000
0001
0000
1000
0010
1000
0010
,  // measure 43
0100
0000
0001
0000
1000
0100
1000
0001
0100
0010
1000
0000
0001
0010
0001
0000
,  // measure 44
0100
0000
0001
0000
1000
0100
1000
0001
0100
0010
1000
0000
0001
0010
0001
0000
,  // measure 45
0100
0010
1000
0001
0010
0100
1000
0010
0100
0001
1000
0001
0010
0100
1000
0010
,  // measure 46
0100
0001
1000
0100
0010
0100
1000
0001
1000
0010
0100
0001
0100
0010
1000
0001
,  // measure 47
1000
0100
1000
0100
0010
0001
0010
0001
1000
0010
1000
0010
0100
0001
0100
0001
,  // measure 48
0010
0001
2000
0100
3001
0010
1010
0000
,  // measure 49
0011
0000
0000
0000
0010
0100
1000
0010
0200
0000
030M
0100
0010
0000
0001
0000
,  // measure 50
0012
0000
1000
0000
0203
0000
1300
0100
0010
0000
1000
0000
1200
0000
0000
0000
,  // measure 51
0301
0000
0100
0000
0110
0000
0010
0001
1000
0000
0001
0000
0100
0000
0010
0000
,  // measure 52
0002
0000
0000
0000
0013
0100
0010
1000
0002
0000
0013
0100
2000
0000
3100
0010
,  // measure 53
0002
0000
1000
0000
0103
0010
0001
0010
0200
0000
0300
0001
1000
0000
0100
0000
,  // measure 54
0020
0000
1000
0000
0130
0000
1000
0010
0100
0000
0001
0100
0010
0100
0001
0000
,  // measure 55
1001
0000
1000
0000
0100
0000
0001
0100
0010
0001
1000
0001
0100
0010
1000
0000
,  // measure 56
2001
0000
3100
0010
0001
1000
0010
1000
0001
0010
0100
0020
1000
0000
0100
0000
,  // measure 57
0031
0000
0000
0000
1002
0000
0000
0100
0000
0000
1003
0000
0010
0100
0001
0010
,  // measure 58
0M00
0010
1000
0100
0001
0100
0010
0001
0100
0000
0000
0000
0010
0100
M000
0100
,  // measure 59
0010
0004
1003
1000
0020
0000
0000
0130
M000
0100
0010
0000
0011
0000
0001
0001
,  // measure 60
1000
0000
0010
0000
1000
0001
0010
0100
1000
0010
0200
0000
0001
0000
0010
0000
,  // measure 61
1300
0000
0000
0000
0100
0000
0010
0100
0001
0000
0010
0100
M000
0200
0001
0000
,  // measure 62
0310
0100
000M
0200
1000
0000
0310
0000
0110
0000
0000
0000
0100
0010
000M
0010
,  // measure 63
0100
0000
0001
0000
0000
1000
0100
0000
0110
0000
0010
0100
M000
0100
0010
0000
,  // measure 64
2010
0000
0000
0000
3002
0010
2003
0010
,  // measure 65
3001
0000
0000
0000
,  // measure 66
0000
0000
0000
0000
,  // measure 67
0000
0000
0000
0000
,  // measure 68
0000
0000
0000
0000
0000
0010
0001
0100
;
