#VERSION:0.83;
#TITLE:50th Memorial Songs -The BEMANI History-;
#SUBTITLE:;
#ARTIST:BEMANI Sound Team;
#TITLETRANSLIT:;
#SUBTITLETRANSLIT:;
#ARTISTTRANSLIT:;
#GENRE:;
#ORIGIN:;
#CREDIT:;
#BANNER:50th Memorial Songs -The BEMANI History-.png;
#BACKGROUND:50th Memorial Songs -The BEMANI History--bg.png;
#PREVIEWVID:;
#JACKET:50th Memorial Songs -The BEMANI History--jacket.png;
#CDIMAGE:;
#DISCIMAGE:;
#LYRICSPATH:;
#CDTITLE:;
#MUSIC:50th Memorial Songs -The BEMANI History-.ogg;
#OFFSET:0.000000;
#SAMPLESTART:77.699318;
#SAMPLELENGTH:14.117653;
#SELECTABLE:YES;
#BPMS:0.000=136.000;
#STOPS:;
#DELAYS:;
#WARPS:;
#TIMESIGNATURES:0.000=4=4;
#TICKCOUNTS:0.000=4;
#COMBOS:0.000=1;
#SPEEDS:0.000=1.000=0.000=0;
#SCROLLS:0.000=1.000;
#FAKES:196.167=0.208;
#LABELS:0.000=Song Start;
#BGCHANGES:0.000=50th Memorial Songs -The BEMANI History-.avi=1.000=0=0=0=StretchNoLoop====,
99999=-nosongbg-=1.000=0=0=0 // don't automatically add -songbackground-
;
#KEYSOUNDS:;
#ATTACKS:
;

//---------------dance-single - ----------------
#NOTEDATA:;
#CHARTNAME:;
#STEPSTYPE:dance-single;
#DESCRIPTION:;
#CHARTSTYLE:;
#DIFFICULTY:Hard;
#METER:15;
#RADARVALUES:0.636868,0.839534,0.133326,0.341647,0.654128,535.000000,519.000000,16.000000,41.000000,4.000000,0.000000,0.000000,0.000000,0.000000,0.636868,0.839534,0.133326,0.341647,0.654128,535.000000,519.000000,16.000000,41.000000,4.000000,0.000000,0.000000,0.000000,0.000000;
#CREDIT:Kingly;
#NOTES:
// measure 0
0000
0000
0000
0000
,  // measure 1
0000
0000
0000
0000
,  // measure 2
0000
0000
0000
0000
,  // measure 3
0000
0000
0000
0000
,  // measure 4
0000
0000
0000
0000
,  // measure 5
1002
0000
0000
0000
1003
0100
1000
0000
0001
0010
0001
0000
1000
0010
0100
0001
,  // measure 6
2000
0000
0000
0000
0000
0000
3100
0010
0002
0000
0000
2003
0000
0000
3010
0000
,  // measure 7
0210
0000
0301
1000
0100
0010
0100
0002
,  // measure 8
0000
1003
0010
0002
0000
1003
0010
0100
,  // measure 9
0001
0000
0000
0000
0101
0000
0000
0000
1000
0000
0001
0000
1000
0100
0000
0000
,  // measure 10
1100
0000
0001
0000
1000
0100
0010
0001
0000
0000
1000
0000
0001
0100
0000
0000
,  // measure 11
0010
1000
0010
1000
0010
0000
0100
0001
0000
0001
1000
0000
0100
1000
0100
0000
,  // measure 12
0010
0001
0010
0001
0010
0000
0100
1000
0000
0010
0000
0200
0000
0000
0000
0000
,  // measure 13
0301
0000
0001
0000
1000
0100
0000
1000
0010
0000
0100
0001
0000
0010
0000
0001
,  // measure 14
1000
0000
1000
0000
0001
0100
0000
0001
0010
0000
0100
1000
0000
0001
0000
0100
,  // measure 15
0010
1000
0010
1000
0010
0000
0100
0001
0000
0001
1000
0000
0100
1000
0100
0000
,  // measure 16
0010
0001
0010
0000
0001
0100
0001
0000
1000
0010
0100
0001
1000
0000
0000
0000
,  // measure 17
0110
0000
1001
0000
1000
0100
00M0
0100
,  // measure 18
0001
0100
0010
2000
0100
0000
0100
0000
,  // measure 19
3002
0000
0100
0000
0000
0100
0000
0100
,  // measure 20
0103
0000
0010
0000
1000
0001
1000
0000
0100
0000
0010
0000
0001
0000
0100
0000
,  // measure 21
0010
1010
0000
0102
0000
1000
0000
2003
,  // measure 22
0000
0010
3010
2000
0100
0000
0100
0000
,  // measure 23
3001
0200
0000
0000
0000
0000
0000
0310
,  // measure 24
0000
1002
0000
0000
0000
0000
0013
0100
,  // measure 25
1000
0100
1000
0100
0001
0100
0001
0100
0010
0001
1000
0100
0000
1000
0010
0100
,  // measure 26
0001
0100
0001
0100
1000
0100
1000
0100
0010
1000
0010
0100
0001
1000
0001
0000
,  // measure 27
1000
0010
1000
0010
0001
0010
0001
0010
0100
0001
1000
0010
0000
1000
0100
0010
,  // measure 28
0001
0010
0001
0010
1000
0010
1000
0010
0100
1000
0100
0010
0001
1000
0001
0000
,  // measure 29
0100
0000
0100
0000
0010
0000
0010
0000
1000
0000
0001
0010
0M00
0010
1000
0000
,  // measure 30
0001
0001
0010
0010
0100
0100
1000
1000
,  // measure 31
0001
0100
0001
0100
1000
0100
1000
0100
0010
1000
0001
0010
0000
0001
0100
0010
,  // measure 32
1000
0100
0010
0000
0001
0100
0010
0000
1000
0100
0010
0000
0001
0100
0010
0000
,  // measure 33
1001
0000
0000
1100
0000
0000
0110
0000
0000
0011
0000
0000
2001
0000
0000
0000
,  // measure 34
3020
0000
0000
0130
0002
0000
0023
0000
,  // measure 35
0230
0000
0000
0000
0000
0000
1300
0010
1000
0000
0001
0000
0010
0000
0100
0000
,  // measure 36
2000
0000
0000
0000
0000
0000
3020
0000
0230
0000
0000
0000
0301
0100
0010
1000
,  // measure 37
0002
0000
0000
0000
0000
0000
0013
0100
1000
0000
0010
0000
1000
0000
0001
0010
,  // measure 38
0002
0000
0000
0000
1003
0010
0200
0001
0000
0000
0310
0000
1000
0000
0100
0000
,  // measure 39
0020
0000
0000
0000
0031
0100
0020
1000
0000
0000
0130
0000
0001
0000
0010
0000
,  // measure 40
0100
0000
1000
0100
00M0
0100
0001
0000
0100
0000
0010
0000
0001
0000
0010
0000
,  // measure 41
1000
0001
0010
0000
0100
1000
0001
0000
1000
0010
1000
0010
0100
0001
0100
0001
,  // measure 42
1000
0000
0001
0100
00M0
0100
1000
0000
0100
0000
0010
0000
1000
0000
0010
0000
,  // measure 43
0001
1000
0010
0000
0100
0001
1000
0000
0001
0010
0001
0010
0100
0000
1000
0000
,  // measure 44
1100
0000
0001
0000
0100
0000
0010
0000
1000
0000
0001
0000
0010
0000
0100
1000
,  // measure 45
0100
0000
0010
0000
0001
0000
1000
0010
1000
0000
0100
0000
0010
0001
0010
0000
,  // measure 46
0001
1000
0001
0000
0100
0000
0010
0000
1000
0000
0001
0000
0010
0000
0001
0100
,  // measure 47
0001
0000
1000
0000
0010
0000
1000
0100
1000
0000
0001
0000
0010
0100
0010
0000
,  // measure 48
0001
1000
0010
1000
0001
0100
0001
0020
,  // measure 49
0030
0000
0110
0000
0000
0000
0100
0000
2000
0000
0000
3002
0000
0000
0103
0000
,  // measure 50
0010
0000
1000
0000
0010
0000
1000
0001
0010
0001
0010
0100
1000
0010
1000
0001
,  // measure 51
0100
0000
0100
0000
0010
0000
0010
0000
1000
0001
1000
0001
0010
0100
1000
0001
,  // measure 52
0100
0000
0000
0010
1000
0010
1000
0000
0000
0001
0000
0000
0010
0000
0000
0100
1000
0100
1000
0000
0000
0001
0000
0000
,  // measure 53
0100
0000
0010
1000
0100
1000
0001
1000
0010
0000
0100
0000
1000
0000
0100
0000
,  // measure 54
0001
0000
0000
0010
0001
0010
0001
0000
0000
1000
0000
0000
0010
0000
0000
0100
0001
0100
0001
0000
0000
1000
0000
0000
,  // measure 55
0100
0000
0010
0001
0100
0001
1000
0001
0010
0000
0100
0000
0001
0000
0100
0000
,  // measure 56
1000
0000
1000
0000
0100
0010
0100
0010
0100
0000
1000
0002
0000
0000
0000
0103
,  // measure 57
1000
0100
0010
0100
0001
1000
0000
2000
0000
0000
0000
0000
3100
0000
0010
0001
,  // measure 58
1000
1000
0010
0100
1000
0001
0010
0100
,  // measure 59
0001
0100
0010
0100
1000
0100
0010
0100
0001
1000
0001
1000
0100
0010
0001
1000
,  // measure 60
0020
0000
0000
0000
,  // measure 61
0230
0000
0000
0302
0000
0000
2003
0000
,  // measure 62
3200
0000
0000
0000
,  // measure 63
0320
0000
0000
0032
0000
0000
0000
0000
,  // measure 64
2000
0000
0000
0000
,  // measure 65
3003
0000
0000
0000
;

//---------------dance-single - FS XO DS- FSDS-----------------
#NOTEDATA:;
#CHARTNAME:;
#STEPSTYPE:dance-single;
#DESCRIPTION:FS XO DS- FSDS-;
#CHARTSTYLE:;
#DIFFICULTY:Challenge;
#METER:16;
#RADARVALUES:0.709482,0.893698,0.241653,0.433308,0.862450,596.000000,567.000000,29.000000,52.000000,17.000000,0.000000,2.000000,0.000000,1.000000,0.709482,0.893698,0.241653,0.433308,0.862450,596.000000,567.000000,29.000000,52.000000,17.000000,0.000000,2.000000,0.000000,1.000000;
#CREDIT:Kingly;
#NOTES:
// measure 0
0000
0000
0000
0000
,  // measure 1
0000
0000
0000
0000
,  // measure 2
0000
0000
0000
0000
,  // measure 3
0000
0000
0000
0000
,  // measure 4
0000
0000
0000
0000
,  // measure 5
1001
0000
0000
0000
0000
0000
1000
0100
1000
0100
0000
0000
0010
0001
0010
0001
0000
0000
1000
0010
1000
0001
0100
0001
,  // measure 6
2000
0000
0000
0000
0000
0000
3100
0010
0002
0000
0000
2003
0000
0000
3010
0000
,  // measure 7
0102
0000
1003
0100
0010
0001
0010
2000
,  // measure 8
0000
3001
0100
2000
0000
3100
0010
0001
,  // measure 9
0012
0000
0000
0000
2003
0000
0000
0000
3020
0000
0100
0000
0000
0100
0000
0000
,  // measure 10
0130
0000
0001
0010
0001
1000
0010
2000
0000
0000
3100
0000
0010
0002
0000
0000
,  // measure 11
1003
0100
1000
0001
1000
0100
1000
0010
0M00
0010
0001
0010
0100
1000
0001
0000
,  // measure 12
1000
0100
1000
0001
1000
0100
0010
0002
0000
0010
0000
1003
0010
0200
0000
0000
,  // measure 13
0301
0000
0001
0000
1000
0010
0000
1000
0100
0000
0010
0001
0000
0100
0000
0001
,  // measure 14
1000
0000
1000
0000
0001
0010
0000
0001
0100
0000
0010
1000
0000
0100
0000
1000
,  // measure 15
0001
0100
0001
1000
0001
0100
0001
0010
0M00
0010
1000
0010
0100
0001
1000
0000
,  // measure 16
0100
0010
0001
0100
0010
1000
0100
1000
0001
0100
0001
0010
0100
0000
0000
0000
,  // measure 17
2001
0000
0000
0000
3100
00M0
0100
0000
0001
0000
0101
0000
0000
0000
1010
0000
,  // measure 18
0001
0010
0001
2000
0100
0000
0100
0000
,  // measure 19
3002
0000
0000
0000
0103
00M0
0100
0000
1000
0000
0100
00M0
0100
0000
0001
0000
,  // measure 20
0100
0000
1000
0000
0001
0000
0010
0000
1000
0000
0001
0000
0100
0001
1000
0100
,  // measure 21
0010
0110
0100
2001
0000
0010
0000
0001
,  // measure 22
0000
0000
0000
0000
0000
0000
3100
0000
0000
00M0
0000
0000
0100
0000
0000
0000
0000
0000
0001
0000
1000
0000
0001
0000
0100
0000
0000
0000
0000
0000
0010
0000
0000
0000
0000
0000
0100
0000
0000
0000
0000
0000
0001
0000
0000
0000
0000
0000
,  // measure 23
0021
0200
0000
0000
0000
0000
0330
1001
,  // measure 24
0000
0000
0240
0000
0000
0000
0000
0000
0330
0000
1000
0001
0010
0100
1000
0001
,  // measure 25
0100
1000
0100
0010
1000
0001
0010
0100
0001
0100
1000
0010
0100
0001
1000
0100
,  // measure 26
0010
0001
1000
0100
0001
0100
0010
0001
0010
0100
1000
0001
0010
0100
0001
0000
,  // measure 27
0100
0001
0100
0010
0001
1000
0010
0100
1000
0100
0001
0010
0100
1000
0001
0100
,  // measure 28
0010
1000
0001
0100
1000
0100
0010
1000
0010
0100
0001
1000
0100
0010
0001
0000
,  // measure 29
1001
0000
1000
0000
0100
0000
0100
0000
0010
0000
0001
0010
0M00
0010
1000
0000
,  // measure 30
1001
0001
0100
0100
0010
0010
1000
1000
,  // measure 31
0001
0100
0001
0010
0100
1000
0010
1000
0001
0010
0001
0100
0010
1000
0100
0010
,  // measure 32
0001
0010
0100
0001
1000
0010
0100
1000
0001
0100
0010
0100
1000
0001
0010
0100
,  // measure 33
0001
0000
0000
0101
0000
0000
1010
0000
0000
1100
0000
0000
0014
0000
0000
0000
,  // measure 34
2003
0000
0000
3100
0020
0000
2030
0000
,  // measure 35
3020
0000
0000
0000
0000
0000
0031
0010
0100
0000
1000
0000
0001
0000
0100
0000
,  // measure 36
0020
0000
0000
0000
0000
0000
0031
0000
0020
0000
0000
0000
1030
0010
0100
0001
,  // measure 37
2000
0000
0000
0000
0000
0000
3100
0010
0001
0000
1000
0000
0001
0000
0100
0000
,  // measure 38
0002
0000
0000
0000
0000
0000
0000
0000
1003
0000
0100
00M0
0200
0000
0001
0000
0000
0000
0000
0000
0310
0000
0000
0000
1000
0000
0000
0000
0100
0000
0000
0000
,  // measure 39
2000
0000
0000
0000
0000
0000
0000
0000
3001
0000
0100
M000
0200
0000
0010
0000
0000
0000
0000
0000
1300
0000
0000
0000
0100
0000
0000
0000
0010
0000
0000
0000
,  // measure 40
0001
0000
0200
0001
0300
010M
1000
0000
0100
0000
0010
0000
1000
0000
0010
0000
,  // measure 41
0001
0100
0010
1000
0001
0010
0001
0100
0010
1000
0010
0001
0010
0100
0001
1000
,  // measure 42
0100
0000
0020
0001
0030
001M
1000
0001
0010
0000
0200
1000
0300
M100
0001
0100
,  // measure 43
0010
1000
0001
0010
0100
1000
0001
0010
0001
1000
0010
0100
1000
0000
0100
0000
,  // measure 44
0120
0000
0000
0000
0000
0000
1030
0000
0000
0001
0000
0000
1000
0000
0000
0100
0000
0000
0010
0000
0000
0001
0010
0100
,  // measure 45
1000
0001
0100
0101
1000
0010
2020
3030
,  // measure 46
0011
0000
0000
1000
0000
0000
0100
0000
0000
1000
0000
0000
0001
0000
0000
0100
0000
0000
0010
0000
0000
1000
0010
0100
,  // measure 47
0001
1000
0100
1100
0001
0010
0022
0033
,  // measure 48
1010
0001
0010
0100
1000
0001
0100
2000
,  // measure 49
3000
0000
0000
0000
0M00
0000
1020
0000
0000
0000
0000
0000
0000
0000
0000
0000
0000
0000
0130
0000
0000
0000
0000
0000
0002
0000
0000
0000
0000
0000
0000
0000
0000
2003
0000
0000
0000
0000
0000
0000
0000
0000
3010
0000
0000
0000
0000
0000
,  // measure 50
0100
0000
0001
0000
1000
0000
0100
0001
0100
0010
0001
0010
0100
1000
0001
1000
,  // measure 51
0010
0000
0010
0000
0100
0000
0100
0000
0001
1000
0010
0100
0001
1000
0100
0010
,  // measure 52
0001
0000
0000
0000
0000
0000
1000
0000
0010
0000
0100
0000
0001
0000
0000
0000
0000
0000
0100
0000
0000
00M0
0000
0000
0100
0000
0000
0000
0000
0000
1000
0000
0100
0000
0010
0000
0001
0000
0000
0000
0000
0000
0010
0000
0000
0M00
0000
0000
,  // measure 53
0010
0000
0000
0000
0000
0000
1000
0000
0010
0000
1000
0000
0001
0000
0000
0010
0000
0000
0001
0000
0000
1000
0000
0000
0100
0000
0000
0010
0000
0000
0001
0000
0000
1000
0000
0000
0001
0000
0000
0100
0000
0000
0010
0000
0000
0000
0000
0000
,  // measure 54
1000
0000
0000
0000
0000
0000
0001
0000
0010
0000
0100
0000
1000
0000
0000
0000
0000
0000
0100
0000
0000
00M0
0000
0000
0100
0000
0000
0000
0000
0000
0001
0000
0100
0000
0010
0000
1000
0000
0000
0000
0000
0000
0010
0000
0000
0M00
0000
0000
,  // measure 55
0010
0000
0000
0000
0000
0000
0001
0000
0010
0000
0001
0000
1000
0000
0000
0010
0000
0000
1000
0000
0000
0001
0000
0000
0100
0000
0000
0010
0000
0000
1000
0000
0000
0001
0000
0000
1000
0000
0000
0100
0000
0000
0010
0000
0000
0001
0000
0000
,  // measure 56
1000
0000
1000
0000
0001
0100
0001
1000
0100
00M0
0100
0001
0000
0100
0010
0100
,  // measure 57
1000
0100
0001
1000
0010
0100
0000
0200
0000
0000
0301
0000
1000
0000
0100
0000
,  // measure 58
1100
1000
1010
0010
0110
0100
0101
0001
,  // measure 59
1000
0100
0010
0100
0001
0100
0010
0001
1000
0010
0100
1000
0001
0010
0100
0001
,  // measure 60
2000
0000
0000
0000
,  // measure 61
3200
0000
0000
0320
0000
0000
0032
0000
,  // measure 62
0203
0000
0000
0000
,  // measure 63
0320
0000
0000
0000
0000
0000
0000
0000
0000
2030
0000
0000
0000
0000
0000
0000
0000
0000
0000
0000
0000
3001
0010
0100
,  // measure 64
2000
0000
0000
0000
,  // measure 65
3000
0000
0000
0000
;

//---------------dance-single - ----------------
#NOTEDATA:;
#CHARTNAME:;
#STEPSTYPE:dance-single;
#DESCRIPTION:;
#CHARTSTYLE:;
#DIFFICULTY:Medium;
#METER:13;
#RADARVALUES:0.502352,0.677044,0.116660,0.424975,0.279150,422.000000,408.000000,14.000000,51.000000,0.000000,0.000000,0.000000,0.000000,0.000000,0.502352,0.677044,0.116660,0.424975,0.279150,422.000000,408.000000,14.000000,51.000000,0.000000,0.000000,0.000000,0.000000,0.000000;
#CREDIT:Kingly;
#NOTES:
// measure 0
0000
0000
0000
0000
,  // measure 1
0000
0000
0000
0000
,  // measure 2
0000
0000
0000
0000
,  // measure 3
0000
0000
0000
0000
,  // measure 4
0000
0000
0000
0000
,  // measure 5
2001
3200
0320
0032
,  // measure 6
2003
0000
0000
0000
0000
0000
0000
0000
3010
0000
0000
0100
0000
0000
0001
0000
,  // measure 7
0020
0000
0130
1000
0100
0010
0100
0002
,  // measure 8
0000
0103
0010
0002
0000
1003
0010
0100
,  // measure 9
0001
0101
1000
1100
,  // measure 10
0001
0011
1000
1010
,  // measure 11
0001
0000
0100
0000
1000
0000
0100
0001
0000
0100
0001
0000
1000
0000
0010
0000
,  // measure 12
1000
0000
0100
0000
0001
0000
0100
1000
0000
0100
0000
0010
0000
0002
0000
0000
,  // measure 13
1003
0000
0010
0000
1000
0001
0000
1000
0001
0000
1000
0100
0000
0020
0000
0000
,  // measure 14
0031
0000
0010
0000
0001
1000
0000
0001
1000
0000
0001
0100
0000
0020
0000
0000
,  // measure 15
1030
0000
0010
0000
0001
0000
0010
1000
0000
0010
1000
0000
0001
0000
0010
0000
,  // measure 16
0100
0001
1000
0010
0100
1000
0001
0000
,  // measure 17
0110
0000
1001
0000
1000
0010
0000
0100
,  // measure 18
0001
0010
0001
2000
0100
0000
0100
0000
,  // measure 19
3002
0000
2003
0000
0000
3200
0000
0310
,  // measure 20
0001
0001
1000
0010
0100
0001
0000
1000
,  // measure 21
0000
0100
0010
0001
0000
1000
0100
1000
,  // measure 22
0000
0001
0001
2000
0100
0000
0100
0000
,  // measure 23
3001
0020
0000
0000
0000
0000
0000
0130
,  // measure 24
0000
2002
0000
0000
0000
0000
3003
0000
,  // measure 25
1000
0100
1000
0000
0010
0000
0100
0000
0001
0000
0010
0100
0000
0100
1000
0000
,  // measure 26
0001
0100
0001
0000
0010
0000
0100
0000
1000
0000
0001
0000
0100
0000
0010
0000
,  // measure 27
1000
0001
1000
0000
0100
0000
0010
0000
0001
0000
1000
0010
0000
0010
0100
0000
,  // measure 28
0001
1000
0001
0000
0010
0000
0100
0000
1000
0000
0010
0000
1000
0000
0001
0000
,  // measure 29
0010
0001
0001
0010
0001
0001
0001
1000
,  // measure 30
0010
1000
1000
0010
1000
1000
2000
0000
,  // measure 31
3001
0100
0001
0100
0000
0001
0010
0000
0100
1000
0100
1000
0000
0010
1000
0000
,  // measure 32
0001
0000
1000
0100
1000
0100
1000
0000
0010
0000
0100
0001
0100
0001
0100
0000
,  // measure 33
0010
0000
0000
1010
0000
0000
0001
0000
0000
0011
0000
0000
0110
0000
0000
0000
,  // measure 34
1002
0000
0000
0013
2000
0000
3002
0000
,  // measure 35
0203
0000
0000
1300
0100
0010
0001
1000
,  // measure 36
0020
0000
0000
0031
0020
0000
0130
0001
,  // measure 37
0020
0000
0000
0130
1000
0001
1000
0010
,  // measure 38
0200
0000
0000
0000
0301
1000
0001
0020
0000
0000
0130
0000
0100
0000
1000
0000
,  // measure 39
0200
0000
0000
0000
1300
0001
1000
0020
0000
0000
0130
0000
0100
0000
0001
0000
,  // measure 40
0010
0000
0010
0001
0000
0002
0010
0000
0000
0000
1003
0000
0010
0000
0100
0000
,  // measure 41
0001
0010
1000
0010
0001
0100
1000
0100
,  // measure 42
0010
0000
0010
1000
0000
2000
0010
0000
0000
0000
3001
0000
0010
0000
0100
0000
,  // measure 43
1000
0000
0010
0000
0001
0000
0010
0000
1000
0001
0010
0100
1000
0000
0100
0000
,  // measure 44
0010
0000
0001
0000
0010
0000
0001
0000
1000
0000
0010
0000
0100
0000
0001
1000
,  // measure 45
0002
0000
0000
0023
0000
0000
0130
0000
,  // measure 46
2100
0000
0000
0000
3001
0000
0100
0000
0010
0000
1000
0000
0100
0000
1000
0001
,  // measure 47
2000
0000
0000
3020
0000
0000
0130
0000
,  // measure 48
0102
0000
1003
0100
0010
0001
0200
1000
,  // measure 49
0000
0000
0320
0000
0000
0000
1030
0000
0002
0000
0000
0023
0000
0000
0130
0000
,  // measure 50
1000
0000
0010
0000
1000
0000
0001
0100
0001
0000
1000
0100
1000
0000
0001
0000
,  // measure 51
0100
0000
0100
0000
0010
0000
0010
0000
1000
0001
1000
0001
0010
0000
0100
0000
,  // measure 52
1000
0000
0100
0010
0100
0000
1000
0000
0001
0000
0000
0000
0001
0000
0010
0000
,  // measure 53
0001
0000
1000
0010
1000
0000
0001
0100
0001
0000
0010
0000
0100
0000
1000
0000
,  // measure 54
0001
0000
0100
0010
0100
0000
0001
0000
1000
0000
0000
0000
1000
0000
0010
0000
,  // measure 55
1000
0000
0001
0010
0001
0000
1000
0100
1000
0000
0010
0000
0100
0000
0001
0000
,  // measure 56
1000
0000
0010
0000
1000
0000
0001
0010
0001
0000
0100
0000
0010
0000
1000
0100
,  // measure 57
1000
0001
0100
1000
0001
0010
1000
0001
,  // measure 58
1000
1000
0100
0010
1000
0001
0100
0010
,  // measure 59
0001
1000
0001
1000
0010
0000
0100
0000
0001
1000
0001
1000
0100
0000
0010
0001
,  // measure 60
2000
0000
0000
0000
,  // measure 61
3020
0000
0000
0230
0000
0000
0302
0000
,  // measure 62
2003
0000
0000
0000
,  // measure 63
3002
0000
0000
0023
0000
0000
0000
0000
,  // measure 64
0200
0000
0000
0000
,  // measure 65
0330
0000
0000
0000
;
