#VERSION:0.83;
#TITLE:360;
#SUBTITLE:;
#ARTIST:Charli XCX;
#TITLETRANSLIT:;
#SUBTITLETRANSLIT:;
#ARTISTTRANSLIT:;
#GENRE:;
#ORIGIN:;
#CREDIT:;
#BANNER:360-bn.png;
#BACKGROUND:360-bg.png;
#PREVIEWVID:;
#JACKET:360-jacket.png;
#CDIMAGE:;
#DISCIMAGE:;
#LYRICSPATH:;
#CDTITLE:cdtitle.png;
#MUSIC:360.ogg;
#OFFSET:0.005000;
#SAMPLESTART:39.010002;
#SAMPLELENGTH:15.044995;
#SELECTABLE:YES;
#DISPLAYBPM:120.000000;
#BPMS:0.000=120.000;
#STOPS:77.750=1.000,
187.750=1.000;
#DELAYS:;
#WARPS:;
#TIMESIGNATURES:0.000=4=4;
#TICKCOUNTS:0.000=4;
#COMBOS:0.000=1;
#SPEEDS:0.000=1.000=0.000=0;
#SCROLLS:0.000=1.000;
#FAKES:;
#LABELS:0.000=Song Start;
#BGCHANGES:0.001=360.avi=1.000=0=0=1=====,
99999=-nosongbg-=1.000=0=0=0 // don't automatically add -songbackground-
;
#KEYSOUNDS:;
#ATTACKS: TIME=27.50:LEN=0.00:MODS=*10000 50% stealth: TIME=27.37:LEN=0.03:MODS=*10000 40% stealth: TIME=83.37:LEN=0.04:MODS=*10000 40% stealth;

//---------------dance-single - 360----------------
#NOTEDATA:;
#CHARTNAME:;
#STEPSTYPE:dance-single;
#DESCRIPTION:360;
#CHARTSTYLE:;
#DIFFICULTY:Beginner;
#METER:1;
#RADARVALUES:0.065410,0.070932,0.000000,0.000000,0.000000,61.000000,61.000000,0.000000,0.000000,0.000000,0.000000,0.000000,0.000000,0.000000,0.065410,0.070932,0.000000,0.000000,0.000000,61.000000,61.000000,0.000000,0.000000,0.000000,0.000000,0.000000,0.000000,0.000000;
#CREDIT:Highflyer;
#ATTACKS:;
#DISPLAYBPM:120.000000;
#NOTES:
0000
0000
0000
0000
,
0000
0000
0000
0000
,
0000
0000
0000
0000
,
0000
0000
0000
0000
,
1000
0000
0000
0000
,
0100
0000
0000
0000
,
0001
0000
0000
0000
,
0010
0000
0000
0000
,
1000
0000
0000
0000
,
0010
0000
0000
0000
,
0001
0000
0000
0000
,
0100
0000
0000
0000
,
1000
0000
0000
0000
,
0100
0000
0000
0000
,
0001
0000
0000
0000
,
0010
0000
0000
0000
,
1000
0000
0000
0000
,
0100
0000
0000
0000
,
0001
0000
0000
0000
,
0010
0000
1000
0000
,
0000
0000
0100
0000
,
0000
0000
0001
0000
,
0000
0000
0010
0000
,
0000
0000
1000
0000
,
0000
0000
0010
0000
,
0000
0000
0001
0000
,
0000
0000
0100
0000
,
0000
0000
1000
0000
,
0000
0000
0010
0000
,
0000
0000
0001
0000
,
0000
0000
0100
0000
,
0000
0000
1000
0000
,
0000
0000
0100
0000
,
0000
0000
0001
0000
,
0000
0000
0010
0000
,
0000
0000
1000
0000
,
0000
0000
0010
0000
,
0000
0000
0001
0000
,
0000
0000
0100
0000
,
0000
0000
1000
0000
,
0000
0000
0100
0000
,
0000
0000
0001
0000
,
0000
0000
0010
0000
,
0000
0000
1000
0000
,
0000
0000
0100
0000
,
0000
0000
0001
0000
,
0000
0000
0010
0000
,
1000
0000
0000
0000
,
0010
0000
0000
0000
,
0001
0000
0000
0000
,
0100
0000
0000
0000
,
1000
0000
0000
0000
,
0010
0000
0000
0000
,
0001
0000
0000
0000
,
0100
0000
0000
0000
,
1000
0000
0000
0000
,
0100
0000
0000
0000
,
0001
0000
0000
0000
,
0010
0000
0000
0000
,
1000
0000
0000
0000
,
0100
0000
0000
0000
,
0001
0000
0000
0000
,
0010
0000
0000
0000
,
1000
0000
0000
0000
;

//---------------dance-single - 360----------------
#NOTEDATA:;
#CHARTNAME:;
#STEPSTYPE:dance-single;
#DESCRIPTION:360;
#CHARTSTYLE:;
#DIFFICULTY:Easy;
#METER:6;
#RADARVALUES:0.195157,0.212796,0.030024,0.120097,0.000000,182.000000,178.000000,4.000000,16.000000,0.000000,0.000000,0.000000,0.000000,0.000000,0.195157,0.212796,0.030024,0.120097,0.000000,182.000000,178.000000,4.000000,16.000000,0.000000,0.000000,0.000000,0.000000,0.000000;
#CREDIT:Highflyer;
#ATTACKS:;
#DISPLAYBPM:120.000000;
#NOTES:
0000
0000
0000
0000
,
0000
0000
0000
0000
,
0000
0000
0000
0000
,
0000
0000
0000
0000
,
1000
0000
0010
0000
,
0100
0010
1000
0100
,
0010
0000
0100
0000
,
0001
0000
1000
0000
,
0010
0100
0010
1000
,
0001
0000
0010
0000
,
0100
0010
0001
1000
,
0010
0000
0100
0000
,
0010
0000
0200
0000
,
0310
0000
0000
0000
2000
0000
0000
3000
,
0001
0100
0020
0000
,
0130
0000
0010
1000
,
1000
0000
0000
0000
0200
0000
0000
0300
,
0010
0000
0001
0002
,
0003
0000
1000
0000
,
0010
0000
1001
0000
,
1000
0010
0001
0000
,
0100
1000
0010
0000
,
0001
0100
1000
0000
,
0010
0000
0100
0000
,
0010
1000
0100
0000
,
0001
0010
1000
0000
,
0100
0001
0010
0000
,
2000
0000
3010
0001
,
0100
1000
0100
0001
,
0010
1000
0010
0001
,
0100
1000
0100
0001
,
0010
1000
0001
0000
,
0100
0000
0010
0100
,
0001
0000
1000
0100
,
0010
0000
0100
1000
,
0010
0000
1000
0000
,
0001
0100
0010
1001
,
0000
1000
0001
0000
,
2000
0000
0000
0000
0200
3000
0002
0300
,
0020
0003
2000
0030
3001
0000
0001
0000
,
0200
0000
0000
0300
0010
0000
1000
0000
,
0002
0000
0000
0003
1001
0000
1000
0000
,
0200
0000
0000
0300
0010
0000
0100
0000
,
1000
0001
0001
0000
,
0200
0000
0000
0300
0010
0000
1000
0000
,
0100
0100
0000
0010
,
0001
0000
1000
0010
,
1001
0000
0001
0010
,
1000
0000
0100
0001
,
0010
0000
1000
0100
,
0001
0000
0010
0000
,
0100
0000
0010
0001
,
0100
0000
1000
0010
,
0001
0000
0100
1000
,
0010
0000
0002
0000
,
0013
1000
0100
0001
,
0100
1000
0010
0001
,
0010
1000
0100
0001
,
0100
1000
0010
0001
,
0100
1000
0010
0001
,
0010
1000
0100
0001
,
0100
1000
0010
0001
,
0010
1000
0100
0001
,
0010
0000
0000
0000
;

//---------------dance-single - 360----------------
#NOTEDATA:;
#CHARTNAME:;
#STEPSTYPE:dance-single;
#DESCRIPTION:360;
#CHARTSTYLE:;
#DIFFICULTY:Medium;
#METER:10;
#RADARVALUES:0.325977,0.356068,0.030024,0.382808,0.000000,304.000000,300.000000,4.000000,51.000000,0.000000,0.000000,0.000000,0.000000,0.000000,0.325977,0.356068,0.030024,0.382808,0.000000,304.000000,300.000000,4.000000,51.000000,0.000000,0.000000,0.000000,0.000000,0.000000;
#CREDIT:Highflyer;
#ATTACKS:;
#DISPLAYBPM:120.000000;
#NOTES:
0000
0000
0000
0000
,
0000
0000
0000
0000
,
0000
0000
0000
0000
,
0000
0000
0000
0000
,
1000
0000
0010
0000
0100
0001
1000
0000
,
0100
0000
0010
0000
0100
1000
0001
0000
,
0100
0000
0010
0000
0100
0001
1000
0000
,
0100
0000
0020
0200
0030
0300
0020
0230
,
0310
0001
1000
0000
0010
0000
0100
0010
,
1000
0000
0100
0000
0010
0100
1000
0001
,
0000
1000
0010
0000
0100
0010
1000
0000
,
0001
0000
0010
0000
0100
0000
2000
3020
,
0230
0300
0001
0100
0200
0000
0000
0310
,
1000
0000
0001
0000
0010
0200
0000
0310
,
0000
0001
0001
0000
2000
0000
0000
3010
,
0100
0000
0001
0000
1000
0000
0002
0203
,
2300
3000
0100
0100
0200
0000
0000
0301
,
1000
0000
0100
0000
0010
0001
0200
0020
,
0330
0010
0010
0100
0002
0000
0000
0013
,
0100
0100
1001
1000
,
0010
0000
0001
0100
1000
0000
0010
0000
,
0001
0000
0100
1000
0010
0000
0001
0000
,
0100
0000
1000
0001
1000
0000
0000
0001
,
0001
0000
2000
3200
2300
0000
3001
0000
,
0010
0000
1000
0100
0001
0000
0010
0000
,
1000
0000
0100
0001
0010
0000
1000
0000
,
0100
0000
0001
1000
0001
0000
0000
1000
,
2000
0000
3002
0203
2300
3000
0100
0000
,
0001
0000
0010
0100
1000
0000
0010
0000
,
0100
0000
0001
0010
0100
0000
1000
0000
,
0001
0000
0100
0010
1000
0000
0001
0000
,
0100
0010
2000
0000
3001
0000
0010
0000
,
0100
1000
0001
0000
0100
0000
0010
0000
,
0100
0001
0010
0000
0100
0000
0010
0000
,
0001
1000
0010
0000
0100
0000
0010
0000
,
2000
0000
3001
0010
,
0100
0010
0001
0000
1000
0000
1001
0000
,
0000
1001
1000
0010
,
0100
0010
1000
0000
0001
0100
1000
0100
,
0001
0100
1000
0100
0001
0000
0010
0100
,
0200
0000
0000
1300
0001
0000
1000
0000
,
0010
0200
0000
0310
0000
0010
0010
0100
,
0002
0000
0000
0013
0100
0000
1000
0000
,
0001
0000
2000
3200
0302
0003
0100
0100
,
0200
0000
0000
1300
0001
0000
0100
0010
,
0100
0001
2000
0002
3003
1000
1000
0001
,
0020
0000
0000
1030
0010
0000
1001
0000
,
1000
0000
0001
0000
0100
0000
1000
0010
,
0001
0000
0100
0000
1000
0000
0010
0001
,
0100
0000
1000
0000
0010
0000
0001
1000
,
0001
0000
0000
1000
1000
0000
0002
0023
,
0032
0000
1003
0000
0100
0000
0001
0010
,
1000
0000
0100
0000
0001
0000
0010
1000
,
0100
0000
0001
0000
0010
0000
1000
0001
,
1000
0000
0000
0001
0002
0000
2003
3020
,
0032
0003
0010
0000
1000
0000
0100
0010
,
0001
0000
1000
0000
0010
0000
1000
0100
,
0010
0000
0100
0000
1000
0000
0001
0100
,
0010
0000
0100
0001
2000
0000
3002
0023
,
2030
3000
0010
0000
0001
0000
1000
0010
,
0100
0000
0010
0000
1000
0000
0001
1000
,
0010
0000
0100
0000
0001
0000
1000
0100
,
0010
0000
0001
1000
2000
0000
3002
0203
,
2300
3000
0000
0000
;

//---------------dance-single - XO 360----------------
#NOTEDATA:;
#CHARTNAME:;
#STEPSTYPE:dance-single;
#DESCRIPTION:XO 360;
#CHARTSTYLE:;
#DIFFICULTY:Hard;
#METER:12;
#RADARVALUES:0.494327,0.498495,0.112591,0.570459,0.131356,461.000000,446.000000,15.000000,76.000000,0.000000,0.000000,0.000000,0.000000,0.000000,0.494327,0.498495,0.112591,0.570459,0.131356,461.000000,446.000000,15.000000,76.000000,0.000000,0.000000,0.000000,0.000000,0.000000;
#CREDIT:Highflyer;
#ATTACKS:;
#DISPLAYBPM:120.000000;
#NOTES:
0000
0000
0000
0000
,
0000
0000
0000
0000
,
0000
0000
0000
0000
,
0000
0000
0000
0000
,
1000
0010
0100
0001
1000
0010
0100
1000
,
0100
0001
1000
0010
1000
0100
0010
1000
,
0010
0001
1000
0001
0010
0100
1000
0010
,
0100
0000
0002
0203
2300
0000
3002
0023
,
1030
0100
1100
0100
0010
1000
0001
0100
,
1000
0010
0100
1000
0001
0010
1000
0002
,
0000
0013
0010
0100
1000
0001
0100
0010
,
0100
0001
1000
0100
0020
0000
0032
0023
,
2030
0000
3010
0001
0201
0000
0310
0100
,
0000
0000
0100
0000
0001
0000
1000
0100
1000
0000
0002
0000
0000
0000
0003
0000
,
0001
1000
1000
0010
0200
0000
0001
0301
,
1000
0000
0100
0000
0010
0000
0001
1000
0001
0000
1000
0000
0002
0000
0203
0000
,
2300
3100
0010
1000
1200
0000
0310
0100
,
0010
0000
0001
0000
1000
0000
0001
0100
0001
0000
1000
0000
0200
0000
0302
0000
,
0103
0010
0010
0001
0200
0000
0310
1000
,
0001
0010
0110
0000
1001
0000
1000
0010
,
0001
0100
1000
0010
0100
0000
0010
1000
,
0100
0001
0010
1000
0100
0000
1000
0010
,
0001
1000
0001
0010
2000
0000
3001
0010
,
2000
0000
3002
0203
2300
0000
3010
1000
,
0100
0001
0010
1000
0200
0300
1001
0110
,
1001
0000
1000
0001
0100
0000
0001
0010
,
1000
0001
1000
0010
0002
0000
1003
0010
,
0002
0000
0000
0000
2003
0000
3200
0000
0302
0000
0013
0000
0100
0000
1000
0001
,
0000
1000
0010
0000
0100
0001
0010
0000
0100
0000
0010
0000
0001
0000
1000
0100
,
0000
1000
0100
0000
0010
0001
0100
0000
0010
0000
0100
0000
0100
0000
0010
1000
,
0000
0010
1000
0000
0100
1000
0010
0000
0100
0000
0001
0000
1000
0000
0100
0010
,
0000
0100
1000
0000
0020
0000
0000
0000
0130
0000
0001
0000
1000
0000
0100
0000
,
0001
0100
0010
0001
1000
0010
0001
1000
,
0100
0001
0010
0100
0010
0001
1000
0001
,
0100
0010
1000
0100
0010
1000
0010
1000
,
0020
0000
0100
0000
0031
0100
1000
0100
,
0010
1000
0100
0001
0100
0010
1001
0000
,
2000
0000
3020
0000
1030
0100
0010
0010
,
0100
0010
0100
0100
2000
3020
0032
2003
,
3200
0302
0023
2030
3010
0100
1000
0001
,
1200
0000
0000
0000
0000
0000
1300
0000
0001
0000
0100
0000
0010
0000
1000
0001
,
0010
0002
0000
0000
0103
0010
0010
1000
,
0200
0000
0000
0000
0310
0000
0001
0000
0010
0000
0001
0000
1000
0000
0010
0100
,
0001
1000
0002
0023
2030
3010
0100
1000
,
0102
0000
0000
0000
0000
0000
1003
0000
0010
0000
0100
0000
0001
0000
0010
0100
,
1000
0002
0203
2300
3100
0010
0010
1000
,
0002
0000
0013
1000
0010
0001
0202
0303
,
1000
0000
0001
0010
1000
0100
0001
0010
,
0100
0000
0010
0001
0100
1000
0010
0001
,
0100
0000
0001
0010
1000
0001
1000
0010
,
0002
0000
1003
0010
0002
0000
2003
3200
,
0302
0000
0013
0001
0100
1000
0010
0001
,
0200
0300
1001
0110
1001
0000
0001
1000
,
0100
0000
1000
0010
0001
1000
0001
0010
,
2000
0000
3001
0010
2000
0000
3002
0203
,
2300
0000
3010
0000
0100
0000
0001
1000
0000
0001
0010
0000
0100
1000
0010
0000
,
0100
0000
0010
0000
1000
0000
0001
0100
0000
0001
0100
0000
0010
1000
0100
0000
,
0010
0000
0100
0000
0100
0000
0010
0001
0000
0010
0001
0000
0100
0001
0010
0000
,
0100
0001
0100
2000
3020
0000
0230
2300
,
3002
0000
0013
0000
1000
0000
0001
0100
0000
0001
0100
0000
0010
1000
0100
0000
,
0010
0000
0001
0000
1000
0000
0100
0010
0000
0100
0010
0000
0100
1000
0010
0000
,
0100
0000
0010
0000
0100
0000
0001
1000
0000
0001
1000
0000
0010
1000
0100
0000
,
0010
1000
0010
0001
0200
0000
2300
3002
,
0023
0030
0000
0000
;

//---------------dance-single - FS XO- DS-----------------
#NOTEDATA:;
#CHARTNAME:brats are the wurst;
#STEPSTYPE:dance-single;
#DESCRIPTION:FS XO- DS-;
#CHARTSTYLE:;
#DIFFICULTY:Challenge;
#METER:15;
#RADARVALUES:0.641231,0.711432,0.120097,0.405326,0.577965,598.000000,582.000000,16.000000,54.000000,5.000000,0.000000,0.000000,0.000000,0.000000,0.641231,0.711432,0.120097,0.405326,0.577965,598.000000,582.000000,16.000000,54.000000,5.000000,0.000000,0.000000,0.000000,0.000000;
#CREDIT:Highflyer;
#ATTACKS:;
#DISPLAYBPM:120.000000;
#NOTES:
0000
0000
0000
0000
,
0000
0000
0000
0000
,
0000
0000
0000
0000
,
0000
0000
0000
0000
,
1000
0000
0010
0000
1000
0000
0001
0010
0000
0001
0010
0000
0100
0000
0100
0000
,
1000
0000
0001
0000
0010
0000
0001
0100
0000
0001
0100
0000
0010
0000
0010
0000
,
1000
0000
0100
0000
0100
0000
1000
0010
0000
1000
0010
0000
1000
0000
0001
0000
,
0020
0000
0000
0000
0130
0000
1000
0001
0000
1000
0010
0000
0100
0001
0100
0001
,
1000
0000
0100
0000
0010
0000
0001
0100
0000
1000
0100
0000
0001
0000
0010
0000
,
10M0
0000
1000
0000
0010
0000
0100
0001
0000
0100
0010
0000
1000
0000
1000
0000
,
0010
0000
0100
0000
0100
0000
0001
0010
0000
0001
1000
0000
0010
0000
0100
0000
,
0001
0000
0010
0000
0100
0000
0100
1000
0000
0001
1000
0000
0010
0100
0010
0100
,
0002
0000
0000
0000
0013
0000
0001
1000
0200
0000
0010
0000
0000
0000
0310
0001
,
0010
0000
0100
0000
1000
0000
0100
1000
0001
0100
0020
0000
0M00
0000
1M30
0000
,
0001
0000
0010
0000
0010
0000
0100
1000
0002
0000
0100
0000
0000
0000
0103
0010
,
1000
0000
0001
0000
1000
0000
0001
0010
0100
1000
0001
0000
2000
0000
3200
0000
,
0302
0000
0103
0000
1000
0000
0001
1000
0200
0000
1000
0000
0000
0000
1300
0000
,
0001
0100
0010
0000
0100
0000
0010
1000
0001
0100
0010
0000
2000
0000
3002
0000
,
1003
0000
0010
0000
0010
0000
0100
0001
2000
0000
0100
0000
0000
0000
3100
0010
,
0001
0000
1000
0000
1010
0000
1000
0001
1001
0000
1000
0000
0001
0010
0100
1000
,
0100
0100
0001
1000
0010
0010
0001
0000
0101
0000
0001
0000
1000
0010
1000
0001
,
0010
0010
1000
0001
0100
0100
0010
0000
0002
0000
1003
0000
1000
0000
0010
0100
,
1000
0000
0100
0000
0001
0000
0010
0100
0001
0000
0100
0000
1000
0000
0001
0100
,
0002
0000
0000
0000
2003
0000
3020
0000
0032
0000
0013
0000
1000
0100
0010
0100
,
1000
0001
0100
0100
0100
0010
1000
0000
1001
0000
0000
0000
1100
0000
0101
0000
,
1100
0000
0001
0100
0010
0000
1000
0000
1010
0000
1000
0000
0001
0000
0010
0100
,
0001
0000
0100
0000
1000
0000
0010
0100
1000
0000
0100
0000
0001
0000
1000
0100
,
0020
0000
0001
0000
0030
0000
0000
0000
1001
0000
1000
0100
0010
0001
0000
1000
,
0010
0000
1000
0001
0100
0100
1000
0001
0000
0100
0010
0000
1000
0010
0000
1000
,
0001
0010
0100
0000
0010
0010
1000
0000
0001
0000
1000
0000
1000
0000
0001
0010
,
0000
0001
0010
0000
0100
0100
0001
1000
0000
0010
1000
0000
0001
0000
0100
0010
,
0000
0010
0100
0000
0020
0000
0000
0000
1030
0000
0001
0000
0010
0000
0100
1000
,
0000
0100
1000
0000
0010
0000
0010
0000
0100
0000
0001
0000
0010
0000
0001
1000
,
0000
0001
1000
0000
0010
0000
0010
0000
0100
0000
0001
0000
0001
0000
1000
0010
,
0000
1000
0010
0000
1000
0000
0100
0000
0010
0000
0001
0000
1000
0000
0010
0100
,
0000
0010
0100
0000
0010
1000
0001
0000
0010
0000
0100
0000
1000
0000
0001
0100
,
0000
0001
0100
0000
0010
0000
0010
0000
1000
0000
0001
0000
1001
0000
1000
0000
,
0100
0000
0010
0000
0100
0000
0010
0000
0001
0000
1000
0000
1000
0000
0001
0100
,
0000
0010
0100
0000
0010
0000
0010
0000
2000
0000
3200
0000
0302
0000
2003
0000
,
3020
0000
0032
0000
0203
0000
2300
0000
3100
0000
0010
1000
0001
0000
1000
0001
,
0200
0000
0010
0000
0000
0000
0310
1000
0010
0000
0100
0000
0001
0000
0100
0001
,
1000
0100
0020
0000
0M00
0000
0M31
0000
1000
0000
0010
0000
0010
0000
0100
0001
,
2000
0000
0100
0000
0000
0000
3100
0010
0001
0000
1000
0000
0001
0000
1000
0010
,
0100
0001
1000
0000
0002
0000
0203
0000
2300
0000
3100
0000
0001
0000
1000
0001
,
0200
0000
0001
0000
0000
0000
0301
0000
1000
0100
0010
0000
0100
0000
0010
0001
,
0010
0010
1000
0000
0002
0000
2003
0000
3001
0000
1000
0000
1000
0000
0100
1000
,
0002
0000
0100
0000
0000
0000
0103
0010
1000
0000
0001
0000
0011
0000
0001
1000
,
0020
0000
0030
0000
1000
0001
1000
0010
0100
0100
1000
0001
0010
0010
0100
0000
,
0001
0000
1000
0000
0001
0010
0001
0010
0100
0100
0001
1000
0010
0010
0100
0000
,
1000
0000
0001
0000
0001
0000
0100
0010
0001
0000
0010
0000
1000
0000
0100
0010
,
1000
0000
0010
0000
0001
0000
1000
0010
0200
0000
0301
0000
2000
0000
3020
0000
,
0032
0000
0013
0000
1000
0100
0010
0100
1000
0001
0100
0100
0100
0010
1000
0000
,
1001
0000
0000
0000
0011
0000
1010
0000
0011
0000
1000
0100
0010
0000
0001
0000
,
0101
0000
0001
0000
1000
0000
0100
0010
1000
0000
0010
0000
0001
0000
0100
0010
,
0001
0000
0010
0000
1000
0000
0001
0100
0020
0000
1000
0000
2030
0000
3200
0000
,
0301
0000
0100
1000
0010
1000
0000
0001
0010
0000
0001
1000
0100
0100
0001
1000
,
0000
0100
0010
0000
0001
0010
0000
0001
1000
0010
0100
0000
0010
0010
0001
1000
,
0010
0000
0100
0000
0001
0000
1000
0010
0000
1000
0010
0000
0100
0100
1000
0001
,
0010
0001
1000
0001
2000
0010
3002
0203
,
2300
0000
3100
0000
0001
1000
0001
0100
0010
1000
0001
0000
0010
0010
1000
0001
,
0010
0000
0100
0000
1000
0000
0010
0100
0001
1000
0100
0000
0010
0010
1000
0001
,
0100
0000
0010
0000
0010
0000
0100
0001
0000
0100
0001
0000
0100
0100
0010
0000
,
0001
1000
0010
0200
0302
0000
2003
3200
,
0302
0000
0000
0003
0000
0000
0000
0000
0000
0000
0000
0000
0000
0000
0000
0000
;

//---------------dance-double - ----------------
#NOTEDATA:;
#CHARTNAME:;
#STEPSTYPE:dance-double;
#DESCRIPTION:;
#CHARTSTYLE:;
#DIFFICULTY:Easy;
#METER:6;
#RADARVALUES:0.206952,0.213641,0.030024,0.135109,0.000000,193.000000,189.000000,4.000000,18.000000,0.000000,0.000000,0.000000,0.000000,0.000000,0.206952,0.213641,0.030024,0.135109,0.000000,193.000000,189.000000,4.000000,18.000000,0.000000,0.000000,0.000000,0.000000,0.000000;
#CREDIT:Highflyer;
#ATTACKS:;
#DISPLAYBPM:120.000000;
#NOTES:
00000000
00000000
00000000
00000000
,
00000000
00000000
00000000
00000000
,
00000000
00000000
00000000
00000000
,
00000000
00000000
00000000
00000000
,
00001000
00000000
00000100
00000000
,
00001000
00000100
00010000
00001000
,
01000000
00000000
00001000
00000000
,
00100000
00000000
01000000
00000000
,
00010000
00001000
00010000
01000000
,
00100000
00000000
00001000
00100000
,
00001000
00010000
00000100
00001000
,
00000001
00000000
00000010
00000000
,
00000001
00000000
00000200
00000000
,
00000301
00000000
00000000
00000000
00002000
00000000
00000000
00003000
,
00000010
00001000
00000200
00000000
,
00001300
00000000
00000100
00010000
,
00010000
00000000
00000000
00000000
00000200
00000000
00000000
00000300
,
00010000
00000000
00100000
00200000
,
00300000
00000000
10000000
00000000
,
00010000
00000000
11000000
00000000
,
10000000
00100000
00010000
00000000
,
01000000
10000000
00100000
00000000
,
10000000
00010000
01000000
00000000
,
00001000
00010000
00000010
00001000
,
00000100
00000001
00000010
00001000
,
00001000
00000010
00000001
00000100
,
00001000
00000010
00000001
00000100
,
00002000
00000000
00003010
00000001
,
00000100
00001000
00000100
00000001
,
00000010
00001000
00000010
00000001
,
00000100
00001000
00000100
00000001
,
00000010
00001000
00010000
00000000
,
00010000
00000000
00000100
00010000
,
00001000
00000000
00100000
00010000
,
10000000
00000000
00010000
00100000
,
01000000
00000000
00100000
00000000
,
00010000
01000000
00001000
00011000
,
00000000
10000000
00010000
00000000
,
20000000
00000000
00000000
00000000
02000000
30000000
00020000
03000000
,
00200000
00030000
20000000
00300000
30010000
00000000
00010000
00000000
,
02000000
00000000
00000000
03000000
00100000
00000000
01000000
00000000
,
00002000
00000000
00000000
00003000
01001000
00000000
01000000
00000000
,
00020000
00000000
00000000
00030000
00100000
00000000
00010000
00000000
,
01000000
00001000
00001000
00000000
,
00200000
00000000
00000000
00300000
00010000
00000000
01000000
00000000
,
00001000
00002000
00003000
00010000
,
00000100
00000000
00000010
00000001
,
00000011
00000000
00000001
00000100
,
00001000
00000000
00000010
00000001
,
00000100
00000000
00000001
00001000
,
00000010
00000000
00010000
00001000
,
01000000
00010000
00100000
10000000
,
01000000
00010000
00010000
01000000
,
10000000
00100000
00010000
01000000
,
10000000
00100000
00020000
00000000
,
01030000
10000000
00100000
00010000
,
00100000
10000000
01000000
00010000
,
01000000
10000000
00100000
00010000
,
00100000
10000000
01000000
00010000
,
00001000
00010000
00000010
00000001
,
00000010
00001000
00000100
00000001
,
00000100
00001000
00000010
00000001
,
00000010
00001000
00000001
00000100
,
00020000
00030000
00000000
00000000
;

//---------------dance-double - ----------------
#NOTEDATA:;
#CHARTNAME:;
#STEPSTYPE:dance-double;
#DESCRIPTION:;
#CHARTSTYLE:;
#DIFFICULTY:Medium;
#METER:10;
#RADARVALUES:0.325977,0.356068,0.030024,0.382808,0.000000,304.000000,300.000000,4.000000,51.000000,0.000000,0.000000,0.000000,0.000000,0.000000,0.325977,0.356068,0.030024,0.382808,0.000000,304.000000,300.000000,4.000000,51.000000,0.000000,0.000000,0.000000,0.000000,0.000000;
#CREDIT:Highflyer;
#ATTACKS:;
#DISPLAYBPM:120.000000;
#NOTES:
00000000
00000000
00000000
00000000
,
00000000
00000000
00000000
00000000
,
00000000
00000000
00000000
00000000
,
00000000
00000000
00000000
00000000
,
00010000
00000000
00000010
00000000
00001000
00000100
00010000
00000000
,
00001000
00000000
00100000
00000000
00001000
01000000
00010000
00000000
,
10000000
00000000
01000000
00000000
10000000
00100000
01000000
00000000
,
00001000
00000000
00020000
00002000
00030000
00003000
00020000
00032000
,
00013000
00000100
00001000
00000000
00000010
00000000
00000100
00000010
,
00010000
00000000
00001000
00000000
00100000
00001000
01000000
00100000
,
00000000
01000000
00010000
00000000
10000000
00010000
01000000
00000000
,
00001000
00000000
00010000
00000000
00000100
00000000
00000020
00000032
,
00000203
00000300
00000010
00000100
00000200
00000000
00000000
00000301
,
00001000
00000000
00000010
00000000
00010000
00002000
00000000
00013000
,
00000000
00000100
00000100
00000000
00002000
00000000
00000000
00003010
,
00010000
00000000
00001000
00000000
01000000
00000000
00002000
00203000
,
00020000
00330000
00100000
00010000
02000000
00000000
00000000
03001000
,
01000000
00000000
00100000
00000000
10000000
00010000
00200000
02000000
,
03300000
01000000
01000000
00100000
00002000
00000000
00000000
00013000
,
00000010
00000010
00001001
00001000
,
00000010
00000000
00000100
00001000
00010000
00000000
00000010
00000000
,
00001000
00000000
01000000
00100000
00010000
00000000
10000000
00000000
,
01000000
00000000
10000000
00010000
10000000
00000000
00000000
00010000
,
00010000
00000000
20000000
32000000
23000000
00000000
30010000
00000000
,
00100000
00000000
01000000
00010000
00001000
00000000
00100000
00000000
,
00010000
00000000
00000100
00000010
00000100
00000000
00001000
00000000
,
00000100
00000000
00000001
00001000
00000001
00000000
00000000
00001000
,
00002000
00000000
00003002
00000203
00002300
00003000
00000100
00000000
,
00000010
00000000
00001000
00000001
00000100
00000000
00000010
00000000
,
00010000
00000000
00001000
00100000
00010000
00000000
10000000
00000000
,
00100000
00000000
01000000
00010000
00100000
00000000
00001000
00000000
,
00010000
00000100
00000020
00000000
00000031
00000000
00001000
00000000
,
00000100
00010000
00001000
00000000
00100000
00000000
01000000
00000000
,
00100000
00001000
00010000
00000000
00000010
00000000
00010000
00000000
,
00000100
00001000
00000001
00000000
00000100
00000000
00000001
00000000
,
00002000
00000000
00003010
00010000
,
00000100
00010000
00001000
00000000
01000000
00000000
01001000
00000000
,
00000000
01001000
01000000
00010000
,
10000000
00010000
00100000
00000000
00001000
00010000
00100000
00010000
,
00001000
00010000
00100000
00010000
00001000
00000000
00010000
00010000
,
02000000
00000000
00000000
03100000
01000000
00000000
00100000
00000000
,
00001000
00020000
00000000
00031000
00000000
00001000
00001000
00010000
,
00000020
00000000
00000000
00001030
00000100
00000000
00000010
00000000
,
00000001
00000000
00000020
00000230
00000302
00000003
00000100
00000100
,
00000200
00000000
00000000
00001300
00000010
00000000
00010000
00000100
,
00010000
00001000
02000000
00002000
03003000
01000000
01000000
00001000
,
00020000
00000000
00000000
01030000
00010000
00000000
00110000
00000000
,
10000000
00000000
00010000
00000000
10000000
00000000
01000000
00100000
,
00001000
00000000
00100000
00000000
00010000
00000000
00000010
00000100
,
00000010
00000000
00001000
00000000
00000010
00000000
00000001
00001000
,
00000001
00000000
00000000
00001000
00001000
00000000
00000002
00000023
,
00000032
00000000
00001003
00000000
00000100
00000000
00000010
00001000
,
00010000
00000000
00000100
00000000
00001000
00000000
00100000
01000000
,
00100000
00000000
00010000
00000000
00100000
00000000
10000000
00010000
,
10000000
00000000
00000000
00010000
00020000
00000000
02030000
03200000
,
00320000
00030000
00100000
00000000
01000000
00000000
00001000
00010000
,
00000100
00000000
00000010
00000000
00000001
00000000
00000010
00000100
,
00001000
00000000
00000100
00000000
00010000
00000000
00001000
01000000
,
00100000
00000000
01000000
00010000
20000000
00000000
30020000
00230000
,
20300000
30000000
00100000
00000000
00010000
00000000
01000000
00001000
,
00100000
00000000
00001000
00000000
00010000
00000000
00000100
00010000
,
00000010
00000000
00000100
00000000
00000001
00000000
00001000
00000100
,
00010000
00000000
00000010
00001000
00002000
00000000
00003020
00000230
,
00002300
00003000
00000000
00000000
;

//---------------dance-double - ----------------
#NOTEDATA:;
#CHARTNAME:;
#STEPSTYPE:dance-double;
#DESCRIPTION:;
#CHARTSTYLE:;
#DIFFICULTY:Hard;
#METER:13;
#RADARVALUES:0.494327,0.498495,0.112591,0.600483,0.131356,461.000000,446.000000,15.000000,80.000000,0.000000,0.000000,0.000000,0.000000,0.000000,0.494327,0.498495,0.112591,0.600483,0.131356,461.000000,446.000000,15.000000,80.000000,0.000000,0.000000,0.000000,0.000000,0.000000;
#CREDIT:Highflyer;
#ATTACKS:;
#DISPLAYBPM:120.000000;
#NOTES:
00000000
00000000
00000000
00000000
,
00000000
00000000
00000000
00000000
,
00000000
00000000
00000000
00000000
,
00000000
00000000
00000000
00000000
,
00001000
00000010
00001000
00000100
00010000
00000010
00000100
00001000
,
00000100
00000010
00010000
00001000
00010000
00000100
00000010
00001000
,
00000010
00000100
00001000
00000100
00010000
00001000
00100000
00010000
,
01000000
00000000
00200000
02300000
23000000
00000000
30020000
00230000
,
01300000
00010000
01010000
00010000
00100000
10000000
00010000
01000000
,
10000000
00100000
01000000
10000000
00010000
00100000
01000000
00002000
,
00000000
00013000
00010000
00000100
00001000
00000001
00000010
00000100
,
00000010
00000001
00001000
00000100
00020000
00000000
00032000
00023000
,
02030000
00000000
03010000
00001000
02001000
00000000
03100000
01000000
,
00000000
00000000
00001000
00000000
00100000
00000000
00010000
01000000
00010000
00000000
02000000
00000000
00000000
00000000
03000000
00000000
,
00001000
00010000
00010000
00000100
00000020
00000000
00000001
00000031
,
00001000
00000000
00000100
00000000
00000010
00000000
00000001
00001000
00000001
00000000
00001000
00000000
00000002
00000000
00000203
00000000
,
00002300
00003100
00000010
00010000
00010200
00000000
00010300
00001000
,
01000000
00000000
00100000
00000000
10000000
00000000
00100000
01000000
00100000
00000000
10000000
00000000
02000000
00000000
03020000
00000000
,
01030000
00100000
00100000
00001000
02000000
00000000
03010000
00100000
,
00001000
00010000
00010100
00000000
00001010
00000000
00001000
00000010
,
00000001
00000100
00001000
00000010
00020000
00000000
00031000
00100000
,
10000000
01000000
00010000
00100000
02000000
00000000
03010000
00000010
,
00000001
00001000
00000001
00000010
00000200
00000000
00000301
00000010
,
00002000
00000000
00003002
00000203
00002300
00000000
00003001
00000010
,
00001000
00000100
00000001
00000010
00000200
00000300
00001100
00011000
,
01010000
00000000
01000000
00010000
10000000
00000000
00010000
00100000
,
10000000
00010000
10000000
00100000
02000000
00000000
13000000
00100000
,
00020000
00000000
00000000
00000000
20030000
00000000
32000000
00000000
03020000
00000000
00130000
00000000
00001000
00000000
00010000
00000100
,
00000000
00010000
00001000
00000000
00100000
00010000
01000000
00000000
00100000
00000000
01000000
00000000
00001000
00000000
00010000
00000100
,
00000000
00010000
00000100
00000000
00001000
00000010
00010000
00000000
00000100
00000000
00010000
00000000
00010000
00000000
00000100
00001000
,
00000000
00000100
00001000
00000000
00000001
00001000
00000010
00000000
00010000
00000000
00001000
00000000
00100000
00000000
01000000
10000000
,
00000000
01000000
00100000
00000000
00020000
00000000
00000000
00000000
01030000
00000000
00001000
00000000
00100000
00000000
01000000
00000000
,
00010000
01000000
00100000
00010000
10000000
00100000
00010000
10000000
,
01000000
00010000
00100000
00001000
00100000
00010000
10000000
00010000
,
01000000
00001000
00010000
00000100
00000010
00001000
00000010
00001000
,
00000020
00000000
00000100
00000000
00000031
00000100
00001000
00000100
,
00000010
00010000
00001000
00000010
00001000
00010000
00010200
00000000
,
00002300
00000000
00003020
00000000
00001030
00000100
00010000
00010000
,
00000100
00010000
00000100
00000100
00002000
00003020
00000032
00002003
,
00003200
00000302
00000023
00002030
00003010
00000100
00001000
00000001
,
00001200
00000000
00000000
00000000
00000000
00000000
00001300
00000000
00000010
00000000
00010000
00000000
00001000
00000000
01000000
00010000
,
10000000
00020000
00000000
00000000
00130000
01000000
01000000
10000000
,
00020000
00000000
00000000
00000000
00130000
00000000
00001000
00000000
01000000
00000000
00001000
00000000
00100000
00000000
00010000
01000000
,
00001000
00100000
00002000
00023000
02030000
03010000
00001000
01000000
,
00010200
00000000
00000000
00000000
00000000
00000000
00001300
00000000
00000010
00000000
00010000
00000000
00001000
00000000
01000000
00010000
,
10000000
00200000
02300000
23000000
31000000
00010000
00010000
10000000
,
02000000
00000000
03100000
10000000
00100000
00010000
02020000
03030000
,
00000001
00000000
00001000
00000010
00000100
00001000
00000010
00000100
,
00002000
00000000
00003001
00000010
00000100
00000001
00000010
00000100
,
00000002
00000000
00001003
00000100
00000100
00010000
00000010
00001000
,
00000200
00000000
00001300
00000010
00000002
00000000
00002003
00003200
,
00000320
00000000
00010030
00100000
10000000
01000000
00010000
00100000
,
10000000
00000000
00101000
00011000
01001000
00000000
00010000
01000000
,
00001000
00000000
01000000
00100000
00010000
10000000
00010000
00100000
,
02000000
00000000
03010000
00100000
20000000
00000000
30020000
02030000
,
03200000
00000000
00310000
00000000
01000000
00000000
00001000
00100000
00000000
00001000
00010000
00000000
00000100
00001000
00000001
00000000
,
00000010
00000000
00000001
00000000
00001000
00000000
00000100
00010000
00000000
00000100
00010000
00000000
00000010
00001000
00000100
00000000
,
00010000
00000000
00000100
00000000
00000100
00000000
00010000
00001000
00000000
00010000
00001000
00000000
01000000
00001000
00100000
00000000
,
01000000
00010000
01000000
20000000
30200000
00000000
02300000
23000000
,
30020000
00000000
00130000
00000000
01000000
00000000
00001000
00100000
00000000
00001000
00100000
00000000
00010000
01000000
00001000
00000000
,
00010000
00000000
00000100
00000000
00000010
00000000
00000001
00001000
00000000
00000001
00001000
00000000
00000001
00000010
00000100
00000000
,
00001000
00000000
00000100
00000000
00001000
00000000
00000010
00010000
00000000
00000010
00010000
00000000
00001000
00010000
00000100
00000000
,
00000010
00001000
00000010
00000001
00000200
00000000
00002300
00003002
,
00000023
00000030
00000000
00000000
;

//---------------dance-double - FS XO- DS-----------------
#NOTEDATA:;
#CHARTNAME:;
#STEPSTYPE:dance-double;
#DESCRIPTION:FS XO- DS-;
#CHARTSTYLE:;
#DIFFICULTY:Challenge;
#METER:15;
#RADARVALUES:0.641231,0.711432,0.120097,0.405326,0.577965,598.000000,582.000000,16.000000,54.000000,5.000000,0.000000,0.000000,0.000000,0.000000,0.641231,0.711432,0.120097,0.405326,0.577965,598.000000,582.000000,16.000000,54.000000,5.000000,0.000000,0.000000,0.000000,0.000000;
#CREDIT:Highflyer;
#ATTACKS:;
#DISPLAYBPM:120.000000;
#NOTES:
// measure 0
00000000
00000000
00000000
00000000
,  // measure 1
00000000
00000000
00000000
00000000
,  // measure 2
00000000
00000000
00000000
00000000
,  // measure 3
00000000
00000000
00000000
00000000
,  // measure 4
00010000
00000000
00000100
00000000
00010000
00000000
00001000
01000000
00000000
00001000
01000000
00000000
00100000
00000000
00100000
00000000
,  // measure 5
10000000
00000000
00010000
00000000
00100000
00000000
00010000
01000000
00000000
00010000
01000000
00000000
00001000
00000000
00001000
00000000
,  // measure 6
00010000
00000000
00000010
00000000
00000010
00000000
00010000
00001000
00000000
00010000
00001000
00000000
00010000
00000000
00000100
00000000
,  // measure 7
00000020
00000000
00000000
00000000
00000031
00000000
00000100
00000010
00000000
00000100
00000001
00000000
00001000
00000100
00001000
00000100
,  // measure 8
00010000
00000000
00001000
00000000
00100000
00000000
00010000
01000000
00000000
10000000
01000000
00000000
00010000
00000000
00100000
00000000
,  // measure 9
10M00000
00000000
10000000
00000000
00100000
00000000
01000000
00010000
00000000
01000000
00001000
00000000
00100000
00000000
00100000
00000000
,  // measure 10
00001000
00000000
00010000
00000000
00010000
00000000
00000010
00001000
00000000
00000010
00000100
00000000
00000001
00000000
00001000
00000000
,  // measure 11
00000010
00000000
00010000
00000000
00000100
00000000
00000100
00001000
00000000
00000001
00001000
00000000
00000010
00010000
00000010
00010000
,  // measure 12
00002000
00000000
00000000
00000000
01003000
00000000
00001000
00010000
00000200
00000000
00001000
00000000
00000000
00000000
00001300
00000001
,  // measure 13
00001000
00000000
00000100
00000000
00010000
00000000
00000100
00010000
00001000
01000000
00020000
00000000
0M000000
00000000
1M030000
00000000
,  // measure 14
01000000
00000000
10000000
00000000
10000000
00000000
00100000
01000000
00002000
00000000
00010000
00000000
00000000
00000000
00013000
00000100
,  // measure 15
00001000
00000000
00000010
00000000
00001000
00000000
00000010
00010000
00001000
00100000
00010000
00000000
00200000
00000000
02300000
00000000
,  // measure 16
03020000
00000000
01030000
00000000
10000000
00000000
00100000
10000000
02000000
00000000
10000000
00000000
00000000
00000000
13000000
00000000
,  // measure 17
00100000
01000000
00001000
00000000
01000000
00000000
00001000
00010000
00000100
00001000
00000001
00000000
00000200
00000000
00000320
00000000
,  // measure 18
00000130
00000000
00000001
00000000
00000001
00000000
00001000
00000010
00000200
00000000
00000001
00000000
00000000
00000000
00000301
00001000
,  // measure 19
00000010
00000000
00010000
00000000
00010100
00000000
00010000
00001000
00011000
00000000
00010000
00000000
00001000
00100000
00010000
10000000
,  // measure 20
01000000
01000000
00001000
00010000
00000010
00000010
00000001
00000000
00000101
00000000
00000001
00000000
00001000
00000010
00001000
00000100
,  // measure 21
00010000
00010000
01000000
00001000
00100000
00100000
01000000
00000000
00002000
00000000
00013000
00000000
00010000
00000000
00000010
00000100
,  // measure 22
00001000
00000000
00000100
00000000
00000010
00000000
00001000
00000100
00000010
00000000
00001000
00000000
00010000
00000000
00000010
00001000
,  // measure 23
00000020
00000000
00000000
00000000
00020030
00000000
00032000
00000000
00003200
00000000
00001300
00000000
00010000
00000010
00010000
00001000
,  // measure 24
00100000
00010000
01000000
01000000
01000000
00100000
10000000
00000000
11000000
00000000
00000000
00000000
00110000
00000000
01010000
00000000
,  // measure 25
00110000
00000000
00010000
01000000
00001000
00000000
00100000
00000000
00101000
00000000
00100000
00000000
00010000
00000000
10000000
01000000
,  // measure 26
00010000
00000000
01000000
00000000
00100000
00000000
00010000
01000000
10000000
00000000
01000000
00000000
00001000
00000000
01000000
00010000
,  // measure 27
00200000
00000000
00001000
00000000
00300000
00000000
00000000
00000000
00011000
00000000
00010000
00000100
00001000
00000001
00000000
00000100
,  // measure 28
00000010
00000000
00000100
00000001
00000100
00000100
00010000
00000100
00000000
00001000
00000001
00000000
00000100
00000001
00000000
00000100
,  // measure 29
00000010
00010000
00001000
00000000
00010000
00010000
01000000
00000000
00001000
00000000
01000000
00000000
01000000
00000000
00001000
00100000
,  // measure 30
00000000
00001000
00100000
00000000
00010000
00010000
00001000
01000000
00000000
00010000
01000000
00000000
00001000
00000000
00010000
00000100
,  // measure 31
00000000
00000100
00010000
00000000
00000200
00000000
00000000
00000000
00001300
00000000
00000010
00000000
00000100
00000000
00000001
00001000
,  // measure 32
00000000
00000001
00001000
00000000
00000010
00000000
00000010
00000000
00010000
00000000
00001000
00000000
00100000
00000000
00001000
01000000
,  // measure 33
00000000
00001000
01000000
00000000
00010000
00000000
00010000
00000000
00100000
00000000
01000000
00000000
01000000
00000000
10000000
00010000
,  // measure 34
00000000
10000000
00010000
00000000
10000000
00000000
00100000
00000000
01000000
00000000
00001000
00000000
00010000
00000000
00000100
00000010
,  // measure 35
00000000
00000100
00000010
00000000
00000100
00010000
00001000
00000000
01000000
00000000
00010000
00000000
00100000
00000000
00001000
00010000
,  // measure 36
00000000
00001000
00010000
00000000
00000010
00000000
00000010
00000000
00001000
00000000
00000001
00000000
00001001
00000000
00001000
00000000
,  // measure 37
00000100
00000000
00010000
00000000
00000100
00000000
00010000
00000000
00001000
00000000
00100000
00000000
00100000
00000000
00001000
00010000
,  // measure 38
00000000
00000010
00010000
00000000
00000010
00000000
00000010
00000000
00002000
00000000
00003200
00000000
00000302
00000000
00002003
00000000
,  // measure 39
00003020
00000000
00000032
00000000
00000203
00000000
00002300
00000000
00003100
00000000
00000010
00010000
00001000
00000000
00010000
00001000
,  // measure 40
02000000
00000000
00010000
00000000
00000000
00000000
03010000
00100000
00010000
00000000
10000000
00000000
01000000
00000000
10000000
01000000
,  // measure 41
00100000
00010000
20000000
00000000
000M0000
00000000
310M0000
00000000
00100000
00000000
00001000
00000000
00001000
00000000
01000000
00100000
,  // measure 42
20000000
00000000
01000000
00000000
00000000
00000000
31000000
00100000
00001000
00000000
00010000
00000000
00001000
00000000
00010000
00000100
,  // measure 43
00001000
00000010
00010000
00000000
00000020
00000000
00000230
00000000
00002300
00000000
00003100
00000000
00000010
00000000
00010000
00000010
,  // measure 44
00000200
00000000
00000010
00000000
00000000
00000000
00000310
00000000
00010000
00000100
00001000
00000000
00000100
00000000
00001000
00000001
,  // measure 45
00001000
00001000
00100000
00000000
02000000
00000000
03200000
00000000
01300000
00000000
00100000
00000000
00100000
00000000
00010000
00100000
,  // measure 46
02000000
00000000
10000000
00000000
00000000
00000000
13000000
00010000
00100000
00000000
00001000
00000000
01001000
00000000
00001000
00010000
,  // measure 47
00000200
00000000
00000300
00000000
00010000
00001000
00010000
00000010
00000100
00000100
00010000
00001000
01000000
01000000
10000000
00000000
,  // measure 48
00010000
00000000
01000000
00000000
00010000
10000000
00010000
10000000
00100000
00100000
00010000
01000000
00001000
00001000
00000100
00000000
,  // measure 49
00000010
00000000
00000001
00000000
00000001
00000000
00001000
00000010
00000001
00000000
00000010
00000000
00001000
00000000
00000100
00000010
,  // measure 50
00001000
00000000
00000010
00000000
00000100
00000000
00010000
00001000
02000000
00000000
03010000
00000000
20000000
00000000
30200000
00000000
,  // measure 51
00320000
00000000
00130000
00000000
01000000
00010000
10000000
00010000
00100000
00001000
00010000
00010000
00010000
00000100
00001000
00000000
,  // measure 52
00001001
00000000
00000000
00000000
00000101
00000000
00001100
00000000
00011000
00000000
01000000
00010000
00100000
00000000
00001000
00000000
,  // measure 53
01001000
00000000
00001000
00000000
00010000
00000000
00000100
00000010
00001000
00000000
00000010
00000000
00000001
00000000
00000100
00000010
,  // measure 54
00000001
00000000
00000010
00000000
00001000
00000000
00000100
00010000
00002000
00000000
00100000
00000000
00203000
00000000
02300000
00000000
,  // measure 55
03010000
00000000
01000000
10000000
00010000
10000000
00000000
01000000
00100000
00000000
01000000
10000000
00010000
00010000
00000100
00001000
,  // measure 56
00000000
00000010
00010000
00000000
00001000
00010000
00000000
00001000
01000000
00010000
10000000
00000000
00010000
00010000
00001000
00010000
,  // measure 57
00000010
00000000
00000100
00000000
00000010
00000000
00001000
00000001
00000000
00001000
00000001
00000000
00000100
00000100
00010000
00001000
,  // measure 58
01000000
00001000
00100000
00001000
00200000
01000000
00320000
02030000
,  // measure 59
23000000
00000000
31000000
00000000
00010000
10000000
00010000
00100000
00001000
00010000
00000010
00000000
00000100
00000100
00001000
00000010
,  // measure 60
00010000
00000000
00001000
00000000
00100000
00000000
00010000
01000000
00001000
00010000
00000100
00000000
00001000
00001000
00010000
00000010
,  // measure 61
00001000
00000000
00000100
00000000
00000100
00000000
00001000
00000001
00000000
00001000
00000001
00000000
00001000
00001000
01000000
00000000
,  // measure 62
00010000
00100000
01000000
20000000
30020000
00000000
00230000
02300000
,  // measure 63
03002000
00000000
00000000
00003000
00000000
00000000
00000000
00000000
00000000
00000000
00000000
00000000
00000000
00000000
00000000
00000000
;
