#VERSION:0.83;
#TITLE:10pt8ion;
#SUBTITLE:;
#ARTIST:Lite Show Magic;
#TITLETRANSLIT:;
#SUBTITLETRANSLIT:;
#ARTISTTRANSLIT:;
#GENRE:;
#CREDIT:;
#MUSIC:10pt8ion.ogg;
#BANNER:bn.png;
#BACKGROUND:bg.png;
#JACKET:jk.png;
#CDTITLE:;
#SAMPLESTART:101.081;
#SAMPLELENGTH:10.378;
#SELECTABLE:YES;
#OFFSET:0.000;
#BPMS:0.000=185.000
,180.000=170.000
,182.000=155.000
,184.000=140.000
,186.000=128.000
,240.000=140.000
,244.000=155.000
,248.000=170.000
,252.000=185.000
;
#STOPS:;
#BGCHANGES:;
#FGCHANGES:;

//--------------- dance-single - Torae ----------------
#NOTEDATA:;
#STEPSTYPE:dance-single;
#DESCRIPTION:Torae;
#DIFFICULTY:Medium;
#METER:13;
#RADARVALUES:0,0,0,0,0;
#NOTES:
0000
0000
0000
0000
,
0000
0000
0000
0000
,
0000
0000
0000
0000
,
0000
0000
0000
0000
,
0000
0000
0000
0000
,
2000
0000
3100
1000
0000
0001
0000
0100
,
0000
0010
2000
0000
3000
0000
0001
0010
,
0002
0000
0103
0001
0000
1000
0000
0100
,
0000
0010
0200
0000
0300
0000
1000
0010
,
1000
0100
1000
0100
,
0010
0001
0010
0001
,
1000
0010
1000
0010
,
0100
0001
0100
0001
,
1000
0100
0000
0010
0000
0100
0000
1000
,
0000
0001
0000
0100
0000
0010
0100
0001
,
1000
0100
1000
0100
0020
0000
0032
0000
,
2003
0000
0000
0000
3001
0000
0100
0000
0002
0000
0000
0000
2003
0000
0000
3000
,
1001
0000
0001
0200
0000
0010
0301
0000
,
1000
0100
0010
0100
0001
0100
0010
0001
,
1001
0000
1000
0200
0000
0010
1300
0000
,
0001
0100
0010
0100
1000
0100
0010
1000
,
1001
1001
0201
1000
,
0301
0010
0100
0010
1000
0010
0100
1000
,
0001
0100
0001
0100
0020
0000
2030
0000
,
3002
0000
0013
0200
0000
1300
0010
0000
,
1001
0000
1000
0020
0000
0100
1030
0000
,
0001
0100
0010
0100
1000
0100
0010
0000
,
1001
0000
0001
0020
0000
0100
0031
0000
,
1000
0100
0010
0100
0001
0100
0010
0001
,
1001
1001
1200
0001
,
1300
0010
0100
0010
0001
0010
0100
0001
,
2000
0000
3100
0010
0000
0001
0000
1000
,
0000
0010
0200
0000
0301
1000
0001
0000
,
1000
0100
0010
0000
0001
1000
0000
1010
,
0000
0001
1000
0010
1000
0001
0010
0100
,
2100
0000
0000
0000
0001
0000
0000
3010
0000
0000
0100
0000
0001
0000
0000
0000
,
0102
0000
0000
0000
1000
0000
0000
0013
0000
0000
0100
0000
1000
0000
0000
0000
,
0001
0100
0010
0000
1000
0001
0000
0011
,
0000
1000
0001
0010
0001
1000
0010
0100
,
0102
0000
0000
0000
1000
0000
0000
0013
0000
0000
0100
0000
1000
0000
0000
0000
,
2100
0000
0000
0000
0001
0000
0000
3010
0000
0000
0100
0000
0001
0000
0000
0000
,
1000
0000
0000
1000
0100
0000
0010
0000
0001
0000
0000
0001
0100
0000
0010
0000
,
1000
0000
0000
0001
0000
0000
1000
0000
0100
0000
0010
0000
0002
0000
2003
0000
,
3020
0000
0000
0000
,
0000
0000
0000
0000
,
0000
0000
0000
0000
,
0000
0000
0000
0000
,
1030
0001
1000
0001
0010
0100
0010
0100
,
1000
0001
1000
0001
0100
0010
0100
0010
,
1000
0100
1000
0100
0020
0000
0032
0000
,
1003
0000
0010
0100
0010
0000
1000
0000
0001
0000
0000
0000
1001
0000
0000
0000
,
1100
0000
0000
1000
0001
0000
0100
0000
0001
0000
1000
0000
0100
0000
0010
0000
,
0100
1000
0100
0010
0100
2000
3002
0103
,
0101
0000
0000
0001
1000
0000
0100
0000
1000
0000
0001
0000
0100
0000
0010
0000
,
0100
0001
0100
0001
0000
1000
0001
0001
,
0000
0000
1000
0100
1000
0001
0100
0010
,
0100
0001
0100
0010
0100
0001
2000
3200
,
0310
0000
0000
0001
0100
0000
0001
0000
1000
0000
0001
0000
0010
0000
0100
0000
,
0010
0001
1000
0010
1000
0010
0100
0001
,
2000
0000
3001
0010
0001
0010
0100
1000
,
0002
0000
1003
0010
1000
0010
0100
0001
,
2000
0000
3001
0010
0200
0000
1300
0010
,
0200
0000
0301
0010
0100
1000
1001
0000
,
0001
0000
0000
0100
0000
0000
0010
0000
1000
0000
0000
0001
0000
0000
1000
0000
,
0100
0000
0000
0010
0000
0000
0001
0000
1000
0000
0000
0001
0000
0000
0100
0000
,
0010
1000
0001
0000
0010
0001
1000
0000
,
0040
0000
0430
0000
,
0301
0000
1000
0010
0000
1000
0000
0100
,
0000
0010
0001
0000
0000
0000
0000
0000
,
2002
0000
0000
3003
,
0001
0100
0010
1000
0010
0100
0001
0000
,
1000
0100
0010
0100
0001
0100
0010
0001
,
1000
0100
0010
0100
0001
0100
0010
0001
,
1000
1000
0010
0100
0000
0001
0000
1000
,
0200
0000
0310
0001
0200
0000
0310
1000
,
0001
0100
0010
0100
1000
0100
0010
1000
,
0001
0100
0010
0100
1000
0100
0010
1000
,
0001
0001
0010
0100
0000
1000
0000
0001
,
0100
0000
0010
0100
0010
0000
1001
0000
,
0001
0010
0100
0010
1000
0010
0100
0100
,
1000
0001
0100
0010
0001
0010
0100
0100
,
0001
0001
0100
0010
0000
1000
0000
0001
,
0020
0000
0130
1000
0020
0000
0130
0001
,
1000
0010
0100
0010
0001
0010
0100
0100
,
0001
1000
0100
0010
1000
0010
0100
0100
,
1000
1000
0100
0010
0000
0001
0000
1000
,
0010
0000
0100
0010
0100
0000
1001
0000
,
1000
0000
0001
0010
0000
0001
0000
0100
,
0000
0010
1000
0000
0001
1000
0100
0010
,
0011
0000
0000
1100
0000
0101
0000
2020
,
0000
0000
0000
0000
,
3030
0000
0000
0000
;

//--------------- dance-single - Saro ----------------
#NOTEDATA:;
#STEPSTYPE:dance-single;
#DESCRIPTION:Saro;
#DIFFICULTY:Hard;
#METER:15;
#RADARVALUES:0,0,0,0,0;
#NOTES:
0000
0000
0000
0000
,
0000
0000
0000
0000
,
0000
0000
0000
0000
,
0000
0000
0000
0000
,
0000
0000
0000
0000
,
0002
0000
0013
0001
0000
1000
0000
0010
,
0000
0100
0002
0000
0003
0000
1000
0100
,
2000
0000
3010
1000
0000
0001
0000
0010
,
0000
0100
0020
0000
0030
0000
0001
0100
,
0001
0010
0001
0010
,
0100
1000
0100
1000
,
0001
0100
0001
0100
,
0010
1000
0010
1000
,
0001
0010
0100
1000
0001
0100
0010
1000
,
0001
1000
0100
0010
0001
1000
0001
1000
,
1001
0001
0001
1000
2000
0000
3010
0100
,
0002
0000
1003
1000
0100
0000
0010
0000
,
1001
0000
0002
0100
0000
2003
0100
0000
,
3001
0000
0100
0010
0100
0000
1000
0000
0100
0000
0010
0000
1000
0000
0001
0000
,
1001
0000
2000
0100
0000
3002
0100
0000
,
1003
0000
0001
0000
0010
0100
0010
0000
1000
0000
0010
0000
0001
0000
1000
0000
,
1001
1001
0002
0103
,
0001
0000
0100
0010
0100
0000
1000
0000
0100
0000
0010
0000
1000
0000
0100
0000
,
0010
0001
1000
0001
0100
0010
1000
0100
,
0210
0000
1300
1002
0000
0000
0103
0000
,
1001
0000
2000
0100
0000
3002
0100
0000
,
1003
0000
0100
0010
0100
0000
0001
0000
0100
0000
0010
0000
0001
0000
1000
0000
,
1001
0000
0002
0100
0000
2003
0100
0000
,
3001
0000
1000
0000
0010
0100
0010
0000
0001
0000
0010
0000
1000
0000
0001
0000
,
1001
1001
2000
3100
,
1000
0000
0100
0010
0100
0000
0001
0000
0100
0000
0010
0000
0001
0000
0100
0000
,
0002
0000
0023
0100
0032
0000
0023
0100
,
0032
0000
0000
0000
0023
0000
0100
0000
0031
0000
1000
0010
1000
0000
0000
0000
,
1001
0001
0020
0000
0031
0020
0000
0130
,
0000
0000
1000
0000
0001
0000
0100
0000
0010
0000
1000
0001
1000
0000
0100
0000
,
0020
0000
0000
0000
0031
0000
1000
0010
0000
0000
1000
0000
0100
0000
1000
0000
,
0020
0000
0000
0000
1030
0000
0001
0010
0000
0000
0001
0000
0100
0000
0001
0000
,
1001
1000
0100
0010
0100
2000
0000
3010
,
0100
0000
0001
0000
0010
0000
0100
0000
0010
0000
0001
1000
0001
0000
0100
0000
,
0020
0000
0000
0000
1030
0000
0001
0010
0000
0000
0001
0000
0100
0000
0001
0000
,
0020
0000
0000
0000
0031
0000
1000
0010
0000
0000
1000
0000
0100
0000
1000
0000
,
0002
0000
0000
0103
0010
0000
0100
0000
0002
0000
0000
0013
0100
0000
0010
0000
,
0001
0000
0000
1000
0000
0000
0001
0000
0100
0000
0010
0000
1000
0000
0100
0000
,
0020
000M
M000
000M
M000
000M
M000
000M
,
M000
000M
M000
000M
M000
000M
M000
000M
,
M000
000M
M000
000M
M000
000M
M000
000M
,
M000
000M
M000
000M
M000
000M
M000
000M
,
0031
1000
0001
1000
0010
0100
0010
0100
,
0001
1000
0001
1000
0100
0010
0100
0010
,
1001
0001
0001
1000
2000
0000
3010
0100
,
0001
0000
1000
0001
1000
0000
0001
0000
1000
0000
0200
0000
0300
0000
0000
0000
,
1200
0000
0000
0000
0310
0000
0001
0100
0000
0001
0010
0001
0000
1000
0010
1000
,
0000
0001
0010
0001
0000
1000
0010
1000
0000
0001
0020
0000
0100
0000
0031
0000
,
0021
0000
0130
1000
0000
0010
0100
0010
0000
1000
0100
1000
0000
0010
0100
0010
,
1000
0000
0000
0000
0000
0000
0000
0000
0000
0000
0000
0000
0100
0000
0000
0000
0000
0000
0000
0000
0000
0000
0000
0000
0010
0000
0000
0000
0000
0000
0000
0001
0000
0000
0000
0000
0000
0000
0000
0000
0000
0000
0000
1000
0000
0000
0000
0000
0000
0000
0000
0000
0000
0000
0000
0000
0000
0000
0000
0000
0010
0000
0000
0000
0000
0000
0100
0000
0000
0000
0000
0000
0010
0000
0000
0000
0000
0000
0000
0000
0000
0000
0000
0000
1000
0000
0000
0000
0000
0000
0000
0000
0000
0000
0000
0000
,
0000
0000
0000
0000
1020
0000
1030
0100
0000
1000
0010
1000
0000
0100
0010
0100
,
0000
1000
0010
1000
0000
0100
0010
0100
0000
1000
0020
0000
0100
0000
1030
0000
,
1020
0000
0130
0001
0000
0100
0010
0100
0000
0001
0010
0001
0000
0100
0010
0100
,
0001
0000
0000
0000
0000
0000
0000
0000
0000
0000
0000
0000
0010
0000
0000
0000
0000
0000
0000
0000
0000
0000
0000
0000
0100
0000
0000
0000
0000
0000
0000
1000
0000
0000
0000
0000
0000
0000
0000
0000
0000
0000
0000
0001
0000
0000
0000
0000
0000
0000
0000
0000
0000
0000
0000
0100
0000
0000
0000
0000
0010
0000
0000
0000
0000
0000
0000
1000
0000
0000
0000
0000
0001
0000
0000
0000
0000
0000
0000
0000
1000
0000
0000
0000
0200
0000
0000
0000
0000
0000
0000
0000
0000
0000
0000
0000
,
0320
0000
0000
0000
0000
0000
0000
0000
0000
0000
0000
0000
0000
0000
0000
0000
0000
0000
0000
0000
0000
0000
0000
0000
0031
0000
0000
0000
0000
0000
0000
0010
0000
0000
0000
0000
0000
0000
0000
0000
0000
0000
0000
0100
0000
0000
0000
0000
1000
0000
0000
0000
0000
0000
0000
0010
0000
0000
0000
0000
0100
0000
0000
0000
0000
0000
0000
0001
0000
0000
0000
0000
1000
0000
0000
0000
0000
0000
0000
0000
0100
0000
0000
0000
0020
0000
0000
0000
0000
0000
0000
0000
0000
0000
0000
0000
,
0230
0000
0000
0000
0000
0000
0000
0000
0000
0000
0000
0000
0000
0000
0000
0000
0000
0000
0000
0000
0000
0000
0000
0000
1300
0000
0000
0000
0000
0000
0000
0010
0000
0000
0000
0000
0000
0000
0000
0000
0000
0000
0000
0100
0000
0000
0000
0000
0001
0000
0000
0000
0000
0000
0000
0010
0000
0000
0000
0000
0100
0000
0000
0000
0000
0000
0000
1000
0000
0000
0000
0000
0001
0000
0000
0000
0000
0000
0000
0000
0100
0000
0000
0000
0020
0000
0000
0000
0000
0000
0000
0000
0000
0000
0000
0000
,
0230
0000
0000
0000
0000
0000
0000
0000
0000
0000
0000
0000
0000
0000
0000
0000
0000
0000
0000
0000
0000
0000
0000
0000
0301
0000
0000
0000
0000
0000
0000
0010
0000
0000
0000
0000
0000
0000
0000
0000
0000
0000
0000
0001
0000
0000
0000
0000
0200
0000
0000
0000
0000
0000
0000
0000
0000
0000
0000
0000
0000
0000
0000
0000
0000
0000
0000
0000
0000
0000
0000
0000
0310
0000
0000
0000
0000
0000
0000
1000
0000
0000
0000
0000
0000
0000
0000
0000
0000
0000
0000
0010
0000
0000
0000
0000
,
0200
0000
0000
0000
0000
0000
0000
0000
0000
0000
0000
0000
0000
0000
0000
0000
0000
0000
0000
0000
0000
0000
0000
0000
0301
0000
0000
0000
0000
0000
0000
0010
0000
0000
0000
0000
0000
0000
0000
0000
0000
0000
0000
0001
0000
0000
0000
0000
0200
0000
0000
0000
0000
0000
0000
0000
0000
0000
0000
0000
0000
0000
0000
0000
0000
0000
0000
0000
0000
0000
0000
0000
0310
0000
0000
0000
0000
0000
0000
0000
0000
0000
0000
0000
0000
0000
0000
0000
0000
0000
0000
0000
0000
0000
0000
0000
,
1000
0000
0000
0100
0000
0000
0010
0000
0010
0000
0000
0001
0000
0000
1000
0000
,
1000
0000
0000
0010
0000
0000
0100
0000
0100
0000
0000
0001
0000
0000
0010
0000
,
0100
1000
0100
1000
0001
1000
0001
1000
,
0001
0100
0010
0100
1000
0100
0010
0100
,
0001
0000
1000
0100
0000
1000
0000
0010
,
0000
0100
0001
0000
2000
0000
3000
0001
,
0020
0000
0130
1000
0000
0001
0000
0100
,
0000
0001
2000
0000
3000
0200
0320
0230
,
1300
0000
0001
0000
0100
0000
0001
1000
0001
0000
0010
0000
0100
0000
1000
0000
,
0001
0000
0100
0010
0100
0000
0001
1000
0001
0000
0010
0000
0100
0000
1000
0000
,
0001
0100
0010
0100
0001
0100
0010
0100
,
0002
0000
0023
0100
0032
0000
0023
0100
,
0031
0000
1000
0000
0100
0000
1000
0001
1000
0000
0010
0000
0100
0000
0001
0000
,
1000
0000
0100
0010
0100
0000
1000
0001
1000
0000
0010
0000
0100
0000
0001
0000
,
1000
0100
0010
0100
1000
0100
0010
0100
,
1000
0010
0001
0010
1000
0000
1001
0000
,
0001
0000
0100
0010
0100
0000
0001
1000
0001
0000
0010
0000
1000
0000
0010
0000
,
0001
0000
0010
0100
0010
0000
0001
1000
0001
0000
0100
0000
0010
0000
0010
0000
,
1000
0100
0010
0100
1000
0100
0010
0100
,
2000
0000
3020
0100
2030
0000
3020
0100
,
1030
0000
0100
0010
0100
0000
1000
0001
1000
0000
0010
0000
0001
0000
0010
0000
,
1000
0000
0010
0100
0010
0000
1000
0001
1000
0000
0100
0000
0010
0000
0010
0000
,
0001
0000
0010
0100
0010
0000
1000
0000
0010
0000
0100
0000
1000
0000
0001
0000
,
2000
0000
3020
0100
1030
0000
1001
0000
,
0001
0000
1000
0010
0000
1000
0000
0100
,
0000
0000
0010
0000
0001
0000
0000
0000
0100
0010
0100
0010
0100
0000
0001
0000
,
1001
0000
1000
1100
0000
0011
0000
2002
,
0000
0000
0000
0000
,
3003
0000
0000
0000
;

//--------------- dance-single - TaroNuke + sorae ----------------
#NOTEDATA:;
#STEPSTYPE:dance-single;
#DESCRIPTION:TaroNuke + sorae;
#DIFFICULTY:Challenge;
#METER:17;
#RADARVALUES:0,0,0,0,0;
#NOTES:
0000
0000
0000
0000
,
0000
0000
0000
0000
,
0000
0000
0000
0000
,
0000
0000
0000
0000
,
0000
0000
0000
0000
,
2100
0000
0000
0100
3001
0000
0000
0011
,
0000
0210
0000
0000
1300
0000
0000
0000
,
0102
0000
0000
0100
1003
0000
0000
1010
,
0000
0210
0000
0000
0301
0000
0200
0302
,
2003
0100
0001
0100
,
0001
0100
0001
3100
,
1002
0100
1000
0100
,
1000
0100
1000
0103
,
1000
0100
1000
0100
0010
0001
0010
0001
,
1000
0010
1000
0010
0100
0001
0100
0001
,
1002
0010
1003
0010
0200
0000
0310
1000
,
2001
0000
0010
3001
0020
0000
0130
1000
,
1001
0000
0201
0310
0000
0210
0301
0000
,
1000
0000
0010
0100
0010
0000
1000
0001
0000
1000
0100
0000
0010
0001
1000
0000
,
1001
0000
1200
0310
0000
0210
1300
0000
,
0100
0010
0100
0000
1000
0001
0000
0100
0000
0010
1000
0001
0010
0000
0001
0000
,
1001
1001
2000
3010
,
1000
0000
0100
0010
0100
0000
1000
0001
0000
1000
0010
0000
0100
0001
1000
0000
,
0100
0000
0010
0000
0001
0000
1000
0010
0100
0001
0100
0001
1000
0100
1000
0100
,
0010
0000
0001
0100
0001
0000
1000
0010
0000
0000
1000
0100
1000
0000
0000
0000
,
1001
0000
1020
0130
0000
0120
1030
0000
,
0001
0000
0010
0100
0010
0000
0001
1000
0000
0001
0100
0000
0010
1000
0001
0000
,
1001
0000
0021
0130
0000
0120
0031
0000
,
0100
0010
0100
0000
0001
1000
0000
0100
0000
0010
0001
1000
0010
0000
1000
0000
,
1001
1001
0002
0013
,
0001
0000
0100
0010
0100
0000
0001
1000
0001
0000
0010
0000
0200
0000
2300
0000
,
3001
0100
0110
0010
1000
0100
0110
0010
,
0001
0000
1000
0000
0001
0000
0100
0010
0100
0000
0001
1000
0001
0000
0000
0000
,
2000
0100
3001
2000
0100
3001
0000
0201
,
0000
0000
1300
0000
0100
0000
0010
0000
1000
0000
0001
0010
0001
0010
0100
0000
,
1200
0000
0000
03M0
0100
0000
0001
0100
00M0
0100
2000
0000
0001
0000
3010
0000
,
1020
0000
0000
0M30
0010
0000
0001
0010
0M00
0010
1000
0000
0100
0000
0010
0000
,
0002
0100
1003
0002
0100
1003
0000
1200
,
0000
0000
0301
0000
0100
0000
0010
0000
0001
0000
1000
0100
1000
0001
0100
0000
,
0201
0000
0000
03M0
0100
0000
1000
0100
00M0
0100
0002
0000
1000
0000
0013
0000
,
0021
0000
0000
0M30
0010
0000
1000
0010
0M00
0010
0001
0000
0100
0000
0010
0000
,
1010
0000
0M00
0010
0001
0000
1000
0000
1100
0000
00M0
0100
0001
0000
1000
0000
,
0100
0000
0000
0010
0000
0000
0001
0000
1000
0000
0010
0000
0200
0000
0320
0000
,
1030
0000
0000
0000
0000
0000
0000
0000
0000
0000
0000
0000
0000
0000
0000
0000
0000
0000
0000
0000
0000
0000
0000
0000
0002
0003
0000
0000
0000
0000
0000
0000
0000
0000
0000
0000
0000
0000
0000
0000
0000
0000
0000
0000
0000
0000
0000
0000
2000
0000
3000
0000
0000
0000
0000
0000
0000
0000
0000
0000
0000
0000
0000
0000
0000
0000
0000
0000
0000
0000
0000
0000
0002
0000
0000
0003
0000
0000
0000
0000
0000
0000
0000
0000
0000
0000
0000
0000
0000
0000
0000
0000
0000
0000
0000
0000
2000
0000
0000
0000
3000
0000
0000
0000
0000
0000
0000
0000
0000
0000
0000
0000
0000
0000
0000
0000
0000
0000
0000
0000
0002
0000
0000
0000
0000
0003
0000
0000
0000
0000
0000
0000
0000
0000
0000
0000
0000
0000
0000
0000
0000
0000
0000
0000
2000
0000
0000
0000
0000
0000
3000
0000
0000
0000
0000
0000
0000
0000
0000
0000
0000
0000
0000
0000
0000
0000
0000
0000
0002
0000
0000
0000
0000
0000
0000
0003
0000
0000
0000
0000
0000
0000
0000
0000
0000
0000
0000
0000
0000
0000
0000
0000
,
2000
0000
0000
0000
0000
0000
0000
0000
3000
0000
0000
0000
0000
0000
0000
0000
0000
0000
0000
0000
0000
0000
0000
0000
0002
0000
0000
0000
0000
0000
0000
0000
0000
0003
0000
0000
0000
0000
0000
0000
0000
0000
0000
0000
0000
0000
0000
0000
2000
0000
0000
0000
0000
0000
0000
0000
0000
0000
3000
0000
0000
0000
0000
0000
0000
0000
0000
0000
0000
0000
0000
0000
0002
0000
0000
0000
0000
0000
0000
0000
0000
0000
0000
0003
0000
0000
0000
0000
0000
0000
0000
0000
0000
0000
0000
0000
2000
0000
0000
0000
0000
0000
0000
0000
0000
0000
0000
0000
3000
0000
0000
0000
0000
0000
0000
0000
0000
0000
0000
0000
0002
0000
0000
0000
0000
0000
0000
0000
0000
0000
0000
0000
0000
0003
0000
0000
0000
0000
0000
0000
0000
0000
0000
0000
2000
0000
0000
0000
0000
0000
0000
0000
0000
0000
0000
0000
0000
0000
3000
0000
0000
0000
0000
0000
0000
0000
0000
0000
0002
0000
0000
0000
0000
0000
0000
0000
0000
0000
0000
0000
0000
0000
0000
0003
0000
0000
0000
0000
0000
0000
0000
0000
,
2000
0000
0000
0000
0000
0000
0000
0000
0000
0000
0000
0000
0000
0000
0000
0000
3000
0000
0000
0000
0000
0000
0000
0000
0002
0000
0000
0000
0000
0000
0000
0000
0000
0000
0000
0000
0000
0000
0000
0000
0000
0003
0000
0000
0000
0000
0000
0000
2000
0000
0000
0000
0000
0000
0000
0000
0000
0000
0000
0000
0000
0000
0000
0000
0000
0000
3000
0000
0000
0000
0000
0000
0002
0000
0000
0000
0000
0000
0000
0000
0000
0000
0000
0000
0000
0000
0000
0000
0000
0000
0000
0003
0000
0000
0000
0000
2000
0000
0000
0000
0000
0000
0000
0000
0000
0000
0000
0000
0000
0000
0000
0000
0000
0000
0000
0000
3000
0000
0000
0000
0002
0000
0000
0000
0000
0000
0000
0000
0000
0000
0000
0000
0000
0000
0000
0000
0000
0000
0000
0000
0000
0003
0000
0000
2000
0000
0000
0000
0000
0000
0000
0000
0000
0000
0000
0000
0000
0000
0000
0000
0000
0000
0000
0000
0000
0000
3000
0000
0002
0000
0000
0000
0000
0000
0000
0000
0000
0000
0000
0000
0000
0000
0000
0000
0000
0000
0000
0000
0000
0000
0000
0003
,
2000
3002
2003
3002
2003
3002
2003
3002
,
0013
0000
0000
0100
0000
0000
0010
0000
0000
0100
0000
0000
1000
0000
0000
0001
0000
0000
1000
0000
0000
0001
0000
0100
,
0000
00M0
0000
0000
0100
0000
1000
0000
0000
0000
0000
0000
0001
0000
0000
0000
0000
0000
1000
0000
0000
0100
0000
0000
00M0
0000
0000
0100
0000
0000
0001
0000
0000
0000
0000
0000
1000
0000
0000
0000
0000
0000
0001
0000
0000
0000
0000
0000
,
2001
0010
3001
0010
0200
0000
0310
0001
,
1000
0000
0000
0000
0100
00M0
0100
0000
0001
0000
0000
0000
0001
0000
0000
0000
0001
0000
0000
0000
0010
0M00
0010
0000
1000
0000
0000
0000
0100
0000
0000
0000
,
1200
0000
0000
0000
0000
0000
0000
0000
0000
0000
0000
0000
0300
0000
0000
00M0
0000
0000
0000
0100
0000
0000
0000
0000
0001
0000
0000
0000
0000
0000
0000
0000
0000
0000
0000
0000
0100
0000
0000
0000
0000
0000
0010
0000
0000
0000
0000
0000
1000
0000
0000
0000
0000
0000
0100
0000
0000
0000
0000
0000
0100
0000
0000
0000
0000
0000
0100
0000
0000
0000
0000
0000
0010
0000
0000
0000
0000
0000
0100
0000
0000
0000
0000
0000
0100
0000
0000
0000
0000
0000
0100
0000
0000
0000
0000
0000
,
1000
0000
0000
0000
0000
0000
0100
0000
0000
0000
0000
0000
0100
0000
0000
0000
0000
0000
0100
0000
0000
0000
0000
0000
0010
0000
0000
0000
0000
0000
0100
0000
0000
0000
0000
0000
0100
0000
0000
0000
0000
0000
0100
0000
0000
0000
0000
0000
1000
0000
0000
0000
0000
0000
0000
0001
0000
0000
0000
0000
0200
0000
0000
0000
0000
0000
0000
0000
0000
0000
0000
0000
1000
0000
0000
0000
0000
0000
0000
0000
0000
0000
0000
0000
0310
0000
0000
0000
0000
0000
0000
0000
0000
0000
0000
0000
,
0201
0000
0000
0000
0000
0000
0000
0300
0000
00M0
0000
0000
0100
0000
0000
0000
0000
0000
0000
1000
0000
0000
0000
0000
0010
0000
0000
0000
0000
0000
0000
0100
0000
0000
0000
0000
0001
0000
0000
0000
0000
0000
1000
0000
0000
0000
0000
0000
0001
0000
0000
0000
0000
0000
0100
0000
0000
0000
0000
0000
0100
0000
0000
0000
0000
0000
0100
0000
0000
0000
0000
0000
0010
0000
0000
0000
0000
0000
0100
0000
0000
0000
0000
0000
0100
0000
0000
0000
0000
0000
0100
0000
0000
0000
0000
0000
,
0001
0000
0000
0000
0000
0000
0000
0000
0010
0000
0000
0000
0200
0000
0000
0000
0000
0000
0000
0300
0000
0000
0000
0000
1000
0000
0000
0000
0000
0000
0000
0200
0000
0000
0000
0000
0000
0000
0000
0000
0000
0000
0000
0001
0000
0000
0000
0000
0300
0000
0000
0000
0000
0000
0000
0000
0000
0000
0000
0000
0010
0000
0000
0000
0000
0000
0001
0000
0000
0000
0000
0000
1000
0000
0000
0000
0000
0000
0000
0000
0000
0000
0000
0000
1001
0000
0000
0000
0000
0000
0000
0000
0000
0000
0000
0000
,
0000
0000
0000
0000
0000
0000
0000
0000
0000
0000
0000
0000
0000
0000
0000
0000
0000
0000
0000
0000
0000
0000
0000
0000
0021
0000
0000
0000
0000
0000
0000
0030
0000
0M00
0000
0000
0010
0000
0000
0000
0000
0000
1000
0000
0000
0000
0000
0000
0001
0000
0000
0000
0000
0000
0100
0000
0000
0000
0000
0000
0100
0000
0000
0000
0000
0000
0100
0000
0000
0000
0000
0000
0010
0000
0000
0000
0000
0000
0100
0000
0000
0000
0000
0000
0100
0000
0000
0000
0000
0000
0100
0000
0000
0000
0000
0000
,
0002
0000
0013
0100
1000
0100
0100
0100
0010
0100
0100
0100
1000
0000
0010
0000
,
1020
0000
0000
0000
0000
0000
0000
0030
0000
0M00
0000
0000
0010
0000
0000
0000
0000
0000
0000
0001
0000
0000
0000
0000
0010
0000
0000
0000
0000
0000
0000
0100
0000
0000
0000
0000
1000
0000
0000
0000
0000
0000
0001
0000
0000
0000
0000
0000
1000
0000
0000
0000
0000
0000
0100
0000
0000
0000
0000
0000
0100
0000
0000
0000
0000
0000
0100
0000
0000
0000
0000
0000
0010
0000
0000
0000
0000
0000
0100
0000
0000
0000
0000
0000
0100
0000
0000
0000
0000
0000
0100
0000
0000
0000
0000
0000
,
1000
0000
0000
0000
0000
0000
0000
0000
0010
0000
0000
0000
0200
0000
0000
0000
0000
0000
0000
0300
0000
0000
0000
0000
0001
0000
0000
0000
0000
0000
0000
0200
0000
0000
0000
0000
0000
0000
0000
0000
0000
0000
0000
1000
0000
0000
0000
0000
0000
0000
0000
0000
0000
0000
0000
0310
0000
0000
0000
0000
1000
0000
0000
0000
0000
0000
0000
0001
0000
0000
0000
0000
0000
0000
0000
0000
0000
0000
0000
0000
1000
0000
0000
0000
0010
0000
0000
0000
0000
0000
0000
0000
0100
0000
0000
0000
,
0002
0000
0000
0000
0000
0000
0000
0000
0000
0000
0000
0000
0000
0000
0000
0000
0000
0000
0003
0000
0000
0000
0000
0000
0010
0000
0000
0000
0000
0000
0000
0200
0000
0000
0000
0000
0000
0000
0000
0000
0000
0000
0000
0001
0000
0000
0000
0000
0000
0000
0000
0000
0000
0000
0000
0010
0300
0000
0000
0000
0001
0000
0000
0000
0000
0000
0000
1000
0000
0000
0000
0000
0000
0000
0000
0000
0000
0000
0000
0000
0010
0000
0000
0000
0100
0000
0000
0000
0000
0000
0000
0000
0001
0000
0000
0000
,
2000
0000
0000
0000
0000
0000
0000
0000
0000
0000
0000
0000
0000
0000
0000
0000
0000
0000
3000
0000
0000
0000
0000
0000
0010
0000
0000
0000
0000
0000
0000
0200
0000
0000
0000
0000
0000
0000
0000
0000
0000
0000
0000
1000
0000
0000
0000
0000
0000
0000
0000
0000
0000
0000
0000
0010
0300
0000
0000
0000
1000
0000
0000
0000
0000
0000
0000
0001
0000
0000
0000
0000
0000
0000
0000
0000
0000
0000
0000
0000
0010
0000
0000
0000
0100
0000
0000
0000
0000
0000
0000
0000
1000
0000
0000
0000
,
0002
0000
0000
0000
0000
0000
0000
0000
0000
0000
0000
0000
0000
0000
0000
0000
0000
0000
0000
0000
0000
0000
0000
0000
0023
0000
0000
0000
0000
0000
0000
0001
0000
0000
0000
0000
0000
0000
0000
0000
0000
0000
0000
0130
0000
0000
0000
0000
2000
0000
0000
0000
0000
0000
0000
0000
0000
0000
0000
0000
0000
0000
0000
0000
0000
0000
0000
0000
0000
0000
0000
0000
3020
0000
0000
0000
0000
0000
0000
1000
0000
0000
0000
0000
0000
0000
0000
0000
0000
0000
0000
0130
0000
0000
0000
0000
,
0002
0000
0000
0000
0000
0000
0000
0000
0000
0000
0000
0000
0000
0000
0000
0000
0000
0000
0000
0000
0000
0000
0000
0000
1003
0000
0000
0000
0000
0000
0000
0010
0000
0000
0000
0000
0100
0000
0000
0000
0000
0000
0000
0001
0000
0000
0000
0000
2000
0000
0000
0000
0000
0000
0000
0000
0000
0000
0000
0000
3002
0000
0000
0000
0000
0000
0000
0000
0000
0000
0000
0000
0013
0000
0000
0000
0000
0000
0000
0000
0000
0000
0000
0000
0000
0000
0000
0000
0000
0000
0000
0000
0000
0000
0000
0000
,
0001
0000
0000
0001
0100
0000
0010
0000
1000
0000
0000
1000
0010
0000
0100
0000
,
0001
0000
0000
0001
0010
0000
0100
0000
1000
0000
0000
1000
0100
0000
0010
0000
,
0001
0100
0001
0100
0010
1000
0010
1000
,
0001
0010
0100
1000
0001
0100
0010
1000
0100
0010
0001
1000
0010
0100
0001
0010
,
0100
0000
1000
0001
0000
0100
0000
1000
,
0000
0100
0010
0000
2000
0000
3000
0000
,
1010
0000
0010
0110
0000
0101
0000
1001
,
0000
0001
0020
0000
0130
1000
0001
1000
,
1100
00M0
0200
0000
0000
0000
0301
0100
0010
0000
0100
0000
0001
0000
1000
0000
,
1100
00M0
0100
0001
1000
0000
0100
1000
0010
0000
0010
0000
0100
0000
0001
0000
,
0010
0000
0200
0300
1000
0000
0020
0030
1000
0000
0002
0003
0100
0000
0020
0030
,
0001
0010
0100
0010
0001
0010
0100
0001
,
0101
00M0
0200
0000
0000
0000
1300
0100
0010
0000
0100
0000
1000
0000
0001
0000
,
0101
00M0
0100
1000
0001
0000
0100
0001
0010
0000
0010
0000
0100
0000
1000
0000
,
0001
0000
0200
0300
0010
0000
0002
0003
0010
0000
0200
0300
0001
0000
2000
3000
,
0200
0000
0000
0010
0310
0000
1001
0000
,
0011
0M00
0010
1000
0000
0000
0001
0100
0010
0000
1000
0000
0100
00M0
0100
0000
,
0101
00M0
0100
1000
0001
0000
0100
0001
1000
0001
0010
0100
1000
0000
1000
0000
,
0010
0000
0200
0300
0001
0000
0020
0030
0001
0000
2000
3000
0100
0000
0010
0000
,
1000
0010
0100
0010
1000
0010
0100
1000
,
1010
0M00
0010
0001
1000
0000
0010
0000
0100
0001
0100
0001
0100
00M0
0100
0000
,
1100
00M0
0100
0001
1000
0000
0100
1000
0001
0000
0100
0001
1000
0000
0001
0000
,
1000
0010
0100
0001
1000
0100
0010
0001
0100
0010
1000
0001
0010
0100
1000
0010
,
0200
0000
1000
0010
0301
0000
1001
0000
,
1000
0000
0001
1000
0000
0100
0000
0001
,
0000
0000
0100
0000
0010
0000
0000
0000
0001
0100
0010
1000
0001
0000
1000
0000
,
1100
0000
0100
0110
0000
0011
0000
2002
,
0000
0000
0000
0000
,
3003
0000
0000
0000
;
