#TITLE:[X];
#SUBTITLE:;
#ARTIST:Blacklolita;
#TITLETRANSLIT:X;
#SUBTITLETRANSLIT:;
#ARTISTTRANSLIT:;
#GENRE:;
#CREDIT:;
#MUSIC:[X].ogg;
#BANNER:;
#BACKGROUND:;
#CDTITLE:;
#SAMPLESTART:97.684;
#SAMPLELENGTH:15.000;
#SELECTABLE:YES;
#OFFSET:-0.135;
#BPMS:0.000=162.000
,249.000=165.000
,252.000=168.000
,258.000=172.000
,336.000=180.000
,368.000=90.000
,372.000=180.000
;
#STOPS:;
#BGCHANGES:;
#FGCHANGES:;

//--------------- dance-single - ----------------
#NOTES:
     dance-single:
     :
     Beginner:
     7:
     0,0,0,0,0:
0000
0000
0000
0000
,
0000
0000
0000
0000
,
0000
0000
0000
0000
,
0000
0000
0000
0000
,
0000
0000
0000
0000
,
0000
0000
0000
0000
,
1000
1000
1000
0000
,
0010
0010
0010
0000
,
0100
0100
0010
0010
,
2002
0000
0000
3003
,
0001
0010
0001
0010
,
0001
0100
0010
0000
,
1000
0010
0100
0001
,
2000
0000
3002
0000
,
1003
0100
1000
0100
,
1000
0010
0200
0300
,
0001
0001
0010
0010
,
0200
0300
2002
0003
,
3001
0001
0100
0100
,
0001
0010
0001
0001
,
1000
0010
0200
0300
,
0001
0010
0200
0000
,
1300
1000
0100
1000
,
0010
1000
0010
0100
,
2002
3003
0220
0330
,
2000
0000
3002
0000
,
0203
0000
0000
0000
,
0000
0000
0000
0000
,
0320
0000
0000
0000
,
0000
0000
0000
0030
,
1000
1000
2000
3000
,
0001
0001
0002
0003
,
0010
0001
0100
0010
,
2000
0000
3002
0000
,
1003
0001
0100
0010
,
1000
0001
2002
3003
,
0001
0001
1000
1000
,
0010
0100
0220
0330
,
1000
0100
0001
0100
,
1000
1000
2000
0000
,
3001
0100
0001
0100
,
0010
1000
0100
0010
,
0002
0000
1003
0020
,
0000
0030
2002
0003
,
3200
0300
1002
0023
,
0032
0203
0320
2030
,
3200
0300
1002
0023
,
0000
0000
0032
0000
,
1003
1000
0001
0001
,
0100
0010
1000
1000
,
0002
0000
2003
0000
,
0000
0000
3200
0000
,
0320
0000
0032
0000
,
0000
0000
2003
0000
,
3020
0000
0230
0000
,
0000
0000
0302
0000
,
2003
0000
3200
0000
,
0000
0000
0000
0300
,
1000
1000
1000
0000
,
0100
0100
1000
0000
,
0010
0010
0100
0100
,
0010
0000
1001
0000
,
0001
0001
0002
0003
,
1000
1000
2000
3000
,
0010
1000
0100
0010
,
0002
0000
2003
0000
,
3001
0001
0010
0000
,
0100
0100
1000
0000
,
1000
1000
0001
0001
,
0100
0000
0010
0000
0200
0000
0000
0300
,
0010
0010
1000
0000
,
0001
0001
0010
0000
,
0001
0100
1000
0100
,
0002
0000
2003
0000
,
3100
0100
1000
0010
,
0100
0001
1000
0000
,
0001
0001
1000
1000
,
0100
0010
0002
0000
,
1003
0100
0010
0100
,
0010
0001
1000
0001
,
0100
0100
0010
0010
,
1000
0001
2000
0000
,
3002
0000
0103
0200
,
0300
0020
0000
0030
1000
0000
0001
0000
,
2000
0000
3100
0200
,
0000
0000
0320
0032
,
2003
3020
0230
0301
,
0001
0010
0001
0000
2100
0000
0000
0000
,
3002
0000
0013
0020
,
0000
0000
0230
2300
,
3002
0203
0320
1030
,
1000
0010
1000
0000
0002
0000
0203
0000
,
0302
0000
0000
0000
0000
0000
0000
0003
,
1000
0100
1000
0100
,
0010
0001
0010
0001
,
0100
0010
0100
0000
0200
0000
0300
0000
,
0010
0100
0010
0000
0020
0000
0030
0000
,
1000
0100
1000
0100
,
0020
0032
0023
0032
,
1003
0000
0000
0000
;

//--------------- dance-single - ----------------
#NOTES:
     dance-single:
     :
     Easy:
     10:
     0,0,0,0,0:
0000
0000
0000
0000
,
0000
0000
0000
0000
,
0000
0000
0000
0000
,
0000
0000
0000
0000
,
0000
0000
0000
0000
,
0000
0000
0000
0000
,
0001
0001
0100
0010
,
1000
1000
0100
0010
,
0001
0010
0001
0000
1000
0010
1000
0000
,
0100
0010
0110
1001
,
0001
0010
0100
1000
,
1000
0100
1000
0000
0001
0000
0001
0100
,
0001
0000
1000
0000
0010
0000
0100
0010
,
0100
0000
0001
1000
0001
0000
1000
0000
,
0100
0010
0001
1000
,
1000
0010
1000
0000
0001
0000
0100
0000
,
0010
0110
1000
0001
,
0011
1100
2002
0003
,
3001
0000
0100
0000
0010
1000
0010
0000
,
0100
0000
0001
0000
0010
0001
0010
0000
,
0100
1000
0100
0000
0010
0000
0001
1000
,
0001
0100
0010
0010
,
1000
0100
0001
0100
,
1000
0000
0010
0000
0100
0010
0100
0000
,
0001
0011
1000
1100
,
0010
0100
0110
1001
,
2200
0000
0000
0000
,
0000
0000
0300
0000
,
0002
0000
0000
0000
,
3000
0000
0000
0000
0103
0100
0020
0000
,
1030
0100
1000
0100
2000
0000
3000
0000
,
0001
0100
0001
0100
0002
0000
0003
0000
,
0010
0001
0010
0001
1000
0010
1000
0010
,
0100
0010
1000
0001
,
1000
0000
0000
0010
0000
0000
0100
0000
0000
0001
0000
0000
0010
0000
0000
0100
,
0000
0000
1000
0000
0000
0001
0000
0000
2002
0000
0000
0000
3003
0000
0000
0000
,
0010
0000
0000
0000
0000
0100
0000
0000
0000
0001
0000
0000
1000
0000
0000
0000
0000
0000
1100
0000
0000
0000
0000
0000
,
0110
0011
0101
1010
,
1000
0000
0000
0010
0000
0000
1000
0000
0000
0100
0000
0000
1000
0000
0000
0001
,
0000
0000
0010
0000
0000
0001
0000
0000
0200
0000
0000
0000
0310
0000
1000
0000
,
0001
0000
0000
0000
1000
0000
0000
0000
0001
0000
0000
0001
0000
0000
0001
0000
,
0010
0100
0010
0100
0010
0000
0002
0000
,
2003
0000
0000
3010
0200
0000
0302
0000
,
0000
0000
0000
0003
2010
0000
0000
0000
,
3002
0000
0000
0003
2100
0000
3002
0000
,
0203
0320
2030
3002
,
0023
0000
0230
2300
,
3002
0000
2003
0000
3002
0000
0103
0010
,
1000
0000
0010
0100
0001
0000
1000
0000
,
0100
0100
0010
0000
0001
0001
0010
0100
,
2000
0000
3020
0000
,
0000
0000
0032
0000
,
0023
0000
2030
0000
,
0000
0000
3002
0000
,
0203
0000
2300
0000
,
0000
0000
3200
0000
,
0302
0000
2000
0000
,
0000
0000
0000
3003
,
0001
0010
0001
0000
0001
0000
0010
0000
,
0100
0000
0100
0000
0100
0010
0100
0000
,
1000
0100
1000
0000
0010
0000
0100
0000
,
0010
0000
0000
0000
0010
0000
0100
0000
0001
0000
0000
0001
0000
0000
0001
0000
,
1000
1000
0100
0010
,
0001
0001
0100
0010
,
1000
0010
1000
0000
0001
0010
0001
0000
,
0100
0010
0220
0300
,
1030
0000
0001
0000
1000
0100
0010
0000
,
0001
0100
0010
0000
1000
0010
0100
0001
,
1000
0100
1000
0000
0001
0100
0001
0000
,
0010
0100
0010
0000
2002
0000
0003
0000
,
3100
1000
0010
0000
1000
0001
0100
0000
,
0100
0001
0010
0000
0001
1000
0010
0000
,
1000
0000
0100
0000
1000
0000
0100
0000
1000
0000
0000
0001
0000
0000
0010
0000
,
0002
0203
0320
2030
,
3001
0100
0001
0100
0001
0000
1000
0000
,
1000
0100
1000
0100
1000
0000
0001
0000
,
0001
0010
0001
0000
1000
0100
1000
0000
,
0001
0100
0010
0000
2002
0000
3000
0000
,
1003
0100
0010
0000
0001
0100
0010
0000
,
1000
0010
0100
0000
0001
0010
0100
0000
,
2000
0001
3002
0100
,
0203
0010
0310
1001
,
2000
0000
3100
0220
,
0330
0220
0000
0330
0002
0000
1003
0000
,
1200
0000
0000
1000
1300
0000
2020
0000
,
0000
0030
0001
3100
,
0110
0000
0001
0000
0110
0000
0001
0001
,
0002
2003
0002
3003
,
0201
0000
0000
0001
0301
0000
0022
0000
,
0000
0030
1000
0103
,
0110
0000
1000
0000
0110
0000
1000
1000
,
1000
0001
1000
0001
0100
0100
0100
0010
,
0200
0000
0000
0000
0000
0000
0000
0302
,
1003
0010
1000
0010
0100
0001
1000
0000
,
0001
0010
0001
0010
0100
1000
0001
0000
,
1000
0010
1000
0010
2000
0000
3000
0000
,
0001
0010
0001
0010
0002
0000
0003
0000
,
1000
0100
1000
0001
0100
0001
1000
0010
,
2000
3200
0320
0032
,
1003
0000
0000
0000
;

//--------------- dance-single - ----------------
#NOTES:
     dance-single:
     :
     Medium:
     14:
     0,0,0,0,0:
0000
0000
0000
0000
,
0000
0000
0000
0000
,
0000
0000
0000
0000
,
0000
0000
0000
0000
,
0000
0000
0000
0000
,
0000
0000
0000
0000
,
1000
0010
1000
0010
0100
0001
0100
0001
,
0010
0100
1000
0010
0100
0001
0010
0100
,
1000
0010
0001
0010
1000
0100
0001
0100
,
2000
0000
0000
0000
3002
0000
0000
0000
0103
0010
0100
0010
0200
0000
0000
0000
,
0301
1000
1000
0001
0010
0100
1000
0001
,
0001
0000
0100
0000
0020
0000
0000
0000
0130
0000
0001
0000
1000
0100
1000
0100
,
1000
0001
0010
0100
1000
0100
0010
0001
,
0200
0000
0000
0000
0000
0000
0310
0000
0000
1000
0000
0000
2001
0000
0000
0000
0000
0000
3100
0000
0010
0000
0100
0000
,
0010
0001
0010
0001
0010
1000
0010
1000
,
0001
0100
1000
0100
2000
0000
3020
0000
,
0230
0000
0000
0301
1000
0001
1000
0000
1000
0000
0001
0000
,
0002
0023
0230
2300
3002
0000
2003
0000
,
3001
0100
0001
0100
1000
0001
0010
1000
,
1000
0000
0100
0000
1000
0000
0100
0000
0001
0000
0100
0000
1000
0001
1000
0001
,
1000
0010
0001
0010
1000
0001
0100
0001
,
1000
0000
0000
0000
0000
0000
0100
0000
0000
1000
0000
0000
0100
0000
0000
0000
0000
0000
0010
0000
0000
0000
0000
0000
0001
0000
0000
0000
0000
0000
0000
0000
0001
0000
0000
0000
1000
0000
0000
0000
0000
0000
0000
0000
1000
0000
0000
0000
,
0001
0100
0010
0000
0100
0000
0001
0000
1000
0000
0010
0000
0100
0000
0001
0000
,
1000
0100
0010
0000
0100
0000
1000
0000
0001
0000
0100
0000
0010
0000
0010
0000
,
1000
0010
1000
0010
0000
0000
0100
0001
0100
0001
0000
0000
,
0010
0001
0010
0001
0010
0001
1000
0001
1000
0001
1000
0001
,
2000
0000
0000
0000
,
0000
0000
0000
0000
,
3020
0000
0000
0000
,
0000
0000
0000
0000
0130
0001
1001
0000
,
1000
0100
1000
0000
0001
0100
0001
0000
2000
0000
0000
0000
3000
0000
0000
0000
,
0001
0010
0001
0000
1000
0010
1000
0000
0002
0000
0000
0000
0003
0000
0000
0000
,
0100
0010
1000
0000
0100
0010
0001
0000
0100
0010
1000
0000
0010
0100
0001
0000
,
2000
3002
0203
0320
,
2030
0000
0000
3002
0000
0000
1003
0010
0000
1000
0010
0000
0100
0001
0000
0100
,
0001
0000
1000
0001
0000
1000
0001
0000
2000
0000
0000
0000
3002
0000
0000
0000
,
0203
0000
0000
0000
0000
0310
0000
0000
0000
1000
0000
0000
0001
0000
0000
0000
0001
0000
0010
0000
0000
0000
0010
0000
,
0001
0000
0001
0100
0000
0100
0010
0000
0010
1000
0000
1000
,
0200
0000
0000
0320
0000
0000
0031
0010
0000
0001
0010
0000
0100
1000
0000
0100
,
1000
0000
0001
0100
0000
0001
0100
0000
0020
0000
0000
0000
1030
0000
0010
0000
,
0100
0000
0001
0000
1000
0000
0100
0000
0010
0000
0001
2000
0000
0000
3100
0000
,
0010
0000
0001
0000
1000
0010
0100
0000
0001
1000
0100
0000
0020
0000
0000
0000
,
0032
0000
0000
0000
1003
0000
0010
0000
0200
0000
0000
0000
0301
1000
0001
0000
,
1000
0100
1000
0000
0001
0100
0001
0000
2000
0000
0000
0000
3000
0000
0000
0000
,
0010
0000
0000
1000
0000
0000
0010
0000
0000
0000
0000
0000
0100
0000
0000
0010
0000
0000
0100
0000
0000
0000
0000
0000
0002
0000
0000
0000
0000
0000
0000
0000
0000
0000
0000
0000
1003
0000
0000
0000
0000
0000
0000
0000
1000
0000
0000
0000
,
0100
0000
1000
0010
0000
0100
0001
0000
0010
0001
0000
0100
,
0020
0000
0000
0230
0000
0000
0302
0000
0000
1003
0100
1000
,
0100
0000
0000
0000
1000
0000
0000
0000
0100
0000
0000
0000
1000
0000
0000
0000
0001
0000
0000
0000
1000
0000
0000
0000
0002
0000
0000
0000
0000
0000
0000
0000
0000
0000
0000
0000
0103
0000
0000
0010
0000
0000
0100
0000
0000
0010
0000
0000
,
0100
0010
1000
0001
0100
0010
1000
0001
,
0010
0100
1000
0001
0100
0010
0100
0001
,
2000
0000
0002
0000
,
0000
3000
0020
0003
,
0200
0030
0020
0000
,
0000
0300
0002
0030
,
2000
0000
0003
0000
3020
0000
0100
0100
,
0200
0030
0020
0300
,
2000
0030
0002
0000
,
0000
0000
0000
3003
,
1000
0000
1000
0000
0010
0100
0010
0000
,
1000
0000
0001
0000
0010
0100
0010
0000
,
0001
0001
0010
0010
,
0100
0000
0000
0000
0100
0000
1000
0001
1000
0000
0000
1000
0000
0000
1000
0000
,
0001
0010
0001
0010
0100
1000
0100
1000
,
0010
0100
0001
0010
0100
1000
0010
0100
,
0001
0010
1000
0010
0001
0100
1000
0100
,
0001
0000
1000
0000
0000
0001
0000
0000
0010
0000
0000
0010
0000
0000
0010
0000
,
0001
1000
0100
1000
0010
0100
0001
0010
,
0001
1000
0010
0100
0010
1000
0100
0001
,
0100
1000
0010
0001
0010
0001
1000
0100
,
0001
0000
0000
0000
1000
0100
0010
0001
0020
0000
0030
0000
0200
0000
0300
0000
,
1000
0010
0100
0001
1000
1000
0001
0010
,
0100
1000
0100
1000
0100
0001
0100
0001
,
0100
0000
1000
0000
0010
0000
0100
0000
0001
0000
0000
0100
0000
0000
0010
0000
,
2000
0000
0000
0000
3001
0010
0001
0010
0002
0000
2003
0000
3200
0000
0320
0000
,
0031
1000
0100
1000
0010
1000
0001
0100
,
0001
0010
0001
0100
1000
0100
0001
0000
,
1000
1000
1000
0010
0001
0001
0001
0010
,
1000
0000
0001
1000
0001
0000
0000
0000
2002
0000
0000
0000
3000
0000
0000
0000
,
0013
1000
0010
1000
0010
0001
0010
0001
,
0100
1000
0100
1000
0100
0001
0100
0001
,
1000
2100
3001
0012
,
0103
0000
0000
0000
0010
1000
0010
0100
0002
0000
0000
0000
2003
0000
0000
0000
,
3200
0000
0000
0000
0000
0000
0000
0000
1300
0001
1000
0001
2000
0000
0000
0000
,
3010
0200
0000
0300
1010
0000
0101
0000
,
0012
0000
0000
1003
1100
0000
2020
0000
,
0000
0030
3002
0023
,
0130
0000
1100
0000
0012
0000
2003
3020
,
0032
2003
3200
0000
0002
0000
0303
0000
,
2010
0000
0000
3001
0101
0000
0022
0000
,
0000
0030
2003
3020
,
0130
0000
0101
0000
2010
0000
3002
0023
,
2030
3002
0203
2300
3002
0203
0320
0230
,
0302
0000
0000
0000
0000
0000
0000
2003
,
3010
0000
0001
0000
0010
0000
1000
0000
0100
0000
1000
0001
0000
1000
0001
0000
,
0100
0000
1000
0000
0100
0000
0001
0000
0010
0000
0100
0010
0000
0100
0010
0000
,
0001
0010
0001
0000
0100
0000
0010
0000
2000
0000
0000
0000
3000
0000
0000
0000
,
0100
1000
0100
0000
1000
0000
0001
0000
0020
0000
0000
0000
0030
0000
0000
0000
,
0001
0010
0001
0000
1000
0010
0100
0000
0001
0100
0001
0000
1000
0100
1000
0100
,
2000
0000
0000
0000
3020
0000
0000
0000
0230
0000
0000
0000
0301
1000
0001
1000
,
0001
0000
0000
0000
;

//--------------- dance-single - ----------------
#NOTES:
     dance-single:
     :
     Hard:
     17:
     0,0,0,0,0:
0000
0000
0000
0000
,
0000
0000
0000
0000
,
0000
0000
0000
0000
,
0000
0000
0000
0000
,
0000
0000
0000
0000
,
0000
0000
0000
0000
,
1000
0100
1000
0000
0100
0000
0010
0000
0001
0000
1000
0000
0010
0000
0100
0000
,
0001
0100
0001
0000
0100
0000
0010
0000
1000
0000
0100
0000
0010
0000
0001
0000
,
1000
0001
1000
0001
1000
0001
1000
0001
0100
0010
0100
0010
0100
0010
0100
0010
,
2000
0000
0000
0000
3001
0010
0100
1000
0100
0010
0001
0100
0020
0000
0000
0000
,
1030
0100
1000
0100
0010
0001
0010
0001
,
0101
0000
0110
0000
1020
0000
0000
0000
1030
0000
0001
0000
0010
0001
0010
0100
,
1000
0001
1000
0001
0100
0100
0010
0010
,
1000
0000
0000
0000
0000
0000
1000
0000
0000
0010
0000
0000
0100
0000
0000
0000
0000
0000
0001
0000
0000
0010
0000
0000
0200
0000
0000
0000
0000
0000
0000
0000
0000
0000
0000
0000
1300
0000
0000
0000
1000
0000
0000
0000
0001
0000
0000
0000
,
0001
0100
0001
0100
0010
1000
0010
1000
,
1100
0110
0021
0000
0032
0000
2003
0000
,
3001
0010
0100
1000
0001
0001
0110
0000
0110
0000
1001
0000
,
1000
0000
0000
0000
0010
0000
0000
0000
0100
0000
0000
0000
0001
0000
0000
1000
0000
0000
0001
0000
0000
1000
0000
0000
0020
0000
0000
0000
0000
0000
0000
0000
0000
0000
0000
0000
0230
0000
0000
0000
0000
0000
0000
0000
0000
0000
0000
0000
,
0301
0000
0010
0000
0001
0000
0010
0000
1000
0000
0001
0000
0100
0000
1000
0100
,
1000
0000
0010
0000
1000
0000
0010
0000
0001
0000
1000
0000
0100
0001
0100
0001
,
0100
0001
0010
0001
0100
0010
1000
0100
,
1000
0000
0000
0000
0000
0000
0010
0000
0000
0100
0000
0000
0010
0000
0000
0000
0000
0000
0100
0000
0000
0000
0000
0000
0001
0000
0000
0000
0010
0000
0000
0000
0100
0000
0000
0000
1000
0000
0000
0000
0010
0000
0000
0000
0100
0000
0000
0000
,
0002
0000
0013
0100
1000
0000
0001
0000
2000
0000
3100
0010
0001
0000
1000
0000
,
0010
0000
0010
0100
0001
0000
1000
0100
0010
0000
0001
0000
1002
0000
0000
0000
,
0103
0010
1000
0010
1000
0010
0100
0001
0010
0001
0010
0001
,
0010
0100
1000
0010
0100
0001
0010
1000
0010
0001
0100
0010
,
2000
0000
0000
0000
,
0000
0000
0000
0000
,
3002
0000
0000
0000
,
0000
0000
0000
0000
1003
0010
2000
0000
,
3001
0010
0001
0010
0100
0010
0100
0010
0002
0000
0000
0000
0003
0000
0000
0000
,
1000
0010
1000
0010
0100
0010
0100
0010
2000
0000
0000
0000
3000
0000
0000
0000
,
0001
0010
0001
0010
0100
1000
0100
1000
0001
0100
0001
0100
0010
1000
0010
1000
,
0200
0000
0000
0000
0320
0000
0000
0000
0230
0000
0000
0000
1300
0001
1000
0001
,
2000
0000
0000
3002
0000
0000
0103
0010
0000
0010
0100
0000
0001
1000
0000
1000
,
0001
0000
0010
0100
0000
0100
0010
0000
2001
0000
0000
0000
3001
0100
0010
0000
,
0200
0000
0000
0000
0000
0000
0000
0000
0000
0000
0310
0000
0000
0000
0000
0000
0000
0000
1000
0000
0000
0001
0000
0000
1000
0000
0000
0000
0100
0000
0000
0000
1000
0000
0000
0000
0100
0000
0000
0000
0001
0000
0000
0000
0100
0000
0000
0000
,
1000
0001
0100
0001
0100
1000
0100
0001
0010
1000
0010
0001
,
2000
0000
0000
3020
0000
0000
0130
0001
0000
0001
0100
0000
0001
0010
0000
0010
,
0001
0000
1000
0100
0000
0100
1000
0000
2001
0000
0000
0000
3001
0100
0010
1000
,
0001
0000
0010
0000
0001
0000
0100
0000
0010
0000
1000
0200
0000
0000
1300
0000
,
0010
0000
0100
0000
0001
0100
0001
0100
0010
1000
0010
1000
0001
0000
0010
0000
,
0210
0000
0000
0000
0310
0000
0001
0000
1002
0000
0000
0000
1003
0010
0100
0010
,
1000
0100
0010
0100
1000
0010
0100
0010
2000
0000
0000
0000
3000
0000
0000
0000
,
0001
0000
0000
0100
0000
0000
0010
0000
0000
0100
0000
0000
0001
0000
0000
0010
0000
0000
0100
0000
0000
0010
0000
0000
0002
0000
0000
0000
0000
0000
0000
0000
0000
0000
0000
0000
0103
0000
0000
0000
0010
0000
0000
0000
1000
0000
0000
0000
,
0001
0001
1000
0100
1000
0001
0010
0010
0001
0100
0010
1000
,
0002
0000
0000
0000
0000
0000
0103
0000
0000
0010
0000
0000
2001
0000
0000
0000
0000
0000
3001
0000
0010
0000
1000
0000
,
0010
0000
0000
0000
0001
0000
0000
0000
1000
0000
0000
0000
0010
0000
0000
0000
0001
0000
0000
0000
0010
0000
0000
0000
2000
0000
0000
0000
0000
0000
0000
0000
0000
0000
0000
0000
3100
0000
0000
0010
0000
0000
0001
0000
0000
1000
0000
0000
,
0010
0010
0100
0010
1000
0001
0100
0010
,
1000
0001
0010
0100
1000
0001
1000
0010
,
0210
0000
0320
0000
,
0000
1000
0000
0100
2030
0000
0000
0000
,
3200
0000
0000
0000
0000
0000
0310
0001
0020
0000
0000
0000
0001
0000
0000
0000
,
0000
1000
0000
0001
0032
0000
0000
0000
,
0203
0000
0000
0001
0010
0000
0301
1000
,
0020
0000
0000
1000
1000
0000
0100
0000
,
2030
0000
0000
0000
0000
0000
3100
0010
0200
0000
0000
0000
1000
0000
0010
0000
,
0000
0001
0310
0000
2002
0000
3000
0000
,
1003
0000
0010
0000
1000
0000
0000
0000
0001
0000
0010
0000
0001
0100
0000
0100
,
0010
0000
1000
0000
0000
0000
0001
0100
0001
0000
1000
0000
0100
0000
0100
0000
,
0010
0001
0000
0011
0000
1100
0000
0110
,
0000
0000
1001
0000
0000
0000
0001
0100
0010
0000
0000
0110
0000
0000
1001
0000
,
0001
0010
0001
0000
1000
0000
0100
0000
0010
0000
0001
0000
1000
0000
0010
0000
,
0100
0010
0100
0000
0001
0000
1000
0000
0010
0000
1000
0000
0100
0000
0010
0000
,
0001
0010
0100
0000
1000
0000
0001
0000
0100
0001
1000
0000
0010
0000
1000
0000
,
0100
0010
0100
0010
0100
0010
0100
0010
0001
0000
0000
0001
0000
0000
0001
0000
,
1000
0000
0100
0000
0001
0100
0000
0000
1000
0000
0010
0000
0100
0010
0000
0010
,
0100
0000
0001
0000
0010
0000
1000
0000
0010
0000
0001
0000
1000
0010
0001
0000
,
0010
0000
1000
0001
0000
1000
0001
0000
0010
0000
0001
1000
0000
0001
1000
0000
,
0100
0000
1000
0010
1000
0010
0100
0001
2000
0000
0000
0000
3000
0000
1001
0000
,
0001
0000
0100
0000
1000
0100
0000
0000
0001
0000
0010
0000
0100
0010
0000
0010
,
0100
0000
1000
0000
0010
0000
0001
0000
0010
0000
1000
0000
0001
0010
1000
0000
,
0010
0000
0010
0000
0010
0001
0100
0010
1000
0000
0000
1010
0000
0000
0101
0000
,
0002
0000
0000
0000
0103
0010
0100
0010
1000
0001
1000
0001
0010
0100
1000
0100
,
0010
0000
0001
0000
0100
1000
0100
0000
0001
0000
0010
0000
0100
1000
0000
0100
,
0001
0000
0100
0000
1000
0000
0010
0001
0010
0000
1000
0000
0100
0000
0010
0000
,
0001
0001
0001
0100
1000
1000
1000
0100
,
0001
1000
0100
0001
0100
0000
0000
0000
2002
0000
0000
0000
3000
0000
0000
0000
,
0103
0000
0010
0000
1000
0010
0100
0001
0100
0000
0001
0010
0100
0000
1000
0010
,
0100
0000
0010
0000
1000
0010
1000
0001
0010
0000
0001
1000
0100
0000
0010
0001
,
1000
0010
0002
0000
1003
0100
0002
0000
,
1003
0100
1000
0100
0001
0100
0001
0100
1000
0000
0000
0000
1001
0000
0000
0000
,
2000
0000
0001
0000
0000
0001
0000
0000
3001
0100
0001
0100
0002
0000
0000
0000
,
0013
0200
0000
0300
1100
0000
0011
0000
,
2010
0000
0000
3100
0010
0000
0012
0000
,
0000
0000
0000
0000
0000
0000
0000
0000
0000
0000
0000
0000
1003
0000
0000
0010
0000
0000
1000
0000
0000
0010
0000
0000
1000
0000
0000
0000
0100
0000
0000
0000
1000
0000
0000
0000
0001
0000
0000
0000
0010
0000
0000
0000
0001
0000
0000
0000
,
0200
0000
0000
0000
0000
0000
0310
0000
0000
0000
0000
0000
2000
0001
0000
0000
0000
0000
3200
0000
0000
0010
0000
0000
,
0010
0010
0310
0000
1002
0000
0000
0000
,
2003
0000
0000
3010
0100
0000
0210
0000
,
0000
0000
0000
0000
0000
0000
0000
0000
0000
0000
0000
0000
0301
0000
0000
1000
0000
0000
0001
0000
0000
1000
0000
0000
0001
0000
0000
0000
0100
0000
0000
0000
0010
0000
0000
0000
1000
0000
0000
0100
0000
0000
1000
0000
0000
0001
0000
0000
,
0010
0000
0000
0000
0000
0000
0000
0000
0000
0000
0000
0000
0011
0000
0000
0000
0000
0000
0000
0000
0000
0000
0000
0000
2000
0000
0100
0000
0000
0000
0000
0000
0000
0000
0000
0000
3001
0000
0000
0100
0000
0000
0001
0000
0000
0100
0000
0000
,
0001
0100
0001
0100
0001
0100
0001
1000
0100
0000
0100
0000
0010
0000
0001
0000
,
2000
0000
0000
0000
0000
0000
0000
3002
,
0103
0010
0100
0000
0010
0000
1000
0100
0010
0000
0001
0100
0010
1000
0001
0100
,
0010
1000
0010
0000
0100
0000
0001
1000
0100
0000
0010
0001
0010
0100
1000
0000
,
0100
0010
0100
0010
0001
1000
0001
1000
0020
0000
0000
0000
0030
0000
0000
0000
,
1000
0001
1000
0001
0100
0010
0100
0010
2000
0000
0000
0000
3000
0000
0000
0000
,
0001
0010
0001
1000
0010
0100
0001
0100
0010
1000
0100
1000
0001
0100
0010
1000
,
0200
0000
2300
0000
3002
0000
0023
0000
0032
0000
0203
0000
0310
1000
0010
0100
,
0001
0000
0000
0000
;
