#TITLE:ulexite;
#SUBTITLE:;
#ARTIST:ZUKI;
#TITLETRANSLIT:;
#SUBTITLETRANSLIT:;
#ARTISTTRANSLIT:;
#GENRE:;
#CREDIT:;
#MUSIC:ulexite.ogg;
#BANNER:;
#BACKGROUND:;
#CDTITLE:;
#SAMPLESTART:72.617;
#SAMPLELENGTH:15.000;
#SELECTABLE:YES;
#OFFSET:0.716;
#BPMS:0.000=180.000;
#STOPS:;
#BGCHANGES:;
#FGCHANGES:;

//--------------- dance-single - ----------------
#NOTES:
     dance-single:
     :
     Beginner:
     5:
     0,0,0,0,0:
0000
0000
0000
0000
,
0000
0000
0000
0000
,
0000
0000
0000
0000
,
0000
0000
0000
0000
,
0000
0000
0000
0000
,
0002
0000
0003
0000
,
2000
0000
3000
0000
,
0002
0000
0003
0000
,
0010
0010
0010
0000
,
0001
0001
1000
0000
,
1000
1000
0001
0000
,
1000
0000
0100
0000
,
0001
0000
0100
0000
,
1000
1000
0001
0000
,
0001
0001
1000
0000
,
0100
0000
0001
0000
,
0100
0000
1000
0000
,
0010
0010
0010
0000
,
0100
0100
0100
0000
,
0001
0000
1000
0000
,
0001
0000
1000
0000
,
0100
0100
0100
0000
,
0010
0010
0010
0000
,
0001
0001
1000
0000
,
1000
1000
0001
0000
,
0100
0100
0100
0000
,
0010
0010
0010
0000
,
1000
0000
0100
0000
,
1000
0001
1000
0000
,
0010
0010
0010
0000
,
0100
0100
0100
0000
,
0001
0000
0010
0000
,
0001
1000
0001
0000
,
2002
0000
3003
0220
,
0000
0000
0330
0000
,
1000
0010
1000
0000
,
0001
0010
0001
0000
,
2002
0000
3003
0220
,
0000
0000
0330
0000
,
0001
0010
0001
0000
,
0001
0100
0001
0000
,
0022
0000
0033
2200
,
0000
0000
3300
0000
,
1000
0010
1000
0000
,
1000
0100
1000
0000
,
2020
0000
3030
0202
,
0000
0000
0303
0000
,
0001
0001
0001
0001
,
0001
0001
0001
0000
,
0010
0010
0010
0010
,
0010
0010
0010
0000
,
0100
0100
0100
0100
,
0100
0100
0100
0000
,
1000
1000
1000
2000
,
0000
0000
3000
0000
,
0001
0001
1000
0000
,
1000
1000
0001
0000
,
0100
0100
0010
0000
,
0010
0010
0100
0000
,
0001
0001
0001
0000
,
0100
0100
0100
0000
,
1000
1000
1000
0000
,
0010
0010
0010
0000
,
0001
0000
0100
0000
,
1000
0000
0100
0000
,
0001
0001
1000
0000
,
1000
1000
0001
0000
,
0010
0000
1000
0000
,
0010
0000
0001
0000
,
0100
0100
0100
0000
,
0010
0010
0020
0000
,
0030
0000
0000
0000
,
1000
1000
0100
0000
,
1000
1000
0010
0000
,
0001
0000
0010
0000
,
1000
0000
0000
0000
,
0001
0001
0010
0000
,
0001
0001
0100
0000
,
0002
0000
0003
2000
,
0000
3000
0220
0000
,
0330
0000
0000
0000
;

//--------------- dance-single - ----------------
#NOTES:
     dance-single:
     :
     Easy:
     8:
     0,0,0,0,0:
0000
0000
0000
0000
,
0000
0000
0000
0000
,
0000
0000
0000
0000
,
0000
0000
0000
0000
,
0000
0000
0000
0000
,
0002
0000
0200
0303
,
2000
0000
0200
3300
,
0002
0000
2000
3003
,
0100
0100
0010
0100
,
0001
0010
0100
0010
,
1000
0010
0100
0010
,
0001
0001
1000
1000
,
0010
0000
0100
0000
0001
1000
0001
0000
,
1000
0010
0100
0010
,
0001
0010
0100
0010
,
1000
0000
1000
0000
0001
0000
0001
0010
,
0000
0010
0000
0100
0000
0100
0000
0000
,
1000
0000
0100
1000
0100
0000
0001
0000
,
0100
0001
0100
0000
1000
0000
0000
0000
,
0001
2000
0010
0010
,
3002
0010
0013
0000
,
0001
0000
0100
0001
0100
0000
1000
0000
,
0100
1000
0100
0000
0001
0000
0000
0000
,
1000
0002
0010
0010
,
2003
0010
3010
0100
,
0001
0000
0010
0000
0100
1000
0100
0000
,
1000
0000
0010
1000
0010
0000
0100
0000
,
2000
0100
0100
3100
,
0002
0100
0103
0010
,
1000
0000
0010
0000
0100
0001
0100
0000
,
0001
0000
0010
0001
0010
0000
0100
0000
,
0002
0100
0100
0103
,
2000
0100
3100
0010
,
0001
0000
0001
0010
0000
0000
0100
0000
,
0100
1000
0000
0000
0001
1000
0001
0000
,
1000
0010
0001
0010
,
1000
0001
0100
0010
,
1000
0000
1000
0100
0000
0000
0010
0000
,
0010
0001
0000
0000
1000
0001
1000
0000
,
0010
0010
0010
0000
,
0100
0100
0100
0000
,
0001
0000
0010
1000
0000
0000
0001
0000
,
0100
1000
0000
0000
0001
0010
0001
0000
,
1000
0100
1000
0001
,
0100
0001
1000
0001
,
1000
0000
0100
0001
0000
0000
1000
0000
,
0010
0001
0000
0000
1000
0100
1000
0000
,
0010
0010
0010
0010
,
0100
0100
0100
0100
,
0001
0001
1000
1000
,
0100
0100
0010
0010
,
0001
0000
0010
0000
0001
0100
0001
0000
,
1000
0000
0010
0000
1000
0100
1000
0000
,
0001
0000
1000
0000
0001
1000
0001
1000
,
0000
0000
0000
0000
,
0001
0010
0001
0000
0100
0000
0100
0020
,
0000
0130
0001
1000
,
0010
0100
0010
0000
1000
0000
1000
0200
,
0000
0310
0001
0001
,
2000
0000
0000
3010
0200
0000
0310
2000
,
0000
3001
0100
0000
0110
0000
1001
0000
,
0001
0020
0000
0130
2000
0000
3001
0020
,
0000
0130
0100
0000
1100
0000
0101
0000
,
0001
0010
0100
1000
,
0010
0100
0001
1000
,
0100
0001
0100
0000
1000
0000
0002
0000
,
0000
0103
0110
1001
,
1000
0000
0010
1000
0010
0000
0001
0000
,
0010
0001
0010
0000
1000
0000
0001
0000
,
1000
0000
0100
1000
0100
0000
0001
0000
,
0100
0001
0100
0000
1000
0000
0002
0000
,
0000
0000
0000
0003
,
0010
0010
0001
0001
,
0100
0100
1000
1000
,
0010
0010
1000
1000
,
0100
0100
0001
0001
,
0010
0001
0100
0010
,
1000
0100
0010
0001
,
0100
0000
0100
1000
0000
0000
0100
0000
,
0100
0001
0000
0000
0010
0100
0010
0100
;

//--------------- dance-single - ----------------
#NOTES:
     dance-single:
     :
     Medium:
     11:
     0,0,0,0,0:
0000
0000
0000
0000
,
0000
0000
0000
0000
,
0000
0000
0000
0000
,
0000
0000
0000
0000
,
0000
0000
0000
0000
,
2000
0000
0000
3020
0000
0100
0130
0000
,
0002
0000
0000
0023
0000
0100
0130
0000
,
2000
0000
0000
3002
0000
0100
0103
0000
,
0010
1000
0001
0100
0010
0000
1001
0000
,
1000
0100
0010
0200
0000
1300
0002
0000
,
0000
0100
0103
0000
0010
1000
0010
0100
,
0002
0000
0023
0000
0130
1000
0100
0010
,
0000
1001
0000
0001
0100
0100
0010
1000
,
0001
0100
0010
0200
0000
0301
2000
0000
,
0000
0100
3100
0000
0010
0100
0010
0000
,
0002
0000
0203
0000
0310
1000
0010
0100
,
0000
0101
0000
1010
0000
1000
0001
1000
,
0001
0010
0100
1000
0001
0010
0200
0000
,
0000
0000
0310
0000
0001
0000
0000
0000
1000
0000
0000
1000
0000
0000
1000
0000
,
0001
0100
0010
0200
0000
0301
0010
0100
,
0000
0000
1100
0000
0000
0000
0001
0000
0010
0000
0000
0010
0000
0000
0001
0000
,
1000
0010
0100
0001
1000
0010
0200
0000
,
0000
0000
0310
0000
1000
0000
0000
0000
0001
0000
0000
0001
0000
0000
0001
0000
,
1000
0100
0010
0000
0001
0100
0010
0000
,
1000
0100
0010
0001
1000
0000
1001
0000
,
0100
0001
0100
0010
1000
0001
0100
0020
,
0000
0000
0130
0000
0001
0000
1000
0000
0100
0000
0000
0100
0000
0000
0100
0000
,
1000
0010
1000
0200
0000
0310
0001
0010
,
0000
0000
1001
0000
0000
0000
1000
0000
0001
0000
0000
0001
0000
0000
0100
0000
,
0010
1000
0010
0100
0001
1000
0010
0200
,
0000
0000
0310
0000
1000
0000
0001
0000
0010
0000
0000
0010
0000
0000
0010
0000
,
0001
0100
0010
0000
1000
0100
0010
0000
,
0001
0100
0010
1000
0001
0000
1001
0000
,
1000
0100
1000
0100
0000
0010
0001
0100
,
0001
0100
0000
0010
1000
0000
1000
0000
,
0100
0010
0100
1000
0100
0010
0001
2000
,
0000
3001
0100
0001
0010
0000
1001
0000
,
0001
0010
0001
0010
0000
0100
1000
0010
,
1000
0010
0000
0100
0001
0000
0001
0000
,
0100
0001
0010
0001
1000
0100
0000
1100
,
0000
0011
0000
0001
0100
0010
1000
0000
,
1000
0100
0100
1000
0000
0001
0010
0010
,
0001
0010
0000
0001
0100
0000
0100
0000
,
0010
1000
0010
0100
0001
0010
0100
2000
,
0000
3100
0100
0010
0100
0000
1001
0000
,
0001
0001
0001
0010
0000
0100
1000
1000
,
1000
0100
0000
0010
0002
0000
2003
0000
,
3001
0100
0001
0100
0010
1000
0010
1000
,
0001
1000
0001
1000
0100
1000
0100
0010
,
0001
0100
0001
0100
0010
1000
0100
0010
,
0000
0011
0000
1010
0000
1001
0000
1000
,
0100
1000
0100
1000
0010
1000
0010
1000
,
0001
0100
0001
0100
0001
0010
0001
0010
,
0100
1000
0010
0100
0001
0001
1000
1000
,
0000
0000
0020
0230
,
0301
1000
0010
2000
0000
3100
0010
0002
,
0000
0103
0100
0000
0001
1000
0010
0100
,
0001
0001
0010
0200
0000
0310
0001
2000
,
0000
3010
0100
0010
0100
0001
0010
0010
,
0002
0000
0103
0010
2000
0000
3010
0200
,
0000
0310
1000
0001
0010
0000
0110
0000
,
1000
0010
1000
0001
0010
0001
1000
0200
,
0000
0310
0010
0010
0001
0100
0010
1000
,
0001
1000
0100
0000
1000
0010
0100
0000
,
0001
0010
0100
0000
1000
0100
0010
0000
,
0001
0100
0010
1000
0010
0100
0002
0000
,
0000
0013
0100
0000
1000
0001
1000
0001
,
0010
0100
1000
0100
0010
0001
0010
0001
,
0100
0010
1000
0020
0000
0130
0001
1000
,
0200
0000
0310
0002
0000
0103
0010
0200
,
0000
0302
0000
1003
0100
0100
0100
0020
,
0000
0000
0000
0000
0030
0000
0001
0100
,
0002
0000
0013
2000
0000
3010
0002
0000
,
1003
0020
0000
0130
0001
0100
0001
1000
,
0200
0000
1300
0020
0000
1030
0200
0000
,
0310
0001
0010
0100
1000
0001
0100
0001
,
2000
0000
3010
0002
0000
0013
2000
0000
,
3100
0000
0010
0000
0000
0010
0000
0000
0100
0000
1000
0000
0001
0000
0100
0000
,
0001
0010
1000
0010
0000
0100
1000
0010
,
0001
0010
0000
0100
0001
0010
0100
1000
;

//--------------- dance-single - ----------------
#NOTES:
     dance-single:
     :
     Hard:
     15:
     0,0,0,0,0:
0000
0000
0000
0000
,
0000
0000
0000
0000
,
0000
0000
0000
0000
,
0000
0000
0000
0000
,
0000
0000
0000
0000
,
2000
0000
0000
0000
0000
0000
0001
0000
0000
0000
3100
0000
0010
0100
0010
0000
,
0002
0000
0000
0000
0000
0000
1000
0000
0000
0000
0103
0000
0010
0100
0010
0000
,
2000
0000
0000
0000
0000
0000
0001
0000
0000
0000
3100
0000
0010
0100
0010
0000
,
0001
0000
1000
0000
0010
0000
0100
0000
0001
1000
0001
1000
0001
0000
0000
0000
,
0200
0010
0310
2000
0000
3001
0020
2000
,
0030
0000
3010
0000
0001
0000
1000
0000
0010
0100
0001
0000
1000
0000
0000
0000
,
0020
0100
0130
0001
1000
0100
0010
0002
,
0000
0000
1003
0010
1000
0000
0010
0000
0100
0001
0100
0000
0010
0000
1000
0000
,
0200
0010
0310
0002
0000
1003
0020
0002
,
0030
0000
0013
0000
1000
0000
0001
0000
0100
0001
1000
0000
0001
0000
0000
0000
,
0020
0100
0130
1000
0001
0100
0010
1010
,
0000
0101
0000
0001
1000
1000
0001
0001
,
1000
0001
0100
0000
0010
0000
1000
0001
0010
0000
0100
0000
0020
0000
0000
0000
,
0000
0000
0031
0000
0100
0000
0010
0000
1000
0001
0000
1000
0001
0000
0010
0000
,
0100
1000
0010
0002
0000
0013
1000
0100
,
0000
0000
1001
0000
0000
0000
0001
0000
0100
0010
0000
0100
0010
0000
1000
0000
,
0001
1000
0100
0000
0010
0000
0001
1000
0010
0000
0100
0000
0020
0000
0000
0000
,
0000
0000
1030
0000
0100
0000
0010
0000
0001
1000
0000
0001
1000
0000
0010
0000
,
2000
0001
3001
0100
0002
0010
0013
0100
,
1000
0000
0001
0000
1001
0000
0000
0000
1000
0010
0100
0001
2000
0000
0000
0000
,
3001
0010
0100
0000
0010
0000
0001
0100
0010
0000
2000
0000
0100
0000
3002
0000
,
0000
0000
0103
0000
0010
0000
0100
0000
0001
0010
0000
0010
0100
0000
1000
0000
,
0100
0010
0001
0102
0000
1003
0010
1000
,
0000
0000
2100
0000
0000
0000
3010
0000
0100
0010
0000
0010
0100
0000
0001
0000
,
1000
0010
0100
0000
0010
0000
1000
0100
0010
0000
0002
0000
0100
0000
2003
0000
,
0000
0000
3100
0000
0010
0000
0100
0000
1000
0010
0000
0010
0100
0000
0100
0000
,
0002
1000
1003
0100
2000
0010
3010
0100
,
0001
0000
1000
0000
1001
0000
0000
0000
0001
0010
0100
1000
0002
0000
0000
0000
,
1003
0100
1000
1010
0000
0010
0100
0001
,
0010
0011
0000
0001
0100
1000
0100
0001
,
2000
0010
3010
0001
0010
1000
0001
0020
,
0000
0000
0130
0000
0001
0000
0100
0000
1000
0010
1000
0010
0100
0000
0000
0000
,
0001
0010
0001
0101
0000
0100
0010
1000
,
0100
0000
1100
0000
0000
0000
1000
0000
0001
0100
0001
0100
0010
0000
1000
0000
,
0001
0010
2000
0000
3010
0001
0000
0011
,
0000
0000
0001
0000
0100
0000
0010
0000
1000
0001
1000
0001
1000
0000
0000
0000
,
0001
0100
0110
1010
0000
1000
0100
0010
,
0110
0011
0000
0001
0100
1000
0100
0001
,
2000
0010
3001
0100
0020
1000
0130
0001
,
0010
0000
1000
0000
0010
0000
0001
0000
0100
0010
0100
0010
1000
0000
0000
0000
,
0001
0010
0011
1001
0000
1000
0100
1000
,
1010
1001
0000
0001
0200
0000
0320
0000
,
1030
0100
0001
0100
1000
0001
0100
1000
,
0100
0001
1000
0001
0100
0010
1000
0100
,
0010
0001
1000
0001
0100
0010
1000
0100
,
0001
1000
0010
0001
1000
0010
0001
0010
,
1000
0100
0010
1000
0001
0100
0010
0001
,
1000
0010
0100
1000
0001
0010
0100
0001
,
1000
0001
1000
0001
1000
0001
1000
0001
0100
0010
0100
0010
0100
0010
0100
0000
,
0000
0000
0101
1010
,
0010
0000
1000
0000
0100
0000
0002
0000
0000
0000
0103
1000
0010
0000
0200
0000
,
0000
0000
0310
0000
0001
0000
0010
0000
1000
0010
1000
0010
1000
0000
0100
0000
,
0001
0100
0010
2000
0000
3010
0001
0200
,
0000
0000
0310
1000
0001
1000
0001
1000
0001
0000
0100
0000
0010
0000
1000
0000
,
0002
0000
0000
0000
0000
0000
0000
0000
0010
0000
0000
0000
0000
0000
0000
0000
0010
0000
0000
0000
0000
0000
0000
0003
0002
0000
0000
0000
0000
0000
0000
0000
0100
0000
0000
0000
0000
0000
0000
0000
0100
0000
0000
0000
0000
0000
0000
0003
0002
0000
0000
0000
0000
0000
0000
0000
2000
0000
0000
0000
0000
0000
0000
0000
,
0003
0000
3100
0010
0001
0000
0100
0000
0010
0000
0000
0000
1001
0000
0000
0000
,
2000
0000
0000
0000
0000
0000
0000
0000
0100
0000
0000
0000
0000
0000
0000
0000
0100
0000
0000
0000
0000
0000
0000
3000
2000
0000
0000
0000
0000
0000
0000
0000
0010
0000
0000
0000
0000
0000
0000
0000
0010
0000
0000
0000
0000
0000
0000
3000
2000
0000
0000
0000
0000
0000
0000
0000
0200
0000
0000
0000
0000
0000
0000
0000
,
3000
0000
0310
0000
0001
0100
0001
0100
0001
1000
0010
1000
0010
1000
0001
1000
,
0001
0100
0010
2010
0000
3001
0010
1000
,
0001
0100
1000
1200
0000
0310
0001
0100
,
1000
0100
0001
0000
0010
0000
0100
0000
0001
0100
1000
0000
0020
0000
0000
0000
,
0000
0000
0130
0000
0001
0000
0010
0000
0001
1000
0001
1000
0001
1000
0001
1000
,
0001
0000
1000
0000
0100
0000
0010
0001
0100
0000
0010
0100
0001
0000
0010
0000
,
0100
0000
1000
0010
0100
0000
0020
0000
0000
0000
0130
0000
0010
0000
1000
0000
,
0100
0001
0100
1000
0000
1100
0000
0011
,
0000
0000
0001
0000
0100
0000
0010
0000
1000
0100
1000
0100
0010
0001
0100
0020
,
0000
0000
0000
0000
0000
0000
1030
0001
,
0200
1300
0002
0013
0200
0301
0020
0130
,
0002
0000
1003
0000
0020
0000
0031
0000
0200
0000
0310
0000
1000
0000
0001
1000
,
0200
0310
2000
3001
0200
1300
0020
0130
,
2000
0000
3001
0000
0020
0000
0130
0000
0001
0100
0001
0100
0001
0000
1000
0100
,
0020
0031
0020
1030
0002
0103
2000
3010
,
0200
0000
0301
1000
0000
0001
1000
0000
0100
0010
0100
0000
0010
0000
0001
0000
,
1000
0010
0110
1001
0000
1000
0001
0010
,
0110
1001
0000
1000
0010
0001
0010
1000
;
